Subcategories

Three Suns - Ding Dong Dandy Christmas (1959) Remastered 2015

Posted By: Designol
Three Suns - Ding Dong Dandy Christmas (1959) Remastered 2015

Three Suns - Ding Dong Dandy Christmas (1959) Remastered 2015
EAC | FLAC | Tracks (Cue&Log) ~ 227 Mb | Mp3 (CBR320) ~ 85 Mb | Scans included | 00:35:34
Easy Listening, Lounge, Instrumental Pop, Christmas | Label: Real Gone Music | # RGM-0395

The instrumental trio The Three Suns had been around for about two decades, capturing fans as far-ranging as First Lady Mamie Eisenhower and the Platters (who took their Twilight Time to the top of the charts), when they cut this record for RCA s famed Living Stereo series in 1959. And, no doubt inspired by the new-fangled recording technology in RCA s Studio A, they turned in one of the most wacky and entertaining Christmas albums of the era, adding rock and roll guitar and instrumentation as varied as chimes, bells, oboes and two (!) tubas to create a Space Age stereophonic spectacular suitable for the Jetsons next holiday party. This record s long been cherished by Christmas music devotees, and our Real Gone worldwide CD debut reissue features a sparkling remastering job by Maria Triana at Sony s Battery Studios and liner notes by Joe Marchese. Every bit as fizzy as the champagne you re going to open to toast the season!

A Ding Dong Dandy Christmas is nuts all the way through. There is at least one other Three Suns Christmas record, but nothing approaches this one. Santa's sleigh is hauling fast with this all-uptempo platter of holiday mayhem. And for a stocking present, there is an extra track on each side.

Review by Tony Wilds, Allmusic.com

Three Suns - Ding Dong Dandy Christmas (1959) Remastered 2015



Tracklist:

01. Santa Claus Is Comin' To Town (2:04)
02. Skater's Waltz (2:56)
03. The Chipmunk Song (2:04)
04. White Christmas (3:06)
05. Ding Dong Dandy Christmas (2:55)
06. The Christmas Song (2:31)
07. Russian Sleigh Song (2:39)
08. Jingle Bells (2:42)
09. Let It Snow! Let It Snow! Let It Snow! (2:20)
10. Rudolph The Red-Nosed Reindeer (2:01)
11. Jingle Bell Rock (2:13)
12. Sleigh Ride (2:57)
13. I Saw Mommy Kissing Santa Claus (2:22)
14. Winter Wonderland (2:44)


Exact Audio Copy V1.0 beta 3 from 29. August 2011

EAC extraction logfile from 7. December 2015, 19:43

The Three Suns / A Ding Dong Dandy Christmas

Used drive : SONY DVD RW DRU-810A Adapter: 1 ID: 0

Read mode : Secure
Utilize accurate stream : Yes
Defeat audio cache : Yes
Make use of C2 pointers : No

Read offset correction : 618
Overread into Lead-In and Lead-Out : No
Fill up missing offset samples with silence : Yes
Delete leading and trailing silent blocks : No
Null samples used in CRC calculations : Yes
Used interface : Native Win32 interface for Win NT & 2000
Gap handling : Appended to previous track

Used output format : User Defined Encoder
Selected bitrate : 128 kBit/s
Quality : High
Add ID3 tag : No
Command line compressor : C:\Program Files (x86)\Exact Audio Copy\Flac\flac.exe
Additional command line options : -8 -V -T "ARTIST=%artist%" -T "TITLE=%title%" -T "ALBUM=%albumtitle%" -T "DATE=%year%" -T "TRACKNUMBER=%tracknr%" -T "TOTALTRACKS=%numtracks%" -T "GENRE=%genre%" -T "ALBUMARTIST=%albumartist%" -T "ALBUM ARTIST=%albumartist%" -T "COMMENT=EAC Secure Mode, Test & Copy, AccurateRip, FLAC -8" %source%


TOC of the extracted CD

Track | Start | Length | Start sector | End sector
––––––––––––––––––––––––––––-
1 | 0:00.00 | 2:04.01 | 0 | 9300
2 | 2:04.01 | 2:56.06 | 9301 | 22506
3 | 5:00.07 | 2:03.64 | 22507 | 31795
4 | 7:03.71 | 3:06.03 | 31796 | 45748
5 | 10:09.74 | 2:54.71 | 45749 | 58869
6 | 13:04.70 | 2:31.31 | 58870 | 70225
7 | 15:36.26 | 2:39.01 | 70226 | 82151
8 | 18:15.27 | 2:41.63 | 82152 | 94289
9 | 20:57.15 | 2:20.17 | 94290 | 104806
10 | 23:17.32 | 2:00.45 | 104807 | 113851
11 | 25:18.02 | 2:12.47 | 113852 | 123798
12 | 27:30.49 | 2:57.19 | 123799 | 137092
13 | 30:27.68 | 2:21.61 | 137093 | 147728
14 | 32:49.54 | 2:44.17 | 147729 | 160045


Track 1

Filename F:\New Rips\The Three Suns - A Ding Dong Dandy Christmas (1959) [FLAC]\01 - Santa Claus Is Comin To Town.wav

Pre-gap length 0:00:02.00

Peak level 82.9 %
Extraction speed 4.2 X
Track quality 100.0 %
Test CRC 5DECFBC1
Copy CRC 5DECFBC1
Track not present in AccurateRip database
Copy OK

Track 2

Filename F:\New Rips\The Three Suns - A Ding Dong Dandy Christmas (1959) [FLAC]\02 - Skater's Waltz.wav

Pre-gap length 0:00:02.15

Peak level 75.0 %
Extraction speed 4.8 X
Track quality 100.0 %
Test CRC 4B7E8664
Copy CRC 4B7E8664
Track not present in AccurateRip database
Copy OK

Track 3

Filename F:\New Rips\The Three Suns - A Ding Dong Dandy Christmas (1959) [FLAC]\03 - The Chipmunk Song.wav

Pre-gap length 0:00:01.69

Peak level 81.7 %
Extraction speed 3.6 X
Track quality 99.9 %
Test CRC 84C91FBB
Copy CRC 84C91FBB
Track not present in AccurateRip database
Copy OK

Track 4

Filename F:\New Rips\The Three Suns - A Ding Dong Dandy Christmas (1959) [FLAC]\04 - White Christmas.wav

Pre-gap length 0:00:01.65

Peak level 82.1 %
Extraction speed 5.4 X
Track quality 100.0 %
Test CRC F1C6F3AE
Copy CRC F1C6F3AE
Track not present in AccurateRip database
Copy OK

Track 5

Filename F:\New Rips\The Three Suns - A Ding Dong Dandy Christmas (1959) [FLAC]\05 - Ding Dong Dandy Christmas.wav

Pre-gap length 0:00:02.40

Peak level 83.7 %
Extraction speed 4.5 X
Track quality 99.9 %
Test CRC ECC6E396
Copy CRC ECC6E396
Track not present in AccurateRip database
Copy OK

Track 6

Filename F:\New Rips\The Three Suns - A Ding Dong Dandy Christmas (1959) [FLAC]\06 - The Christmas Song.wav

Pre-gap length 0:00:01.47

Peak level 60.9 %
Extraction speed 4.5 X
Track quality 99.9 %
Test CRC 11544C24
Copy CRC 11544C24
Track not present in AccurateRip database
Copy OK

Track 7

Filename F:\New Rips\The Three Suns - A Ding Dong Dandy Christmas (1959) [FLAC]\07 - Russian Sleigh Song.wav

Pre-gap length 0:00:01.22

Peak level 85.4 %
Extraction speed 4.8 X
Track quality 99.9 %
Test CRC 88B31909
Copy CRC 88B31909
Track not present in AccurateRip database
Copy OK

Track 8

Filename F:\New Rips\The Three Suns - A Ding Dong Dandy Christmas (1959) [FLAC]\08 - Jingle Bells.wav

Pre-gap length 0:00:01.69

Peak level 82.6 %
Extraction speed 6.2 X
Track quality 100.0 %
Test CRC 2D78EBCF
Copy CRC 2D78EBCF
Track not present in AccurateRip database
Copy OK

Track 9

Filename F:\New Rips\The Three Suns - A Ding Dong Dandy Christmas (1959) [FLAC]\09 - Let It Snow Let It Snow Let It Snow.wav

Pre-gap length 0:00:01.62

Peak level 85.9 %
Extraction speed 6.1 X
Track quality 100.0 %
Test CRC CD3AC344
Copy CRC CD3AC344
Track not present in AccurateRip database
Copy OK

Track 10

Filename F:\New Rips\The Three Suns - A Ding Dong Dandy Christmas (1959) [FLAC]\10 - Rudolph The Red Nosed Reindeer.wav

Pre-gap length 0:00:02.49

Peak level 84.0 %
Extraction speed 6.0 X
Track quality 100.0 %
Test CRC 28CDF9DA
Copy CRC 28CDF9DA
Track not present in AccurateRip database
Copy OK

Track 11

Filename F:\New Rips\The Three Suns - A Ding Dong Dandy Christmas (1959) [FLAC]\11 - Jingle Bell Rock.wav

Pre-gap length 0:00:02.13

Peak level 80.5 %
Extraction speed 6.4 X
Track quality 100.0 %
Test CRC D0910134
Copy CRC D0910134
Track not present in AccurateRip database
Copy OK

Track 12

Filename F:\New Rips\The Three Suns - A Ding Dong Dandy Christmas (1959) [FLAC]\12 - Sleigh Ride.wav

Pre-gap length 0:00:02.30

Peak level 83.3 %
Extraction speed 5.6 X
Track quality 99.9 %
Test CRC D78B1BF1
Copy CRC D78B1BF1
Track not present in AccurateRip database
Copy OK

Track 13

Filename F:\New Rips\The Three Suns - A Ding Dong Dandy Christmas (1959) [FLAC]\13 - I Saw Mommy Kissing Santa Claus.wav

Pre-gap length 0:00:01.64

Peak level 83.9 %
Extraction speed 6.7 X
Track quality 100.0 %
Test CRC 771837B9
Copy CRC 771837B9
Track not present in AccurateRip database
Copy OK

Track 14

Filename F:\New Rips\The Three Suns - A Ding Dong Dandy Christmas (1959) [FLAC]\14 - Winter Wonderland.wav

Pre-gap length 0:00:02.27

Peak level 83.4 %
Extraction speed 7.1 X
Track quality 100.0 %
Test CRC 634B94C4
Copy CRC 634B94C4
Track not present in AccurateRip database
Copy OK


None of the tracks are present in the AccurateRip database

No errors occurred

End of status report

–– CUETools DB Plugin V2.1.3

[CTDB TOCID: jxoG_yrNQBOe1GJpngFS5rIlyaQ-] disk not present in database, Submit result: jxoG_yrNQBOe1GJpngFS5rIlyaQ- has been uploaded


==== Log checksum E63B90B4619B5B7BA0EC095193CC73193B050A302C095D71DD81C1CAEA106B57 ====

[CUETools log; Date: 06.12.2017 19:52:25; Version: 2.1.4]
[CTDB TOCID: jxoG_yrNQBOe1GJpngFS5rIlyaQ-] found.
Track | CTDB Status
1 | (4/4) Accurately ripped
2 | (4/4) Accurately ripped
3 | (4/4) Accurately ripped
4 | (4/4) Accurately ripped
5 | (4/4) Accurately ripped
6 | (4/4) Accurately ripped
7 | (4/4) Accurately ripped
8 | (4/4) Accurately ripped
9 | (4/4) Accurately ripped
10 | (4/4) Accurately ripped
11 | (4/4) Accurately ripped
12 | (4/4) Accurately ripped
13 | (4/4) Accurately ripped
14 | (4/4) Accurately ripped
[AccurateRip ID: 00125829-00c3c478-c008550e] found.
Track [ CRC | V2 ] Status
01 [03993a0b|eb122d9c] (0+4/4) Accurately ripped
02 [e5e3913a|210cf7fd] (0+4/4) Accurately ripped
03 [8a0fc3ae|2d4d715a] (0+4/4) Accurately ripped
04 [87c961d5|eeadd6b2] (0+4/4) Accurately ripped
05 [521611dd|01708e6a] (0+4/4) Accurately ripped
06 [023e2055|1f40f30b] (0+4/4) Accurately ripped
07 [eb1d9667|5013c431] (0+4/4) Accurately ripped
08 [df2fea3e|22b91303] (0+4/4) Accurately ripped
09 [69d734d0|f01a3a2d] (0+4/4) Accurately ripped
10 [45330f5e|c8e02a97] (0+4/4) Accurately ripped
11 [25ceb6cb|f51cb9ec] (0+4/4) Accurately ripped
12 [b3309f5a|e028e2f8] (0+4/4) Accurately ripped
13 [299e2a32|29226861] (0+4/4) Accurately ripped
14 [54f2a857|b783c10b] (0+4/4) Accurately ripped

Track Peak [ CRC32 ] [W/O NULL] [ LOG ]
– 85,9 [63601704] [2AAE3BCB]
01 82,9 [5DECFBC1] [B1CBC94E] CRC32
02 75,0 [4B7E8664] [2C20C52F] CRC32
03 81,7 [84C91FBB] [BFFDC399] CRC32
04 82,1 [F1C6F3AE] [FC155045] CRC32
05 83,7 [ECC6E396] [590EADC5] CRC32
06 60,9 [11544C24] [1D8971A3] CRC32
07 85,4 [88B31909] [0AFF4832] CRC32
08 82,6 [2D78EBCF] [E3220F44] CRC32
09 85,9 [CD3AC344] [FF297FDD] CRC32
10 84,0 [28CDF9DA] [4978391D] CRC32
11 80,5 [D0910134] [21A22659] CRC32
12 83,3 [D78B1BF1] [C0026863] CRC32
13 83,9 [771837B9] [A4EE5556] CRC32
14 83,4 [634B94C4] [04D4452C] CRC32

foobar2000 1.2 / Dynamic Range Meter 1.1.1
log date: 2017-12-06 19:38:13

––––––––––––––––––––––––––––––––––––––––
Analyzed: The Three Suns / A Ding Dong Dandy Christmas
––––––––––––––––––––––––––––––––––––––––

DR Peak RMS Duration Track
––––––––––––––––––––––––––––––––––––––––
DR10 -1.62 dB -14.48 dB 2:04 01-Santa Claus Is Comin' To Town
DR11 -2.49 dB -16.10 dB 2:56 02-Skater's Waltz
DR9 -1.75 dB -13.59 dB 2:04 03-The Chipmunk Song
DR10 -1.71 dB -14.45 dB 3:06 04-White Christmas
DR9 -1.54 dB -14.05 dB 2:55 05-Ding Dong Dandy Christmas
DR9 -4.30 dB -17.21 dB 2:31 06-The Christmas Song
DR9 -1.37 dB -12.93 dB 2:39 07-Russian Sleigh Song
DR10 -1.66 dB -14.04 dB 2:42 08-Jingle Bells
DR10 -1.32 dB -13.69 dB 2:20 09-Let It Snow! Let It Snow! Let It Snow!
DR9 -1.51 dB -14.21 dB 2:01 10-Rudolph The Red-Nosed Reindeer
DR9 -1.88 dB -13.84 dB 2:13 11-Jingle Bell Rock
DR11 -1.58 dB -14.59 dB 2:57 12-Sleigh Ride
DR10 -1.52 dB -14.21 dB 2:22 13-I Saw Mommy Kissing Santa Claus
DR10 -1.57 dB -14.21 dB 2:44 14-Winter Wonderland
––––––––––––––––––––––––––––––––––––––––

Number of tracks: 14
Official DR value: DR10

Samplerate: 44100 Hz
Channels: 2
Bits per sample: 16
Bitrate: 835 kbps
Codec: FLAC
================================================================================

Three Suns - Ding Dong Dandy Christmas (1959) Remastered 2015

Three Suns - Ding Dong Dandy Christmas (1959) Remastered 2015

All thanks to original releaser

More interesting music in My Blog



Harry Belafonte - To Wish You A Merry Christmas (1958) Reissue 1989

Elaine Paige - Christmas (1986)

VA - A Very Special Christmas (1987)

Frank Sinatra - The Sinatra Christmas Album (1994)

Big Bad Voodoo Daddy - Whatchu' Want For Christmas? (1995)

Eteri Andjaparidze - Christmas Piano Music (1996)
Max Reger - Franz Liszt - JS Bach - Leroy Anderson - Tchaikovsky - Rebikov - Lyapunov


Rosemary Clooney - White Christmas (1996)

Ringo Starr - I Wanna Be Santa Claus (1999)

B.B. King - A Christmas Celebration Of Hope (2001)

VA - A Very Special Acoustic Christmas (2003)

King's Singers - Christmas (2003)

Peter Cetera - You Just Gotta Love Christmas (2004)

A Boston Camerata Christmas: Worlds of Early Christmas Music (2008) 3 CDs

Al Jarreau - Christmas (2008)

Baroque Christmas: George Frideric Handel, Johann Sebastian Bach (2011)

Tony Bennett - The Classic Christmas Album (2011)

Katherine Jenkins - This Is Christmas (2012)

Josef Antonín Sehling - Christmas in Prague Cathedral (2014)
Hana Blažíková, soprano; Markéta Cukrová, alto; Tomáš Král, baritone
Collegium Marianum; Jana Semerádová, artistic director


Nashville Cast - Christmas With Nashville (2014)

Jan Mulder & London Symphony Orchestra with Andrea Bocelli - Christmas (2014)

Gordon Goodwin's Big Phat Band - Wrap This! - A Big Phat Christmas (2015)

Placido Domingo - My Christmas (2015)

Stile Antico - A Wondrous Mystery: Renaissance Choral Music for Christmas (2015)

VA - Ultimate… Christmas: 4CDs of Great Christmas Music (2015) 4 CD Set

VA - The Wonderful Sounds of Christmas (2015) [Analogue Productions]