Subcategories

Three Seasons - Life's Road (2011)

Posted By: gribovar
Three Seasons - Life's Road (2011)

Three Seasons - Life's Road (2011)
EAC Rip | FLAC (image+.cue+log) - 439 MB | MP3 CBR 320 kbps (LAME 3.93) - 158 MB | Covers (7 MB) included
Genre: Heavy Progressive Rock | RAR 3% Rec. | Label: Transubstans Records (TRANS079)

Those who believe that Sartez, who was the singer for Siena Root for a certain amount of time, vanished into thin air will be set right, because 'Life's Road' is the debut album of his new band Three Seasons. Just like Siena Root, Three Seasons have settled comfortably in the very early 1970's. Three Seasons is a mash-up of our thoughts, minds and bodies, together forming sounds possibly reminding of bands and musicians such as Deep Purple, Led Zeppelin, Pink Floyd, Jimi Hendrix, The Doors, Black Sabbath, Free, Gov’t Mule, Mountain and Santana.

Tracklist:
01. Too Many Choices
02. Cold To The Bone
03. Down To The Bottom
04. Each To Their Own
05. Feel Alive
06. An Endless Delusion
07. Since Our First Day
08. Moving On
09. Life's Road

Total time: 01:04:05

Exact Audio Copy V0.99 prebeta 4 from 23. January 2008

Отчёт EAC об извлечении, выполненном 17. апреля 2011, 0:17

Three Seasons / Life's Road

Дисковод: ASUS DRW-24B1ST Adapter: 3 ID: 0

Режим чтения : Достоверность
Использование точного потока : Да
Отключение кэша аудио : Да
Использование указателей C2 : Нет

Коррекция смещения при чтении : 6
Способность читать области Lead-in и Lead-out : Нет
Заполнение пропущенных сэмплов тишиной : Да
Удаление блоков с тишиной в начале и конце : Нет
При вычислениях CRC использовались нулевые сэмплы : Да
Интерфейс : Встроенный Win32-интерфейс для Win NT/2000

Выходной формат : Пользовательский кодировщик
Выбранный битрейт : 768 kBit/s
Качество : Высокий
Добавление ID3-тэга : Нет
Утилита сжатия : C:\Program Files\Exact Audio Copy\FLAC\FLAC.EXE
Дополнительные параметры : -6 -V -T "ARTIST=%a" -T "TITLE=%t" -T "ALBUM=%g" -T "DATE=%y" -T "TRACKNUMBER=%n" -T "GENRE=%m" -T "COMMENT=%e" %s -o %d


TOC извлечённого CD

Трек | Старт | Длительность | Начальный сектор | Конечный сектор
––––––––––––––––––––––––––––––––––-
1 | 0:00.00 | 4:59.00 | 0 | 22424
2 | 4:59.00 | 4:32.00 | 22425 | 42824
3 | 9:31.00 | 5:30.00 | 42825 | 67574
4 | 15:01.00 | 11:04.37 | 67575 | 117411
5 | 26:05.37 | 5:09.01 | 117412 | 140587
6 | 31:14.38 | 10:02.74 | 140588 | 185811
7 | 41:17.37 | 10:32.00 | 185812 | 233211
8 | 51:49.37 | 5:27.01 | 233212 | 257737
9 | 57:16.38 | 6:48.74 | 257738 | 288411


Характеристики диапазона извлечения и сообщения об ошибках

Выбранный диапазон

Имя файла C:\Torrent\purple\Three Seasons - Life's Road.wav

Пиковый уровень 98.8 %
Качество диапазона 100.0 %
CRC теста 9A5DF704
CRC копии 9A5DF704
Копирование… OK

Ошибок не произошло


AccurateRip: сводка

Трек 1 нет в базе данных
Трек 2 нет в базе данных
Трек 3 нет в базе данных
Трек 4 нет в базе данных
Трек 5 нет в базе данных
Трек 6 нет в базе данных
Трек 7 нет в базе данных
Трек 8 нет в базе данных
Трек 9 нет в базе данных

Ни одного трека нет в базе AccurateRip

Конец отчёта

[CUETools log; Date: 27.10.2020 16:25:21; Version: 2.1.4]
[CTDB TOCID: Pynm7GZKqeDJyJWGwEu.l_WAXRA-] found.
Track | CTDB Status
1 | (12/12) Accurately ripped
2 | (12/12) Accurately ripped
3 | (12/12) Accurately ripped
4 | (12/12) Accurately ripped
5 | (12/12) Accurately ripped
6 | (12/12) Accurately ripped
7 | (12/12) Accurately ripped
8 | (12/12) Accurately ripped
9 | (11/12) Accurately ripped
[AccurateRip ID: 0014b0df-009c5104-780f0509] found.
Track [ CRC | V2 ] Status
01 [441152af|f1029d94] (02+07/12) Accurately ripped
02 [0f9a7428|50829d88] (02+07/12) Accurately ripped
03 [55ac7de5|86b08c32] (02+07/12) Accurately ripped
04 [ad83e059|08c7b4ca] (02+07/12) Accurately ripped
05 [e54b46bc|35f503c1] (02+07/12) Accurately ripped
06 [d9c0263c|20b46602] (02+07/12) Accurately ripped
07 [bd9db4f0|bef21393] (02+06/11) Accurately ripped
08 [99e34b89|454ffbf2] (02+06/11) Accurately ripped
09 [acf2e88c|a6385af8] (02+06/11) Accurately ripped
Offsetted by -700:
01 [b5d2f66a] (00/12) No match (V2 was not tested)
02 [78ba4f98] (00/12) No match (V2 was not tested)
03 [397268f5] (00/12) No match (V2 was not tested)
04 [3cdc7f55] (00/12) No match (V2 was not tested)
05 [3acd0c77] (00/12) No match (V2 was not tested)
06 [5b5177b9] (00/12) No match (V2 was not tested)
07 [3036e584] (00/11) No match (V2 was not tested)
08 [6db0e6d9] (00/11) No match (V2 was not tested)
09 [1ef68bc4] (00/11) No match (V2 was not tested)

Track Peak [ CRC32 ] [W/O NULL] [ LOG ]
– 98,8 [9A5DF704] [8511C32C] CRC32
01 98,8 [74EE2A71] [C686D7DA]
02 98,8 [FF4C07F2] [59397BE1]
03 98,8 [BCE2C8FB] [0DE0B97D]
04 98,8 [AA1B839A] [3C339915]
05 98,8 [7361610A] [C8966AEA]
06 98,8 [7F0725AD] [DCCC3F7E]
07 98,8 [B9CBCDB8] [4C79F4CF]
08 98,8 [FF53F81E] [13839815]
09 98,8 [2C6C4F2D] [242ECC28]

Thanks to pppurple

See also:
Three Seasons - Grow (2014)