Subcategories

Threshold - 3 Albums (1999-2004)

Posted By: gribovar
Threshold - 3 Albums (1999-2004)

Threshold - 3 Albums (1999-2004)
EAC Rip | FLAC (image+.cue+log) - 1,29 GB | MP3 CBR 320 kbps (LAME 3.93) - 445 MB | Covers - 95 MB
Genre: Progressive Metal/Rock | RAR 3% Rec. | Label: Nonstopmusic

Formed in the late 1980s, British progressive metal band Threshold combined their influences of heavy metal and progressive rock to craft their own unique sound which was a far cry from the commercial sound of the time.
"Decadent" (1999) was released through the fan club to celebrate and mark then years of the band. The CD contains radio edits, remixes, remasters, unplugged versions, Japanese bonus track and different versions of their songs, and with this release they're finally available to the fans.
"Wireless - Acoustic Sessions" (2003) contains acoustic remixes of 8 songs previously released on other albums, plus two songs, apparently written before the band got their first contract with a label - "Seventh Angel" and "Conceal The Face". The word "remixes" is a well chosen term. What we have here on this album is not an unplugged session, or not just a regular unplugged session. The songs have new arrangements, some of them being quite hard to recognize, the difference between the original and the acoustic version being in most of the cases significant.
"Replica" (2004) is a collection of previously unreleased songs, remixes and new recordings.

Threshold - 3 Albums (1999-2004)

Threshold - Decadent (1999)
EAC Rip | FLAC (image+.cue+log) - 524 MB | MP3 CBR 320 kbps (LAME 3.93) - 153 MB | Covers - 38 MB
Genre: Progressive Metal | RAR 3% Rec. | Label: Nonstopmusic (NSCD001)

Tracklist:
01. Virtual Isolation (Radio edit)
02. Intervention (1999 Remix)
03. Sunseeker (Radio edit)
04. Voyager II (Urban version)
05. Devoted (Fan Club remix)
06. Change (Unplugged)
07. Mother Earth (1999 Remix)
08. Exposed (Radio edit)
09. Lost (Japanese release)
10. Into The Light (1999 Remix)
11. Paradox (Club mix)
12. He Is I Am (Drum & Bass version)

Total time: 01:05:13

Exact Audio Copy V0.99 prebeta 5 from 4. May 2009

EAC extraction logfile from 14. November 2012, 19:48

Threshold / Decadent [NSCD001]

Used drive : ASUS DRW-22B3L Adapter: 0 ID: 1

Read mode : Secure
Utilize accurate stream : Yes
Defeat audio cache : Yes
Make use of C2 pointers : No

Read offset correction : 6
Overread into Lead-In and Lead-Out : No
Fill up missing offset samples with silence : Yes
Delete leading and trailing silent blocks : No
Null samples used in CRC calculations : Yes
Used interface : Native Win32 interface for Win NT & 2000

Used output format : Internal WAV Routines
Sample format : 44.100 Hz; 16 Bit; Stereo


TOC of the extracted CD

Track | Start | Length | Start sector | End sector
––––––––––––––––––––––––––––-
1 | 0:00.00 | 4:19.27 | 0 | 19451
2 | 4:19.27 | 7:04.00 | 19452 | 51251
3 | 11:23.27 | 5:33.15 | 51252 | 76241
4 | 16:56.42 | 5:12.28 | 76242 | 99669
5 | 22:08.70 | 7:16.60 | 99670 | 132429
6 | 29:25.55 | 4:06.15 | 132430 | 150894
7 | 33:31.70 | 5:53.35 | 150895 | 177404
8 | 39:25.30 | 4:39.57 | 177405 | 198386
9 | 44:05.12 | 2:42.40 | 198387 | 210576
10 | 46:47.52 | 10:01.23 | 210577 | 255674
11 | 56:49.00 | 4:33.05 | 255675 | 276154
12 | 61:22.05 | 3:50.70 | 276155 | 293474


Range status and errors

Selected range

Filename D:\Threshold - Decadent [NSCD001].wav

Peak level 99.4 %
Range quality 100.0 %
Test CRC B2B98372
Copy CRC B2B98372
Copy OK

No errors occurred


AccurateRip summary

Track 1 not present in database
Track 2 not present in database
Track 3 not present in database
Track 4 not present in database
Track 5 not present in database
Track 6 not present in database
Track 7 not present in database
Track 8 not present in database
Track 9 not present in database
Track 10 not present in database
Track 11 not present in database
Track 12 not present in database

None of the tracks are present in the AccurateRip database

End of status report

[CUETools log; Date: 03.05.2017 1:04:51; Version: 2.1.4]
[CTDB TOCID: h.NbE9CAQAkg.1btEDxM4BdGXMg-] found.
Track | CTDB Status
1 | (2/2) Accurately ripped
2 | (2/2) Accurately ripped
3 | (2/2) Accurately ripped
4 | (2/2) Accurately ripped
5 | (2/2) Accurately ripped
6 | (2/2) Accurately ripped
7 | (2/2) Accurately ripped
8 | (2/2) Accurately ripped
9 | (2/2) Accurately ripped
10 | (2/2) Accurately ripped
11 | (2/2) Accurately ripped
12 | (2/2) Accurately ripped
[AccurateRip ID: 001da06f-01142a59-a00f490c] found.
Track [ CRC | V2 ] Status
01 [cd5cc2e7|27dd9ffb] (2+3/5) Accurately ripped
02 [32721e9b|7a954d32] (2+3/5) Accurately ripped
03 [2fe5bd23|dd83129a] (2+3/5) Accurately ripped
04 [210b8fd3|56a6c53f] (2+3/5) Accurately ripped
05 [43116024|21de911e] (2+3/5) Accurately ripped
06 [7b467753|e19bd888] (2+3/5) Accurately ripped
07 [193f5448|cfff9ff3] (2+3/5) Accurately ripped
08 [081819f1|90649ccd] (2+3/5) Accurately ripped
09 [f58e0e7e|fbec3ea4] (2+3/5) Accurately ripped
10 [2458bbef|5fce1970] (2+3/5) Accurately ripped
11 [e1a2f6c9|04a1e254] (2+3/5) Accurately ripped
12 [519c7716|f80b3e3e] (2+3/5) Accurately ripped
Offsetted by -654:
01 [05d9e7c3] (0/5) No match
02 [ada48227] (0/5) No match (V2 was not tested)
03 [638a460f] (0/5) No match (V2 was not tested)
04 [aa9bf471] (0/5) No match (V2 was not tested)
05 [caf9727c] (0/5) No match (V2 was not tested)
06 [d605775d] (0/5) No match (V2 was not tested)
07 [fa0ce69a] (0/5) No match (V2 was not tested)
08 [86a48a9d] (0/5) No match (V2 was not tested)
09 [104bf380] (0/5) No match (V2 was not tested)
10 [cc41cc99] (0/5) No match (V2 was not tested)
11 [adcbccdd] (0/5) No match (V2 was not tested)
12 [03e1afc8] (0/5) No match (V2 was not tested)

Track Peak [ CRC32 ] [W/O NULL] [ LOG ]
– 99,4 [B2B98372] [940F5A89] CRC32
01 99,4 [919709E7] [69EA879F]
02 99,3 [777BA7D4] [4EBB6B11]
03 99,4 [AEE89691] [09FBC813]
04 99,4 [EFEA4800] [60425A26]
05 99,2 [5CF9CC2F] [309AFE2C]
06 99,4 [F2D4B072] [D03CE639]
07 99,4 [5622ACBD] [AD32D9E7]
08 99,4 [D50E67A9] [4FBF0880]
09 97,8 [0111BB14] [776FEA5F]
10 99,0 [FFD180C5] [5B079F79]
11 99,3 [F4D6D6BD] [DED9866B]
12 99,2 [D8214A61] [3AABBF6B]

Threshold - 3 Albums (1999-2004)

Threshold - Wireless - Acoustic Sessions (2003) (Repost)
EAC Rip | FLAC (image+.cue+log) - 382 MB | MP3 CBR 320 kbps (LAME 3.93) - 166 MB | Covers - 32 MB
Genre: Progressive Rock | RAR 3% Rec. | Label: Nonstopmusic (NSCD003)

Tracklist:
01. Fragmentation
02. Consume To Live
03. Seventh Angel (previously unreleased)
04. The Sheltering Sky
05. Part Of The Chaos
06. Innocent
07. Falling Away
08. Conceal The Face (previously unreleased)
09. Lovelorn
10. Narcissus
+ Video "Fragmentation"

Total time: 42:03

Exact Audio Copy V0.99 prebeta 5 from 4. May 2009

EAC extraction logfile from 14. November 2012, 18:48

Threshold / Wireless: Acoustic Sessions [NSCD003]

Used drive : ASUS DRW-22B3L Adapter: 0 ID: 1

Read mode : Secure
Utilize accurate stream : Yes
Defeat audio cache : Yes
Make use of C2 pointers : No

Read offset correction : 6
Overread into Lead-In and Lead-Out : No
Fill up missing offset samples with silence : Yes
Delete leading and trailing silent blocks : No
Null samples used in CRC calculations : Yes
Used interface : Native Win32 interface for Win NT & 2000

Used output format : Internal WAV Routines
Sample format : 44.100 Hz; 16 Bit; Stereo


TOC of the extracted CD

Track | Start | Length | Start sector | End sector
––––––––––––––––––––––––––––-
1 | 0:00.00 | 4:05.04 | 0 | 18378
2 | 4:05.04 | 5:03.08 | 18379 | 41111
3 | 9:08.12 | 2:37.72 | 41112 | 52958
4 | 11:46.09 | 4:37.41 | 52959 | 73774
5 | 16:23.50 | 4:40.19 | 73775 | 94793
6 | 21:03.69 | 4:04.07 | 94794 | 113100
7 | 25:08.01 | 5:22.00 | 113101 | 137250
8 | 30:30.01 | 4:18.54 | 137251 | 156654
9 | 34:48.55 | 3:17.66 | 156655 | 171495
10 | 38:06.46 | 3:56.00 | 171496 | 189195
11 | 44:34.46 | 8:19.23 | 200596 | 238043


Range status and errors

Selected range

Filename D:\Threshold - Wireless (Acoustic Sessions) [NSCD003].wav

Peak level 96.8 %
Range quality 100.0 %
Test CRC 6CAEE2EC
Copy CRC 6CAEE2EC
Copy OK

No errors occurred


AccurateRip summary

Track 1 accurately ripped (confidence 2) [019BAE43]
Track 2 accurately ripped (confidence 2) [B427BC34]
Track 3 accurately ripped (confidence 2) [68C218E8]
Track 4 accurately ripped (confidence 2) [65E6FC0A]
Track 5 accurately ripped (confidence 2) [DB9EE368]
Track 6 accurately ripped (confidence 2) [3B9B7686]
Track 7 accurately ripped (confidence 2) [10C0C4C9]
Track 8 accurately ripped (confidence 2) [F46E1F40]
Track 9 accurately ripped (confidence 2) [BD5922C5]
Track 10 accurately ripped (confidence 2) [C94F17BA]

All tracks accurately ripped

End of status report

[CUETools log; Date: 03.05.2017 1:06:09; Version: 2.1.4]
CD-Extra data track length 08:19:23.
[CTDB TOCID: cPyjy9h7FdKoC9HWfxu_D5LmTpI-] found.
Track | CTDB Status
1 | (5/5) Accurately ripped
2 | (5/5) Accurately ripped
3 | (5/5) Accurately ripped
4 | (5/5) Accurately ripped
5 | (5/5) Accurately ripped
6 | (5/5) Accurately ripped
7 | (5/5) Accurately ripped
8 | (5/5) Accurately ripped
9 | (5/5) Accurately ripped
10 | (5/5) Accurately ripped
[AccurateRip ID: 0010bf5e-00887420-950c650b] found.
Track [ CRC | V2 ] Status
01 [019bae43|7773a040] (04+00/18) Accurately ripped
02 [b427bc34|c5aba1ce] (04+00/18) Accurately ripped
03 [68c218e8|6f8aec87] (04+00/18) Accurately ripped
04 [65e6fc0a|6f5525da] (04+00/18) Accurately ripped
05 [db9ee368|e4acc9e1] (04+00/18) Accurately ripped
06 [3b9b7686|4317ad71] (04+00/18) Accurately ripped
07 [10c0c4c9|789bb193] (04+00/18) Accurately ripped
08 [f46e1f40|2f510b9d] (04+00/18) Accurately ripped
09 [bd5922c5|71c79c31] (04+00/18) Accurately ripped
10 [c94f17ba|077b9ee0] (04+00/18) Accurately ripped
Offsetted by -664:
01 [5cca30aa] (02/18) Accurately ripped
02 [4e60b81c] (02/18) Accurately ripped
03 [bb866510] (02/18) Accurately ripped
04 [60bfd27a] (02/18) Accurately ripped
05 [9d655390] (02/18) Accurately ripped
06 [de579bf6] (02/18) Accurately ripped
07 [1a0d2749] (02/18) Accurately ripped
08 [9ecf5f40] (02/18) Accurately ripped
09 [9a06807d] (02/18) Accurately ripped
10 [c2031424] (02/18) Accurately ripped
Offsetted by -12:
01 [b9761085] (03/18) Accurately ripped
02 [52b38f68] (03/18) Accurately ripped
03 [4853863c] (03/18) Accurately ripped
04 [6d851ec2] (03/18) Accurately ripped
05 [b89182bc] (03/18) Accurately ripped
06 [39ebf8be] (03/18) Accurately ripped
07 [c8706a09] (03/18) Accurately ripped
08 [83d8bf40] (03/18) Accurately ripped
09 [17b2a161] (03/18) Accurately ripped
10 [1d8ba70f] (03/18) Accurately ripped

Track Peak [ CRC32 ] [W/O NULL] [ LOG ]
– 96,8 [6CAEE2EC] [DD06E90D] CRC32
01 96,1 [E942E791] [F201B1B7]
02 96,8 [2AB7CB50] [095A0E96]
03 94,6 [B7A2C2B1] [AD44C236]
04 96,7 [E985E3DE] [340218BC]
05 96,0 [5AD70AD1] [0B937375]
06 96,3 [E7F595A7] [7991A0AA]
07 95,8 [1714A533] [051BAB25]
08 95,2 [3A82216E] [C5B83B09]
09 94,7 [58AF387B] [54EA6B86]
10 96,3 [3C2095CD] [6C01821B]

Threshold - 3 Albums (1999-2004)

Threshold - Replica (2004)
EAC Rip | FLAC (image+.cue+log) - 385 MB | MP3 CBR 320 kbps (LAME 3.93) - 126 MB | Covers - 25 MB
Genre: Progressive Metal | RAR 3% Rec. | Label: Nonstopmusic (NSCD004)

Tracklist:
01. Static (Alternative version)
02. Endless Sea (Previously unreleased)
03. Fragmentation (Radio edit)
04. Ground Control (Acoustic version)
05. The Latent Gene (Uncut version)
06. Torn To Shreds (Previously unreleased)
07. Forever (Acoustic version)
08. Light And Space (Radio edit)
09. Surface To Air (New version)
10. Opium (Synthetic remix)

Total time: 53:34

Exact Audio Copy V0.99 prebeta 5 from 4. May 2009

EAC extraction logfile from 15. October 2012, 22:03

Threshold / Replica [NSCD004]

Used drive : ASUS DRW-22B3L Adapter: 0 ID: 1

Read mode : Secure
Utilize accurate stream : Yes
Defeat audio cache : Yes
Make use of C2 pointers : No

Read offset correction : 6
Overread into Lead-In and Lead-Out : No
Fill up missing offset samples with silence : Yes
Delete leading and trailing silent blocks : No
Null samples used in CRC calculations : Yes
Used interface : Native Win32 interface for Win NT & 2000

Used output format : Internal WAV Routines
Sample format : 44.100 Hz; 16 Bit; Stereo


TOC of the extracted CD

Track | Start | Length | Start sector | End sector
––––––––––––––––––––––––––––-
1 | 0:00.00 | 5:05.23 | 0 | 22897
2 | 5:05.23 | 4:48.68 | 22898 | 44565
3 | 9:54.16 | 3:27.69 | 44566 | 60159
4 | 13:22.10 | 3:48.01 | 60160 | 77260
5 | 17:10.11 | 9:12.25 | 77261 | 118685
6 | 26:22.36 | 4:35.35 | 118686 | 139345
7 | 30:57.71 | 3:26.71 | 139346 | 154866
8 | 34:24.67 | 4:09.62 | 154867 | 173603
9 | 38:34.54 | 9:56.21 | 173604 | 218324
10 | 48:31.00 | 5:02.73 | 218325 | 241047


Range status and errors

Selected range

Filename D:\Threshold - Replica [NSCD004].wav

Peak level 100.0 %
Range quality 100.0 %
Test CRC D9FA774A
Copy CRC D9FA774A
Copy OK

No errors occurred


AccurateRip summary

Track 1 accurately ripped (confidence 7) [43E468EC]
Track 2 accurately ripped (confidence 6) [14FF5AF9]
Track 3 accurately ripped (confidence 6) [6A742C10]
Track 4 accurately ripped (confidence 6) [A6484620]
Track 5 accurately ripped (confidence 6) [612CC260]
Track 6 accurately ripped (confidence 6) [01A50217]
Track 7 accurately ripped (confidence 6) [F9C3BE3E]
Track 8 accurately ripped (confidence 6) [DE89F4AA]
Track 9 accurately ripped (confidence 6) [71F16E2C]
Track 10 accurately ripped (confidence 6) [1A1D7FB8]

All tracks accurately ripped

End of status report

[CUETools log; Date: 03.05.2017 1:06:51; Version: 2.1.4]
[CTDB TOCID: sDQNRUdNm7ias7SjiyX1LbWA6aU-] found.
Track | CTDB Status
1 | (4/4) Accurately ripped
2 | (4/4) Accurately ripped
3 | (4/4) Accurately ripped
4 | (4/4) Accurately ripped
5 | (4/4) Accurately ripped
6 | (4/4) Accurately ripped
7 | (4/4) Accurately ripped
8 | (4/4) Accurately ripped
9 | (4/4) Accurately ripped
10 | (4/4) Accurately ripped
[AccurateRip ID: 001315c9-009a92d0-840c8d0a] found.
Track [ CRC | V2 ] Status
01 [43e468ec|c49ba7fa] (10+05/15) Accurately ripped
02 [14ff5af9|fd44d5c2] (09+06/15) Accurately ripped
03 [6a742c10|5fa98faf] (09+05/14) Accurately ripped
04 [a6484620|ba9e501c] (09+06/15) Accurately ripped
05 [612cc260|33d7322a] (09+06/15) Accurately ripped
06 [01a50217|5bf56c77] (09+06/15) Accurately ripped
07 [f9c3be3e|4fb5fb54] (09+06/15) Accurately ripped
08 [de89f4aa|af30afd1] (09+06/15) Accurately ripped
09 [71f16e2c|d6b9e774] (09+06/15) Accurately ripped
10 [1a1d7fb8|35bca8bb] (09+06/15) Accurately ripped

Track Peak [ CRC32 ] [W/O NULL] [ LOG ]
– 100,0 [D9FA774A] [662CB793] CRC32
01 100,0 [D1369FC4] [1D4C5675]
02 100,0 [7F60FE9D] [AFE572ED]
03 100,0 [2004072F] [E09E2F3D]
04 100,0 [8B39828E] [9C1F25AC]
05 100,0 [66F2FA91] [A08C39A6]
06 100,0 [BD1F4B39] [0FBD7456]
07 89,1 [7A40A8DC] [10763BE4]
08 100,0 [5E0FA272] [6D66894D]
09 100,0 [0C8D15B8] [A1F816D4]
10 100,0 [EB39D5CD] [371A5CDC]

Thanks to Pretender

See also:
Threshold - 9 Studio Albums (1993-2014)