Subcategories

Tibetan Buddhism - Tantras of Gyuto (1975) [Re-Up]

Posted By: uff
Tibetan Buddhism - Tantras of Gyuto (1975) [Re-Up]

Tibetan Buddhism - Tantras of Gyuto (1975)
World | 1cd | EAC Rip | Flac + Cue + Log | covers
Nonesuch 9 79198-2 | rec: 1972; rel: 1988 | 310Mb

Very rare chant of vajra meditation. Maybe the music itself just wasn't mysterious enough for the Nonesuch label, so on a subsequent reissue of this title all that was reissued was the title itself, but the recording featured is actually different than the material that was included on this, the original album version. Major recorded documentation took place in Bhutan in both the early '60s and early '70s; when producer David Lewiston actually did his recording of these Gyuto monks is not something the busy producer of world music recordings seems to have wanted to share with his audience, not even as a reward for squinting at the liner notes. The sloppiness of the vinyl pressing did nothing to help this particular series of releases, which were first of all mastered with an extremely wide dynamic range, then pressed on the el cheapo side, because after all, this was a budget label. Thus both a pristine copy and one wedged out from the bottom of the used-record pile will no doubt have a supply of surface noise that will seriously compete with the extended chanting and beautiful held notes of the monks, although nothing – that is, nothing – will drown out the clattering handheld cymbals accompanied by brief bass drum thumps. Even in ideal circumstances the volume contrast between the cymbals and the voices will be bothersome to some listeners, although one can't imagine the producer having altered it in any way. These two extended pieces are intense and absorbing, although these collections lack the excitement of the Lyrichord and Baren Reiter series. ~Allmusic

Track listing
1. Sangwa Dupa 41:37
2. Mahakala 18:33


EAC extraction logfile from 20. July 2005, 14:16 for CD
Gyütö Tantric College / Tibetan Buddhism: Tantras of Gyütö

Used drive : HL-DT-STRW/DVD GCC-4240N Adapter: 0 ID: 1
Read mode : Secure with NO C2, accurate stream, disable cache
Read offset correction : 102
Overread into Lead-In and Lead-Out : No

Used output format : Internal WAV Routines
44.100 Hz; 16 Bit; Stereo

Other options :
Fill up missing offset samples with silence : Yes
Delete leading and trailing silent blocks : No
Installed external ASPI interface


Track 1
Filename C:\Documents and Settings\sam\Desktop\bt\music seeds\Tibetan Buddhism Tantras of Gyütö\01 - Sangwa Düpa.wav

Pre-gap length 0:00:02.42

Peak level 57.6 %
Track quality 100.0 %
Test CRC B97B2499
Copy CRC B97B2499
Copy OK

Track 2
Filename C:\Documents and Settings\sam\Desktop\bt\music seeds\Tibetan Buddhism Tantras of Gyütö\02 - Mahakala.wav

Pre-gap length 0:00:15.93

Peak level 67.0 %
Track quality 100.0 %
Test CRC E16342A4
Copy CRC E16342A4
Copy OK

No errors occured


End of status report



[CUETools log; Date: 2015.03.02. 9:54:08; Version: 2.1.4]
Pregap length 00:00:32.
[CTDB TOCID: F2ba5.ZBYuSiVZgXxP3G138WVUw-] found.
Track | CTDB Status
1 | (3/3) Accurately ripped
2 | (3/3) Accurately ripped
[AccurateRip ID: 0006fdf0-00121dd1-1a0e1b02] found.
Track [ CRC | V2 ] Status
01 [853ead01|a71a63f8] (00+06/10) Accurately ripped
02 [16b91e93|f758965d] (03+06/13) Accurately ripped
Offsetted by -196:
01 [ccf5f709] (02/10) Accurately ripped
02 [d41a1a5b] (02/13) Accurately ripped
Offsetted by -1167:
01 [b42a7bff] (00/10) No match (V2 was not tested)
02 [d71dd521] (00/13) No match (V2 was not tested)

Track Peak [ CRC32 ] [W/O NULL] [ LOG ]
– 67,0 [BCF62961] [13D93CD6]
01 57,6 [B97B2499] [B97B2499] CRC32
02 67,0 [E16342A4] [20D9A607] CRC32


original uploader unknown, found in my archive
Bigfile

password: asd