Subcategories

Till Bronner (Till Brönner) - The Good Life (2016)

Posted By: v3122
Till Bronner (Till Brönner) - The Good Life (2016)

Till Bronner - The Good Life (2016)
EAC | Flac(Image) + Cue + Log
Sony Music, 88875187202 | Russia | ~ 365 Mb | Scans(jpg) -> 38 Mb
Cool Jazz, Smooth Jazz

Cutting standards isn't a new thing for German jazz chameleon Till Brönner. His 1995 debut album, Generations of Jazz, contained fine renditions of "Bye Bye Blackbird" and "I Want to Be Happy." Since then he's recorded classic tunes of all kinds – from pop and soul to Brazilian and film gems – in a wide variety of settings.
The Good Life marks the trumpeter and vocalist's return to straight-ahead jazz after a self-titled outing that paid homage to CTI in 2012, and 2014's Movie Album, which treated film themes as contemporary jazz numbers. This 13-song set contains 11 standards and two originals. Brönner surrounded himself with a crack band of sidemen – pianist Larry Goldings, guitarist Anthony Wilson, bassist John Clayton, and drummer Jeff Hamilton – at the legendary Ocean Way studio in Los Angeles with Dutch producer Ruud Jacobs. The vibe throughout is airy, thoughtful, and relaxed (the album's subtitle is "Music for Peaceful Moments"); the charts are direct but not lightweight. The opener is a reading of Sasha Distel's and Jack Reardon's title track that reveals his gentle, warm horn in the melody atop a lithe, brushed drum kit groove accentuated by Clayton's walking bassline, liquid fills from Wilson, and Goldings' intimate accents. In his most authoritative vocal performances on record, Brönner still directly references Chet Baker's singing, but the phrasing nuances of Michael Franks and Bob Dorough are reflected in his delivery of the breezy yet swinging renditions of "Come Dance with Me," the bossa-tinged interpretation of Irving Berlin's "Change Partners," and the straight-up fingerpopping "I May Be Wrong"– with a choice solo by Wilson. On his own "O Que Resta" (an instrumental) Brönner frames his own lyrical playing in the long shadow cast by Miles Davis during his Gil Evans period. Goldings' break is close, humid, and gorgeous. "I'll Be Seeing You" is an iconic Billie Holiday number. Brönner even sings until the midway point – long after the band establishes a lithe, loping groove, and he delivers a fine flügelhorn solo. When he begins to vocalize, the focus has shifted and it's a clever addendum. More ambitious is the read of "In the Wee Small Hours of the Morning," inseparably associated with Frank Sinatra. The band's collective harmony establishes it as a nocturnal nursery rhyme. Clayton's illustrative bassline is carefully colored by Wilson as brushed snare and sparse, shimmering piano chords hold the frame. Brönner employs a halting, yet utterly lyrical vocal, delivering an utterly unique take that doesn't even reflect on Sinatra's. The only thing that doesn't hold up here is the leader's "Her Smile." The calypso-cum-samba hybrid is hip, but the lyric is trite compared to everything else. That's a minor complaint, though. This is a romantic and "light" record for sure, and it's one that shows Brönner's assuredness in reinterpreting the repertoire with grace and sophistication.

by Thom Jurek, AMG
Till Bronner - The Good Life (2016):

Till Bronner (Till Brönner) - The Good Life (2016)

Tracklist:

01. The Good Life
02. Sweet Lorraine
03. For All We Know
04. Come Dance With Me
05. Change Partners
06. Love Is Here To Stay
07. I Loves You Porgy
08. I May Be Wrong
09. O Que Resta
10. I'm Confessin' That I Love You
11. I'll Be Seeing You
12. Her Smile
13. In The Wee Small Hours Of The Morning

Musicians:

Till Brönner - trumpet, flugelhorn & vocals
Anthony Wilson - guitar
Larry Goldings - piano
John Clayton - bass
Jeff Hamilton - drums


Exact Audio Copy V1.1 from 23. June 2015

Отчёт EAC об извлечении, выполненном 20. сентября 2016, 20:14

Till Bronner / The Good Life

Дисковод: ASUS DRW-24B3ST Adapter: 0 ID: 0

Режим чтения : Достоверность
Использование точного потока : Да
Отключение кэша аудио : Да
Использование указателей C2 : Нет

Коррекция смещения при чтении : 6
Способность читать области Lead-in и Lead-out : Нет
Заполнение пропущенных сэмплов тишиной : Да
Удаление блоков с тишиной в начале и конце : Нет
При вычислениях CRC использовались нулевые сэмплы : Да
Интерфейс : Установленный внешний ASPI-интерфейс

Выходной формат : Пользовательский кодировщик
Выбранный битрейт : 1024 kBit/s
Качество : Высокий
Добавление ID3-тега : Нет
Утилита сжатия : C:\Program Files (x86)\Exact Audio Copy\FLAC\FLAC.EXE
Дополнительные параметры : -6 -V -T "ARTIST=%artist%" -T "TITLE=%title%" -T "ALBUM=%albumtitle%" -T "DATE=%year%" -T "TRACKNUMBER=%tracknr%" -T "GENRE=%genre%" -T "COMMENT=%comment%" -T "BAND=%albuminterpret%" -T "ALBUMARTIST=%albuminterpret%" -T "COMPOSER=%composer%" %haslyrics%–tag-from-file=LYRICS="%lyricsfile%"%haslyrics% -T "DISCNUMBER=%cdnumber%" -T "TOTALDISCS=%totalcds%" -T "TOTALTRACKS=%numtracks%" %hascover%–picture="%coverfile%"%hascover% %source% -o %dest%


TOC извлечённого CD

Трек | Старт | Длительность | Начальный сектор | Конечный сектор
––––––––––––––––––––––––––––––––––-
1 | 0:00.00 | 4:57.31 | 0 | 22305
2 | 4:57.31 | 4:04.06 | 22306 | 40611
3 | 9:01.37 | 5:21.05 | 40612 | 64691
4 | 14:22.42 | 4:41.46 | 64692 | 85812
5 | 19:04.13 | 4:57.48 | 85813 | 108135
6 | 24:01.61 | 5:49.39 | 108136 | 134349
7 | 29:51.25 | 4:58.42 | 134350 | 156741
8 | 34:49.67 | 3:48.42 | 156742 | 173883
9 | 38:38.34 | 4:45.04 | 173884 | 195262
10 | 43:23.38 | 3:57.02 | 195263 | 213039
11 | 47:20.40 | 5:08.50 | 213040 | 236189
12 | 52:29.15 | 4:10.63 | 236190 | 255002
13 | 56:40.03 | 3:20.05 | 255003 | 270007


Характеристики диапазона извлечения и сообщения об ошибках

Выбранный диапазон

Имя файла C:\Torrents - my\Till Bronner - 2016 - The Good Life\Till Bronner - The Good Life.wav

Пиковый уровень 99.9 %
Скорость извлечения 3.4 X
Качество диапазона 100.0 %
CRC теста CE387B4C
CRC копии CE387B4C
Копирование… OK

Ошибок не произошло

Конец отчёта

==== Контрольная сумма отчёта 8ABF448A4018DC9B1AF71BF6DE16367366A8C8DAC29E2ECE9403BFFCC53A42B7 ====

foobar2000 1.2.9 / Dynamic Range Meter 1.1.1
log date: 2016-09-21 16:00:06

––––––––––––––––––––––––––––––––––––––––
Analyzed: Till Bronner / The Good Life
––––––––––––––––––––––––––––––––––––––––

DR Peak RMS Duration Track
––––––––––––––––––––––––––––––––––––––––
DR10 -0.08 dB -11.78 dB 4:57 01-The Good Life
DR11 -0.49 dB -13.58 dB 4:04 02-Sweet Lorraine
DR9 -0.09 dB -12.87 dB 5:21 03-For All We Know
DR10 -0.03 dB -11.54 dB 4:42 04-Come Dance with Me
DR11 -0.10 dB -13.98 dB 4:58 05-Change Partners
DR11 0.00 dB -12.56 dB 5:50 06-Love is Here to Stay
DR9 -0.08 dB -12.29 dB 4:59 07-I Loves You Porgy
DR9 0.00 dB -10.75 dB 3:49 08-I May be Wrong
DR10 -0.05 dB -11.69 dB 4:45 09-O Que Resta
DR9 -0.06 dB -10.78 dB 3:57 10-I'm Confessin' that I Love You
DR10 -0.06 dB -11.60 dB 5:09 11-I'll be Seeing You
DR9 -0.08 dB -11.12 dB 4:11 12-Her Smile
DR10 -0.11 dB -13.83 dB 3:20 13-In the Wee Small Hours of the Morning
––––––––––––––––––––––––––––––––––––––––

Number of tracks: 13
Official DR value: DR10

Samplerate: 44100 Hz
Channels: 2
Bits per sample: 16
Bitrate: 809 kbps
Codec: FLAC

[CUETools log; Date: 21.09.2016 0:14:11; Version: 2.1.4]
[CTDB TOCID: qOsDq5F3EiSUtwpmnhkfE6kNZoA-] found.
Track | CTDB Status
1 | (14/14) Accurately ripped
2 | (14/14) Accurately ripped
3 | (14/14) Accurately ripped
4 | (14/14) Accurately ripped
5 | (14/14) Accurately ripped
6 | (14/14) Accurately ripped
7 | (14/14) Accurately ripped
8 | (14/14) Accurately ripped
9 | (14/14) Accurately ripped
10 | (14/14) Accurately ripped
11 | (14/14) Accurately ripped
12 | (14/14) Accurately ripped
13 | (14/14) Accurately ripped
[AccurateRip ID: 001dd8c7-01295cc5-a30e100d] disk not present in database.

Track Peak [ CRC32 ] [W/O NULL] [ LOG ]
– 99,9 [CE387B4C] [D0BCE9F6] CRC32
01 99,0 [49525AB9] [41F3864C]
02 94,5 [3DF57F4A] [400C606D]
03 98,9 [1279AD56] [3E8D7464]
04 99,6 [ACA573A2] [AA9FAFB2]
05 98,8 [78CD35CE] [EE488B4B]
06 99,9 [D9ED1A9A] [E3FE3AF9]
07 99,0 [E703E845] [38D31705]
08 99,9 [C56EA6DC] [A4DAE06A]
09 99,4 [31835D39] [C99AAEF5]
10 99,3 [755B81C0] [EBDB4FB0]
11 99,3 [FAB2A1C5] [35173F3E]
12 99,1 [C148A1F3] [41480F52]
13 98,7 [49164C5F] [7A9B2638]

Till Bronner (Till Brönner) - The Good Life (2016)

All thanks go to Копысов

Download Till Bronner - The Good Life (2016):