Subcategories

Till Bronner - Till Bronner (2012) 2CD Deluxe Edition

Posted By: Designol
Till Bronner - Till Bronner (2012) 2CD Deluxe Edition

Till Brönner - Till Brönner (2012) 2CD Deluxe Edition
EAC | APE | Image (Cue&Log) ~ 512 Mb (incl 5%) | Mp3 (CBR320/Stereo) ~ 229 Mb (incl 5%) | Scans included
Genre: Jazz Fusion, Contemporary Jazz, Smooth Jazz | Label: Verve | # 06025 3719116 | Time: 01:28:37

On his first instrumental album in over a decade, German jazz trumpeter/flügelhornist and pop star Till Brönner offers his own tribute to one of his earliest inspirations: the sound of Creed Taylor's CTI label. Co-produced by the artist with keyboardist Roberto Di Gioia and Samon Kawamura, these 12 tunes employ a crack studio band as well as strings, and evoke memories of the label's arrangers Don Sebesky, David Matthews, and Bob James, but with distinctly modern charts. The mood is relaxed, open, and fluid, and creativity runs high. The production is warm yet crystalline; though attention is paid to detail, nothing feels constrained by nostalgia. These 12 cuts wed hip, soulful jazz-funk grooves to modern jazz, sometimes infused with a subtly cinematic panache. "Will of Nature" has a tight front-line horn vamp (Brönner and saxophonist Magnus Lindgren) that invokes hard bop but sticks closer to spacy soul-jazz – Lindgren even quotes "A Love Supreme" in the intro to his solo. Di Gioia's Rhodes makes room inside the mix for exploration, while staying deep in the pocket provided by Wolfgang Haffner's drum kit and Albert Johnson's double bass. "The Gate" opens with lush, impressionistic strings that hover and float in the intro, highlighted by Lindgren's flute. They introduce Brönner's smoky flügelhorn melody, followed by double bass, rim-shot snare, and cymbals. The strings vanish and, in a nice timbral contrast, the slippery head is led by Lindgren's bass clarinet and the horn. Di Gioia's Rhodes adds a nodding groove. Brönner's deep melodic solo also adds sharp and high single-note accents embellished by reverb. A too-brief yet astute cover of Freddie Hubbard's "Gibraltar" is populated with shimmering Rhodes, finger-popping hand percussion, B-3, and rippling horns. Don Grusin's classic "Condor" is driven by a rubbery bassline, shuffling snare, and breaks, an illustrative meld of keyboards, background strings, and lyrical, refined front-line horns. There is a slow simmering intensity at play here, infused with canny 21st century sonic illustrations. "Half Story"'s plush backdrop of electric piano and strings underscores Lindgren and Brönner playing in unison, alternating fours, and soloing, introducing a myriad of lyric elements. Di Gioia adds electric guitar to his keyboards on "Wacky Wes," the funkiest cut on the set, but gives up none of the album's textural richness. The date closes with a gorgeous reading of Michel Legrand's ballad "Once Upon a Summertime," whose elegant strings and sparse electric piano create a frame for Brönner to state the melody simply and infuse it with a wealth of emotion. Ultimately, this self-titled date is a monster, offering proof that not only has Brönner not forsaken jazz for pop, but has given listeners what is perhaps his finest recording to date. [The limited Deluxe Edition contains a bonus disc with three extra tracks, including the popping "Till's Blues," a reading of "Body and Soul," and a 13-minute version of "Little Sunflower" that is worth the purchase price all by itself.]

Review by Thom Jurek, Allmusic.com
Till Bronner - Till Bronner (2012) 2CD Deluxe Edition



Tracklist:

CD1:

01. Will Of Nature (5:17)
02. F.F.H. (6:45)
03. Return To The Fold (6:18)
04. Gibraltar (4:01)
05. Pegasus (4:11)
06. Red Street (4:45)
07. Three Days Of The Condor (6:13)
08. Lazy Afternoon (7:07)
09. Wacky Wes (5:27)
10. The Gate (6:13)
11. Half Story (5:51)
12. Once Upon A Summertime (5:33)

CD2:

01. Till's Blues (4:01)
02. Body & Soul (1:59)
03. Little Sunflower (14:39)


Exact Audio Copy V0.99 prebeta 4 from 23. January 2008

Отчёт EAC об извлечении, выполненном 7. мая 2013, 20:32

Till Brцnner / Till Brцnner

Дисковод: HL-DT-STDVDRAM GH20LS10 Adapter: 3 ID: 1

Режим чтения : Достоверность
Использование точного потока : Да
Отключение кэша аудио : Да
Использование указателей C2 : Нет

Коррекция смещения при чтении : 667
Способность читать области Lead-in и Lead-out : Нет
Заполнение пропущенных сэмплов тишиной : Да
Удаление блоков с тишиной в начале и конце : Нет
При вычислениях CRC использовались нулевые сэмплы : Да
Интерфейс : Встроенный Win32-интерфейс для Win NT/2000

Выходной формат : Внутренние WAV-операции
Формат сэмплов : 44.100 Гц; 16 бит; стерео


TOC извлечённого CD

Трек | Старт | Длительность | Начальный сектор | Конечный сектор
––––––––––––––––––––––––––––––––––-
1 | 0:00.00 | 5:16.53 | 0 | 23752
2 | 5:16.53 | 6:45.52 | 23753 | 54179
3 | 12:02.30 | 6:17.19 | 54180 | 82473
4 | 18:19.49 | 4:00.44 | 82474 | 100517
5 | 22:20.18 | 4:13.27 | 100518 | 119519
6 | 26:33.45 | 4:47.23 | 119520 | 141067
7 | 31:20.68 | 6:13.24 | 141068 | 169066
8 | 37:34.17 | 7:07.44 | 169067 | 201135
9 | 44:41.61 | 5:28.50 | 201136 | 225785
10 | 50:10.36 | 6:15.43 | 225786 | 253953
11 | 56:26.04 | 5:54.57 | 253954 | 280560
12 | 62:20.61 | 5:34.07 | 280561 | 305617


Характеристики диапазона извлечения и сообщения об ошибках

Выбранный диапазон

Имя файла D:\Lossless\Till Bronner- Till Bronner - 2012\CD-1\Till Brцnner - Till Brцnner.wav

Пиковый уровень 99.9 %
Качество диапазона 100.0 %
CRC теста 1E49FDBB
CRC копии 1E49FDBB
Копирование… OK

Ошибок не произошло


AccurateRip: сводка

Трек 1 точное извлечение (доверие 3) [15FA1D89]
Трек 2 точное извлечение (доверие 3) [91376C56]
Трек 3 точное извлечение (доверие 3) [773327B9]
Трек 4 точное извлечение (доверие 3) [B9F49B09]
Трек 5 точное извлечение (доверие 3) [1B40FBF2]
Трек 6 точное извлечение (доверие 3) [781E61C8]
Трек 7 точное извлечение (доверие 3) [F11451BF]
Трек 8 точное извлечение (доверие 3) [858BB81C]
Трек 9 точное извлечение (доверие 3) [BF00B464]
Трек 10 точное извлечение (доверие 3) [612E272C]
Трек 11 точное извлечение (доверие 3) [8313E5B0]
Трек 12 точное извлечение (доверие 3) [BAF0753C]

Все треки извлечены точно

Конец отчёта

foobar2000 1.2 / Dynamic Range Meter 1.1.1
log date: 2013-05-15 20:18:02

––––––––––––––––––––––––––––––––––––––––
Analyzed: Till Bronner / Till Bronner
––––––––––––––––––––––––––––––––––––––––

DR Peak RMS Duration Track
––––––––––––––––––––––––––––––––––––––––
DR10 -0.07 dB -11.94 dB 5:17 01-Will Of Nature
DR10 0.00 dB -12.55 dB 6:46 02-F.F.H.
DR10 0.00 dB -12.92 dB 6:17 03-Return To the Fold
DR9 -0.07 dB -11.57 dB 4:01 04-Gibraltar
DR8 -0.02 dB -11.61 dB 4:13 05-Pegasus
DR9 -0.07 dB -12.27 dB 4:47 06-Red Street
DR10 0.00 dB -12.45 dB 6:13 07-Condor
DR11 0.00 dB -14.58 dB 7:08 08-Lazy Afternoon
DR9 -0.08 dB -11.81 dB 5:29 09-Wacky Wes
DR10 0.00 dB -13.85 dB 6:16 10-The Gate
DR10 -0.09 dB -12.52 dB 5:55 11-Half Story
DR10 -0.08 dB -13.26 dB 5:34 12-Once UPON A Summertime
––––––––––––––––––––––––––––––––––––––––

Number of tracks: 12
Official DR value: DR10

Samplerate: 44100 Hz
Channels: 2
Bits per sample: 16
Bitrate: 763 kbps
Codec: Monkey's Audio
================================================================================


Exact Audio Copy V0.99 prebeta 4 from 23. January 2008

Отчёт EAC об извлечении, выполненном 7. мая 2013, 20:49

Till Brцnner / Till Brцnner

Дисковод: HL-DT-STDVDRAM GH20LS10 Adapter: 3 ID: 1

Режим чтения : Достоверность
Использование точного потока : Да
Отключение кэша аудио : Да
Использование указателей C2 : Нет

Коррекция смещения при чтении : 667
Способность читать области Lead-in и Lead-out : Нет
Заполнение пропущенных сэмплов тишиной : Да
Удаление блоков с тишиной в начале и конце : Нет
При вычислениях CRC использовались нулевые сэмплы : Да
Интерфейс : Встроенный Win32-интерфейс для Win NT/2000

Выходной формат : Внутренние WAV-операции
Формат сэмплов : 44.100 Гц; 16 бит; стерео


TOC извлечённого CD

Трек | Старт | Длительность | Начальный сектор | Конечный сектор
––––––––––––––––––––––––––––––––––-
1 | 0:00.00 | 4:03.35 | 0 | 18259
2 | 4:03.35 | 2:00.19 | 18260 | 27278
3 | 6:03.54 | 14:40.05 | 27279 | 93283


Характеристики диапазона извлечения и сообщения об ошибках

Выбранный диапазон

Имя файла D:\Lossless\Till Bronner- Till Bronner - 2012\CD-2\Till Brцnner - Till Brцnner.wav

Пиковый уровень 99.0 %
Качество диапазона 100.0 %
CRC теста 3C08BAE4
CRC копии 3C08BAE4
Копирование… OK

Ошибок не произошло


AccurateRip: сводка

Трек 1 нет в базе данных
Трек 2 нет в базе данных
Трек 3 нет в базе данных

Ни одного трека нет в базе AccurateRip

Конец отчёта

foobar2000 1.2 / Dynamic Range Meter 1.1.1
log date: 2013-05-15 20:18:23

––––––––––––––––––––––––––––––––––––––––
Analyzed: Till Bronner / Till Bronner (Bonus CD)
––––––––––––––––––––––––––––––––––––––––

DR Peak RMS Duration Track
––––––––––––––––––––––––––––––––––––––––
DR11 -0.09 dB -13.88 dB 4:03 01-Till`s Blues
DR10 -0.08 dB -13.95 dB 2:00 02-Body & Soul
DR9 -1.80 dB -13.92 dB 14:40 03-Little Sunflower
––––––––––––––––––––––––––––––––––––––––

Number of tracks: 3
Official DR value: DR10

Samplerate: 44100 Hz
Channels: 2
Bits per sample: 16
Bitrate: 686 kbps
Codec: Monkey's Audio
================================================================================

Till Bronner - Till Bronner (2012) 2CD Deluxe Edition

Till Bronner - Till Bronner (2012) 2CD Deluxe Edition

All thanks to original releaser - SerBlues

More interesting music in My Blog