Subcategories
Please register here if you want to download anything!

If domain in your address bar is different from the list below
PLEASE LEAVE THAT SITE IMMEDIATELY
❗IT'S A DANGEROUS FAKE❗



Spicy Magazines for Men! ;-)

Tina Turner - Simply The Best (1991)

Posted By: popsakov
Tina Turner - Simply The Best (1991)

Tina Turner - Simply The Best (1991)
EAC Rip | FLAC (Img) + Cue + Log ~ 492 Mb | MP3 CBR320 ~ 175 Mb
Scans (PNG, 300 dpi) ~ 67 Mb | RAR 5% Recovery
Pop Rock, Rhythm & Blues, Funk, Soul, Synth-Pop, House
Capitol Records #C2 97152 / CDP 7 97152 2 / BMG Direct #D101195

Simply the Best is the first greatest hits compilation by Tina Turner and was released on October 22, 1991. The album includes Turner's most popular hits since her comeback in the early-mid 1980s. It also includes three new songs that were previously unreleased; "Love Thing" (UK Airplay #13), "I Want You Near Me" (#22 UK), and "Way of the World" (UK Airplay #6 and UK #13) as well as a re-recorded dance version of Turner's classic "Nutbush City Limits", all of which were also issued as singles in 1991 and 1992. The album is Turner's biggest seller in the UK where it is one of the best selling albums of all time for sales in excess of 2.4 million copies. It was certified 8x platinum in the UK and stayed on the UK charts for over 140 weeks. The album sold over 7 million copies worldwide.
~ Wiki

Simply the Best is surrounded by some of the best situations a compilation can hope for. Tina Turner's work for Capitol past Private Dancer was spotty, she made a bunch of appearances on soundtracks and other artists' albums, and most of the tracks on Private Dancer are good enough to own twice. Almost half of Private Dancer shows up on Simply the Best, but you don't have to endure the way the original album spiraled down into slick fizzle. Instead you have to endure a misguided, pumped-up house remix of "Nutbush City Limits," but that's it. Everything else here is either top-notch or campy, certifiable fun. A duet with Rod Stewart on "It Takes Two" supplies the fun along with the new track, "I Want You Near Me" (Turner to lover: "You're so good with your hands/To help me with a hook or zip"). The two other new tracks tacked to the end beat out most of the album cuts the collection passes on, plus you get the bombastic "We Don't Need Another Hero (Thunderdome)" without having to buy a dull soundtrack. The oldest cut by years is the monolithic "River Deep-Mountain High," which is a bona fide classic but sonically out of place here. Reprogram the disc to play it at the beginning or end, skip the new "Nutbush" completely, and you've got sparkling, nearly perfect overview of Turner's postcomeback career.
~ David Jeffries, All Music

***************

Tina Turner - Simply The Best (1991)

Track List:

01. The Best [4:10]
02. Better Be Good To Me [3:41]
03. I Can't Stand The Rain [3:43]
04. What's Love Got To Do With It [3:50]
05. I Don't Want To Lose You [4:20]
06. Nutbush City Limits (The 90'S Version) [3:44]
07. What You Get Is What You See [4:28]
08. Let's Stay Together [3:40]
09. River Deep - Mountain High [3:40]
10. Steamy Windows [4:05]
11. Typical Male [4:16]
12. We Don't Need Another Hero (Thunderdome) [4:16]
13. Private Dancer [4:02]
14. Look Me In The Heart [3:42]
15. It Takes Two (Duet With Rod Stewart) [4:13]
16. I Want You Near Me [3:53]
17. Way Of The World [4:26]
18. Love Thing [4:29]

Exact Audio Copy V1.0 beta 3 from 29. August 2011

EAC extraction logfile from 19. December 2011, 21:17

Tina Turner / Simply The Best

Used drive : ASUS SDRW-08D2S-U Adapter: 1 ID: 0

Read mode : Secure
Utilize accurate stream : Yes
Defeat audio cache : Yes
Make use of C2 pointers : No

Read offset correction : 6
Overread into Lead-In and Lead-Out : No
Fill up missing offset samples with silence : Yes
Delete leading and trailing silent blocks : No
Null samples used in CRC calculations : Yes
Used interface : Native Win32 interface for Win NT & 2000

Used output format : User Defined Encoder
Selected bitrate : 896 kBit/s
Quality : High
Add ID3 tag : No
Command line compressor : C:\Program Files\Exact Audio Copy\wavpack.exe
Additional command line options : -hlm %source% %dest%


TOC of the extracted CD

Track | Start | Length | Start sector | End sector
––––––––––––––––––––––––––––-
1 | 0:00.00 | 4:10.27 | 0 | 18776
2 | 4:10.27 | 3:40.48 | 18777 | 35324
3 | 7:51.00 | 3:43.22 | 35325 | 52071
4 | 11:34.22 | 3:50.18 | 52072 | 69339
5 | 15:24.40 | 4:20.10 | 69340 | 88849
6 | 19:44.50 | 3:44.25 | 88850 | 105674
7 | 23:29.00 | 4:28.00 | 105675 | 125774
8 | 27:57.00 | 3:39.42 | 125775 | 142241
9 | 31:36.42 | 3:40.10 | 142242 | 158751
10 | 35:16.52 | 4:04.50 | 158752 | 177101
11 | 39:21.27 | 4:15.68 | 177102 | 196294
12 | 43:37.20 | 4:16.02 | 196295 | 215496
13 | 47:53.22 | 4:02.28 | 215497 | 233674
14 | 51:55.50 | 3:41.60 | 233675 | 250309
15 | 55:37.35 | 4:13.15 | 250310 | 269299
16 | 59:50.50 | 3:53.20 | 269300 | 286794
17 | 63:43.70 | 4:25.40 | 286795 | 306709
18 | 68:09.35 | 4:28.40 | 306710 | 326849


Range status and errors

Selected range

Filename D:\NL[ZAM]\Tina\Tina Turner - Simply The Best.wav

Peak level 100.0 %
Extraction speed 4.9 X
Range quality 100.0 %
Test CRC 33BDB2F9
Copy CRC 33BDB2F9
Copy OK

No errors occurred


AccurateRip summary

Track 1 accurately ripped (confidence 7) [F74FCFDE] (AR v1)
Track 2 accurately ripped (confidence 7) [FAC3EAED] (AR v1)
Track 3 accurately ripped (confidence 7) [4ED6C5D8] (AR v1)
Track 4 accurately ripped (confidence 7) [49E5B1E8] (AR v1)
Track 5 accurately ripped (confidence 7) [52BA08A0] (AR v1)
Track 6 accurately ripped (confidence 7) [4ABC3B76] (AR v1)
Track 7 accurately ripped (confidence 7) [2CB899CA] (AR v1)
Track 8 accurately ripped (confidence 7) [76BB2002] (AR v1)
Track 9 accurately ripped (confidence 7) [55CF76D2] (AR v1)
Track 10 accurately ripped (confidence 7) [FB825998] (AR v1)
Track 11 accurately ripped (confidence 7) [44110F47] (AR v1)
Track 12 accurately ripped (confidence 7) [08C5B29D] (AR v1)
Track 13 accurately ripped (confidence 7) [8E002856] (AR v1)
Track 14 accurately ripped (confidence 7) [C9175519] (AR v1)
Track 15 accurately ripped (confidence 7) [3901C1EB] (AR v1)
Track 16 accurately ripped (confidence 7) [9E831E07] (AR v1)
Track 17 accurately ripped (confidence 6) [C1015E47] (AR v1)
Track 18 accurately ripped (confidence 6) [58D03E7A] (AR v1)

All tracks accurately ripped

End of status report

–– CUETools DB Plugin V2.1.3

[CTDB TOCID: eIYPNLtRobimTXZk470ytDDaemo-] found, Submit result: eIYPNLtRobimTXZk470ytDDaemo- has been confirmed
[bb719591] (30/32) Differs in 2 samples @22:12:35,31:13:30
[ddd01116] (02/32) Accurately ripped
You can use CUETools to repair this rip.

foobar2000 1.2.6 / Dynamic Range Meter 1.1.1
log date: 2017-03-05 02:28:08

––––––––––––––––––––––––––––––––––––––––
Analyzed: Tina Turner / Simply The Best
––––––––––––––––––––––––––––––––––––––––

DR Peak RMS Duration Track
––––––––––––––––––––––––––––––––––––––––
DR10 -0.22 dB -11.23 dB 4:10 01-The Best
DR9 -0.34 dB -11.94 dB 3:41 02-Better Be Good To Me
DR11 -0.36 dB -12.84 dB 3:43 03-I Can't Stand The Rain
DR10 -0.23 dB -12.36 dB 3:50 04-What's Love Got To Do With It
DR10 -0.25 dB -12.37 dB 4:20 05-I Don't Want To Lose You
DR9 -0.09 dB -10.63 dB 3:44 06-Nutbush City Limits (The 90'S Version)
DR10 -0.08 dB -12.09 dB 4:28 07-What You Get Is What You See
DR9 -0.18 dB -11.49 dB 3:40 08-Let's Stay Together
DR9 -0.44 dB -11.66 dB 3:40 09-River Deep - Mountain High
DR10 -0.04 dB -11.46 dB 4:05 10-Steamy Windows
DR10 -0.41 dB -11.44 dB 4:16 11-Typical Male
DR9 -0.25 dB -11.48 dB 4:16 12-We Don't Need Another Hero (Thunderdome)
DR10 -0.08 dB -13.10 dB 4:02 13-Private Dancer
DR10 -0.20 dB -11.38 dB 3:42 14-Look Me In The Heart
DR10 -0.24 dB -11.42 dB 4:13 15-It Takes Two (Duet With Rod Stewart)
DR10 -0.22 dB -12.41 dB 3:53 16-I Want You Near Me
DR10 -0.04 dB -11.76 dB 4:26 17-Way Of The World
DR9 0.00 dB -10.81 dB 4:29 18-Love Thing
––––––––––––––––––––––––––––––––––––––––

Number of tracks: 18
Official DR value: DR10

Samplerate: 44100 Hz
Channels: 2
Bits per sample: 16
Bitrate: 901 kbps
Codec: WavPack
================================================================================

[CUETools log; Date: 05.03.2017 2:28:25; Version: 2.1.5]
[CTDB TOCID: eIYPNLtRobimTXZk470ytDDaemo-] found.
Track | CTDB Status
1 | (189/204) Accurately ripped
2 | (194/204) Accurately ripped
3 | (193/204) Accurately ripped
4 | (190/204) Accurately ripped
5 | (195/204) Accurately ripped
6 | (128/204) Accurately ripped, or (45/204) differs in 1 samples @02:27:60, or (3/204) differs in 1 samples @02:27:60, or (7/204) differs in 1 samples @02:27:60
7 | (193/204) Accurately ripped
8 | (128/204) Accurately ripped, or (45/204) differs in 1 samples @03:16:30, or (3/204) differs in 1 samples @03:16:30, or (7/204) differs in 1 samples @03:16:30
9 | (194/204) Accurately ripped
10 | (192/204) Accurately ripped
11 | (190/204) Accurately ripped
12 | (190/204) Accurately ripped
13 | (190/204) Accurately ripped
14 | (189/204) Accurately ripped
15 | (188/204) Accurately ripped
16 | (184/204) Accurately ripped
17 | (188/204) Accurately ripped
18 | (181/204) Accurately ripped, or (3/204) differs in 180 samples @00:27:34-00:27:35
[AccurateRip ID: 002eae8e-026ff53d-1b110612] found.
Track [ CRC | V2 ] Status
01 [f74fcfde|9ac6aae9] (008+004/254) Accurately ripped
02 [fac3eaed|1dc1cfd4] (008+004/253) Accurately ripped
03 [4ed6c5d8|d073ab62] (008+004/252) Accurately ripped
04 [49e5b1e8|6ebcf879] (008+004/252) Accurately ripped
05 [52ba08a0|4af9ac65] (008+004/252) Accurately ripped
06 [4abc3b76|3f67eeb3] (008+004/249) Accurately ripped
07 [2cb899ca|daab0093] (008+004/249) Accurately ripped
08 [76bb2002|9b4f8f09] (008+004/253) Accurately ripped
09 [55cf76d2|b6f0ad09] (008+004/253) Accurately ripped
10 [fb825998|5c3616ca] (008+004/249) Accurately ripped
11 [44110f47|f9f1178d] (008+004/246) Accurately ripped
12 [08c5b29d|6d739d4e] (008+004/250) Accurately ripped
13 [8e002856|f68c5a09] (008+004/244) Accurately ripped
14 [c9175519|f82c6bfa] (008+004/247) Accurately ripped
15 [3901c1eb|caa05c41] (008+004/244) Accurately ripped
16 [9e831e07|cc29f9c2] (008+004/242) Accurately ripped
17 [c1015e47|5ec8a2b4] (007+004/244) Accurately ripped
18 [58d03e7a|e4e1163f] (007+002/230) Accurately ripped
Offsetted by -2346:
01 [53887786] (002/254) Accurately ripped
02 [cfa54a23] (002/253) Accurately ripped
03 [88a99cb6] (002/252) Accurately ripped
04 [e0a1c010] (002/252) Accurately ripped
05 [2c345df4] (002/252) Accurately ripped
06 [f22786ca] (002/249) Accurately ripped
07 [0c606ce4] (002/249) Accurately ripped
08 [6bf0c818] (002/253) Accurately ripped
09 [d201f912] (002/253) Accurately ripped
10 [bfdb9c4c] (002/249) Accurately ripped
11 [cab63869] (002/246) Accurately ripped
12 [f4875b21] (002/250) Accurately ripped
13 [9bf869b4] (002/244) Accurately ripped
14 [e0cbc843] (002/247) Accurately ripped
15 [b3bec1d1] (002/244) Accurately ripped
16 [78b77441] (002/242) Accurately ripped
17 [24a76985] (002/244) Accurately ripped
18 [2d10e6c2] (002/230) Accurately ripped
Offsetted by -2079:
01 [418204da] (055/254) Accurately ripped
02 [ddb8295e] (055/253) Accurately ripped
03 [f3ad7145] (057/252) Accurately ripped
04 [45a7d8a4] (055/252) Accurately ripped
05 [fa92cd5e] (056/252) Accurately ripped
06 [5e721134] (056/249) Accurately ripped
07 [a263e9d1] (055/249) Accurately ripped
08 [28182dc3] (055/253) Accurately ripped
09 [950f3632] (056/253) Accurately ripped
10 [bf71dc66] (055/249) Accurately ripped
11 [146e63da] (056/246) Accurately ripped
12 [50341923] (055/250) Accurately ripped
13 [c5eb8b83] (053/244) Accurately ripped
14 [8e8c5c38] (056/247) Accurately ripped
15 [41edfe64] (053/244) Accurately ripped
16 [fe0010be] (055/242) Accurately ripped
17 [8b904244] (054/244) Accurately ripped
18 [2d763a66] (051/230) Accurately ripped
Offsetted by 1485:
01 [792bf32a] (034/254) Accurately ripped
02 [0f832c0a] (034/253) Accurately ripped
03 [6b620241] (034/252) Accurately ripped
04 [285b03f4] (035/252) Accurately ripped
05 [ff685786] (034/252) Accurately ripped
06 [1815c75c] (000/249) No match (V2 was not tested)
07 [b419a9c5] (034/249) Accurately ripped
08 [8a54162f] (000/253) No match (V2 was not tested)
09 [baeb12b2] (036/253) Accurately ripped
10 [01d7454e] (034/249) Accurately ripped
11 [8aa9d2de] (033/246) Accurately ripped
12 [d5bffbab] (035/250) Accurately ripped
13 [660ee17f] (033/244) Accurately ripped
14 [3c0ce24c] (034/247) Accurately ripped
15 [a0590470] (034/244) Accurately ripped
16 [a37302f2] (035/242) Accurately ripped
17 [0bbfe000] (035/244) Accurately ripped
18 [77c765f6] (032/230) Accurately ripped

Track Peak [ CRC32 ] [W/O NULL] [ LOG ]
– 100,0 [33BDB2F9] [275862D8] CRC32
01 97,5 [A7B5BE8E] [48746941]
02 96,2 [5CAB3893] [651B119D]
03 95,9 [E201C575] [D48FFB6E]
04 97,4 [9F5791C7] [89A7E915]
05 97,1 [1538CFE8] [3BFAB53B]
06 98,9 [16879BD3] [03BB9EFB]
07 99,1 [D8749580] [361D384F]
08 97,9 [3CB7D980] [D834BD87]
09 95,0 [DD9F6172] [9FDE95C3]
10 99,5 [6AC95A80] [F764554A]
11 95,4 [20E25C28] [C14AF838]
12 97,1 [9D516FC8] [3529DD4C]
13 99,1 [D6C2FDAE] [9A6ECD04]
14 97,7 [665BEDFA] [45816C92]
15 97,2 [0047C8EF] [B27B8C89]
16 97,5 [107E9A5A] [B43A0C0C]
17 99,5 [9A540BFA] [A80037B3]
18 100,0 [71B453EA] [D36AA1B4]

Tina Turner - Simply The Best (1991)

Tina Turner - Simply The Best (1991)

All thanks go to Alex ZAM

> Tina Turner in my blog <