Subcategories

Tina Turner - Simply The Best (1991)

Posted By: popsakov
Tina Turner - Simply The Best (1991)

Tina Turner - Simply The Best (1991)
EAC Rip | FLAC (Img) + Cue + Log ~ 528 Mb | MP3 CBR320 ~ 191 Mb
Scans Included (JPG, 600 dpi) | RAR 5% Recovery
Capitol Records #0777 7 96630 2 6 / 7 96630 2 / CD ESTV 1
Pop Rock, Rhythm & Blues, Funk, Soul

Simply the Best is the first greatest hits compilation by Tina Turner and was released on October 22, 1991. The album includes Turner's most popular hits since her comeback in the early-mid 1980s. It also includes three new songs that were previously unreleased; "Love Thing" (UK Airplay #13), "I Want You Near Me" (#22 UK), and "Way of the World" (UK Airplay #6 and UK #13) as well as a re-recorded dance version of Turner's classic "Nutbush City Limits", all of which were also issued as singles in 1991 and 1992. The album is Turner's biggest seller in the UK where it is one of the best selling albums of all time for sales in excess of 2.4 million copies. It was certified 8x platinum in the UK and stayed on the UK charts for over 140 weeks. The album sold over 7 million copies worldwide.
~ Wiki

Simply the Best is surrounded by some of the best situations a compilation can hope for. Tina Turner's work for Capitol past Private Dancer was spotty, she made a bunch of appearances on soundtracks and other artists' albums, and most of the tracks on Private Dancer are good enough to own twice. Almost half of Private Dancer shows up on Simply the Best, but you don't have to endure the way the original album spiraled down into slick fizzle. Instead you have to endure a misguided, pumped-up house remix of "Nutbush City Limits," but that's it. Everything else here is either top-notch or campy, certifiable fun. A duet with Rod Stewart on "It Takes Two" supplies the fun along with the new track, "I Want You Near Me" (Turner to lover: "You're so good with your hands/To help me with a hook or zip"). The two other new tracks tacked to the end beat out most of the album cuts the collection passes on, plus you get the bombastic "We Don't Need Another Hero (Thunderdome)" without having to buy a dull soundtrack. The oldest cut by years is the monolithic "River Deep-Mountain High," which is a bona fide classic but sonically out of place here. Reprogram the disc to play it at the beginning or end, skip the new "Nutbush" completely, and you've got sparkling, nearly perfect overview of Turner's postcomeback career.
~ David Jeffries, All Music

***************

Tina Turner - Simply The Best (1991)

Tina Turner - Simply The Best (1991)

Track List:

01. The Best [4:10]
02. What's Love Got To Do With It [3:50]
03. I Can't Stand The Rain [3:43]
04. I Don't Wanna Lose You [4:20]
05. Nutbush City Limits (The 90's Version) [3:44]
06. Let's Stay Together [3:40]
07. Private Dancer [4:02]
08. We Don't Need Another Hero (Thunderdome) [4:16]
09. Better Be Good To Me [3:40]
10. River Deep - Mountain High [3:40]
11. Steamy Windows [4:05]
12. Typical Male [4:17]
13. It Takes Two (Duet With Rod Stewart) [4:13]
14. Addicted To Love (Live) [5:05]
15. Be Tender With Me Baby [4:18]
16. I Want You Near Me [3:53]
17. Way Of The World [4:26]
18. Love Thing [4:28]

Exact Audio Copy V1.3 from 2. September 2016

EAC extraction logfile from 24. March 2017, 20:58

Tina Turner / Simply The Best

Used drive : TSSTcorpCDDVDW SE-S084C Adapter: 0 ID: 0

Read mode : Secure
Utilize accurate stream : Yes
Defeat audio cache : Yes
Make use of C2 pointers : No

Read offset correction : 6
Overread into Lead-In and Lead-Out : No
Fill up missing offset samples with silence : Yes
Delete leading and trailing silent blocks : No
Null samples used in CRC calculations : Yes
Used interface : Installed external ASPI interface

Used output format : User Defined Encoder
Selected bitrate : 320 kBit/s
Quality : High
Add ID3 tag : No
Command line compressor : C:\Program Files (x86)\Exact Audio Copy\FLAC\FLAC.EXE
Additional command line options : -V -8 -T "Date=%year%" -T "Genre=%genre%" %source%


TOC of the extracted CD

Track | Start | Length | Start sector | End sector
––––––––––––––––––––––––––––-
1 | 0:00.33 | 4:10.10 | 33 | 18792
2 | 4:10.43 | 3:50.35 | 18793 | 36077
3 | 8:01.03 | 3:43.12 | 36078 | 52814
4 | 11:44.15 | 4:19.55 | 52815 | 72294
5 | 16:03.70 | 3:44.25 | 72295 | 89119
6 | 19:48.20 | 3:39.38 | 89120 | 105582
7 | 23:27.58 | 4:01.50 | 105583 | 123707
8 | 27:29.33 | 4:16.02 | 123708 | 142909
9 | 31:45.35 | 3:40.03 | 142910 | 159412
10 | 35:25.38 | 3:40.35 | 159413 | 175947
11 | 39:05.73 | 4:05.10 | 175948 | 194332
12 | 43:11.08 | 4:16.62 | 194333 | 213594
13 | 47:27.70 | 4:13.30 | 213595 | 232599
14 | 51:41.25 | 5:04.38 | 232600 | 255437
15 | 56:45.63 | 4:17.50 | 255438 | 274762
16 | 61:03.38 | 3:53.12 | 274763 | 292249
17 | 64:56.50 | 4:25.43 | 292250 | 312167
18 | 69:22.18 | 4:28.25 | 312168 | 332292


Range status and errors

Selected range

Filename D:\EAC\Tina Turner - Simply The Best.wav

Peak level 100.0 %
Extraction speed 5.1 X
Range quality 100.0 %
Test CRC E9A87C2B
Copy CRC E9A87C2B
Copy OK

No errors occurred


AccurateRip summary

Track 1 accurately ripped (confidence 200) [50D097E9] (AR v2)
Track 2 accurately ripped (confidence 200) [92C41352] (AR v2)
Track 3 accurately ripped (confidence 200) [DCBF38EF] (AR v2)
Track 4 accurately ripped (confidence 200) [F7415361] (AR v2)
Track 5 accurately ripped (confidence 200) [9BEF0D7A] (AR v2)
Track 6 accurately ripped (confidence 200) [93DE02BE] (AR v2)
Track 7 accurately ripped (confidence 200) [EEE6204F] (AR v2)
Track 8 accurately ripped (confidence 200) [9FA6F840] (AR v2)
Track 9 accurately ripped (confidence 200) [172E9C32] (AR v2)
Track 10 accurately ripped (confidence 200) [7F45D6C1] (AR v2)
Track 11 accurately ripped (confidence 200) [C742BEDA] (AR v2)
Track 12 accurately ripped (confidence 200) [89B1BB88] (AR v2)
Track 13 accurately ripped (confidence 200) [FE078C9E] (AR v2)
Track 14 accurately ripped (confidence 200) [B27D968F] (AR v2)
Track 15 accurately ripped (confidence 200) [D9FF60B0] (AR v2)
Track 16 accurately ripped (confidence 200) [00F6CCA7] (AR v2)
Track 17 accurately ripped (confidence 200) [DAFC2EDD] (AR v2)
Track 18 accurately ripped (confidence 200) [7078AF66] (AR v2)

All tracks accurately ripped

End of status report

–– CUETools DB Plugin V2.1.6

[CTDB TOCID: WNJP9un0eazJSSH_E8qD_YC0i9s-] found
Submit result: WNJP9un0eazJSSH_E8qD_YC0i9s- has been confirmed
Track | CTDB Status
1 | (826/864) Accurately ripped, or (1/864) differs in 5 samples @00:13:58,03:54:37
2 | (835/864) Accurately ripped, or (1/864) differs in 1570 samples @00:34:30,00:36:23,00:39:40,00:44:17-00:44:18,00:44:29,00:44:72-00:44:73,00:45:53,00:46:55,00:47:56-00:47:57,00:47:68,00:48:05,00:48:60,00:51:55-00:51:56,00:51:66-00:51:67,00:52:03,00:52:14,00:52:25,00:52:36,00:52:47,00:52:68,00:53:04-00:53:05,00:53:15-00:53:16,00:53:27,00:53:38,00:53:60,00:53:71,00:54:07,00:54:19,00:54:30,00:55:21,00:56:12,00:56:34-00:56:35,00:57:25,00:58:62,00:58:72-00:58:73,00:59:09,00:59:30-00:59:31,00:59:42,00:59:53,00:59:64-00:59:65,01:00:00-01:00:01,01:00:12,01:00:23,01:00:34,01:00:45,01:00:56,01:00:66-01:00:67,01:01:03,01:01:14,01:01:25-01:01:26,01:01:36-01:01:37,01:01:47-01:01:48,01:01:58-01:01:59,01:01:70,01:02:06,01:02:17,01:02:28,01:02:39,01:02:50,01:02:61-01:02:62,01:02:72-01:02:73,01:03:08-01:03:09,01:03:19,01:03:30-01:03:31,01:03:41-01:03:42,01:03:53,01:03:63-01:03:64,01:03:74-01:04:00,01:04:11,01:04:21-01:04:22,01:04:33-01:04:34,01:04:56,01:04:67,01:05:03,01:05:24-01:05:25,01:05:36,01:05:47,01:05:58,01:05:69-01:05:70,01:06:17,01:06:28,01:06:38-01:06:39,01:06:50,01:06:61,01:06:72,01:07:08-01:07:09,01:07:20,01:07:31,01:07:42,01:07:63-01:07:64,01:07:74-01:08:00,01:08:11-01:08:12,01:08:22-01:08:23,01:08:33-01:08:34,01:08:44-01:08:45,01:08:55-01:08:56,01:08:66,01:09:03,01:09:13-01:09:14,01:09:25,01:09:36-01:09:37,01:09:48,01:09:59,01:09:69-01:09:70,01:10:06,01:10:17,01:10:27-01:10:28,01:10:39-01:10:40,01:10:50-01:10:51,01:10:73,01:11:09,01:11:20,01:11:31,01:11:42,01:11:53-01:11:54,01:11:65,01:12:01,01:12:12,01:12:23
3 | (840/864) Accurately ripped
4 | (830/864) Accurately ripped
5 | (838/864) Accurately ripped
6 | (840/864) Accurately ripped
7 | (839/864) Accurately ripped
8 | (836/864) Accurately ripped, or (1/864) differs in 10 samples @04:06:50,04:09:71
9 | (841/864) Accurately ripped, or (1/864) differs in 464 samples @00:04:14,00:07:35,00:29:11,00:30:36,00:32:01,00:32:17,00:33:25,00:33:74,00:36:63,00:46:72,00:48:21,00:51:11,00:51:44,00:51:61,00:52:52,01:01:55,01:02:46,01:04:12,01:04:29,01:04:46,01:04:62,01:39:61,01:40:03,01:40:19-01:40:20,01:40:36-01:40:37,01:40:53,01:40:69,01:41:11,01:41:27-01:41:28,01:41:44-01:41:45,01:41:61,01:42:02-01:42:03,01:42:19,01:42:36,01:42:52,01:42:69-01:42:70,01:43:11,01:43:44-01:43:45,01:43:61,01:44:02-01:44:03,01:44:52-01:44:53,01:44:69-01:44:70,01:45:11,01:45:28,01:45:44-01:45:45,01:45:61,01:46:02-01:46:03,01:46:19,01:46:53,01:46:69,01:47:61,01:48:03,01:48:20,01:48:36,01:48:70,01:49:27-01:49:28
10 | (832/864) Accurately ripped
11 | (835/864) Accurately ripped
12 | (823/864) Accurately ripped
13 | (822/864) Accurately ripped
14 | (816/864) Accurately ripped
15 | (824/864) Accurately ripped
16 | (811/864) Accurately ripped
17 | (813/864) Accurately ripped
18 | (777/864) Accurately ripped, or (27/864) differs in 16948 samples @04:21:73-04:22:13


==== Log checksum F9F82C4F6E9E371A1F8BD436BB36F1C43860485FDF84EA6CD3E06FE285E1044B ====

foobar2000 1.3.16 / Dynamic Range Meter 1.1.1
log date: 2018-04-17 18:40:28

––––––––––––––––––––––––––––––––––––––––
Analyzed: Tina Turner / Simply The Best
––––––––––––––––––––––––––––––––––––––––

DR Peak RMS Duration Track
––––––––––––––––––––––––––––––––––––––––
DR10 -0.22 dB -11.23 dB 4:10 01-The Best
DR10 -0.23 dB -12.36 dB 3:50 02-What's Love Got To Do With It
DR11 -0.36 dB -12.84 dB 3:43 03-I Can't Stand The Rain
DR10 -0.25 dB -12.37 dB 4:20 04-I Don't Wanna Lose You
DR9 -0.09 dB -10.63 dB 3:44 05-Nutbush City Limits (The 90's Version)
DR9 -0.18 dB -11.49 dB 3:40 06-Let's Stay Together
DR10 -0.08 dB -13.10 dB 4:02 07-Private Dancer
DR9 -0.25 dB -11.48 dB 4:16 08-We Don't Need Another Hero (Thunderdome)
DR9 -0.34 dB -11.94 dB 3:40 09-Better Be Good To Me
DR9 -0.44 dB -11.66 dB 3:40 10-River Deep - Mountain High
DR10 -0.04 dB -11.46 dB 4:05 11-Steamy Windows
DR10 -0.41 dB -11.44 dB 4:17 12-Typical Male
DR10 -0.24 dB -11.42 dB 4:13 13-It Takes Two (Duet With Rod Stewart)
DR10 -0.16 dB -10.78 dB 5:05 14-Addicted To Love (Live)
DR9 -0.27 dB -11.21 dB 4:18 15-Be Tender With Me Baby
DR10 -0.22 dB -12.41 dB 3:53 16-I Want You Near Me
DR10 -0.04 dB -11.76 dB 4:26 17-Way Of The World
DR9 0.00 dB -10.81 dB 4:28 18-Love Thing
––––––––––––––––––––––––––––––––––––––––

Number of tracks: 18
Official DR value: DR10

Samplerate: 44100 Hz
Channels: 2
Bits per sample: 16
Bitrate: 928 kbps
Codec: FLAC
================================================================================

[CUETools log; Date: 17.04.2018 18:39:41; Version: 2.1.6]
Pregap length 00:00:33.
[CTDB TOCID: WNJP9un0eazJSSH_E8qD_YC0i9s-] found.
Track | CTDB Status
1 | (1244/1297) Accurately ripped, or (1/1297) differs in 5 samples @00:13:58,03:54:37
2 | (1260/1297) Accurately ripped, or (1/1297) differs in 1570 samples @00:34:30,00:36:23,00:39:40,00:44:17-00:44:18,00:44:29,00:44:72-00:44:73,00:45:53,00:46:55,00:47:56-00:47:57,00:47:68,00:48:05,00:48:60,00:51:55-00:51:56,00:51:66-00:51:67,00:52:03,00:52:14,00:52:25,00:52:36,00:52:47,00:52:68,00:53:04-00:53:05,00:53:15-00:53:16,00:53:27,00:53:38,00:53:60,00:53:71,00:54:07,00:54:19,00:54:30,00:55:21,00:56:12,00:56:34-00:56:35,00:57:25,00:58:62,00:58:72-00:58:73,00:59:09,00:59:30-00:59:31,00:59:42,00:59:53,00:59:64-00:59:65,01:00:00-01:00:01,01:00:12,01:00:23,01:00:34,01:00:45,01:00:56,01:00:66-01:00:67,01:01:03,01:01:14,01:01:25-01:01:26,01:01:36-01:01:37,01:01:47-01:01:48,01:01:58-01:01:59,01:01:70,01:02:06,01:02:17,01:02:28,01:02:39,01:02:50,01:02:61-01:02:62,01:02:72-01:02:73,01:03:08-01:03:09,01:03:19,01:03:30-01:03:31,01:03:41-01:03:42,01:03:53,01:03:63-01:03:64,01:03:74-01:04:00,01:04:11,01:04:21-01:04:22,01:04:33-01:04:34,01:04:56,01:04:67,01:05:03,01:05:24-01:05:25,01:05:36,01:05:47,01:05:58,01:05:69-01:05:70,01:06:17,01:06:28,01:06:38-01:06:39,01:06:50,01:06:61,01:06:72,01:07:08-01:07:09,01:07:20,01:07:31,01:07:42,01:07:63-01:07:64,01:07:74-01:08:00,01:08:11-01:08:12,01:08:22-01:08:23,01:08:33-01:08:34,01:08:44-01:08:45,01:08:55-01:08:56,01:08:66,01:09:03,01:09:13-01:09:14,01:09:25,01:09:36-01:09:37,01:09:48,01:09:59,01:09:69-01:09:70,01:10:06,01:10:17,01:10:27-01:10:28,01:10:39-01:10:40,01:10:50-01:10:51,01:10:73,01:11:09,01:11:20,01:11:31,01:11:42,01:11:53-01:11:54,01:11:65,01:12:01,01:12:12,01:12:23
3 | (1267/1297) Accurately ripped
4 | (1253/1297) Accurately ripped
5 | (1259/1297) Accurately ripped
6 | (1266/1297) Accurately ripped
7 | (1264/1297) Accurately ripped
8 | (1256/1297) Accurately ripped, or (1/1297) differs in 10 samples @04:06:50,04:09:71
9 | (1266/1297) Accurately ripped, or (1/1297) differs in 464 samples @00:04:14,00:07:35,00:29:11,00:30:36,00:32:01,00:32:17,00:33:25,00:33:74,00:36:63,00:46:72,00:48:21,00:51:11,00:51:44,00:51:61,00:52:52,01:01:55,01:02:46,01:04:12,01:04:29,01:04:46,01:04:62,01:39:61,01:40:03,01:40:19-01:40:20,01:40:36-01:40:37,01:40:53,01:40:69,01:41:11,01:41:27-01:41:28,01:41:44-01:41:45,01:41:61,01:42:02-01:42:03,01:42:19,01:42:36,01:42:52,01:42:69-01:42:70,01:43:11,01:43:44-01:43:45,01:43:61,01:44:02-01:44:03,01:44:52-01:44:53,01:44:69-01:44:70,01:45:11,01:45:28,01:45:44-01:45:45,01:45:61,01:46:02-01:46:03,01:46:19,01:46:53,01:46:69,01:47:61,01:48:03,01:48:20,01:48:36,01:48:70,01:49:27-01:49:28
10 | (1258/1297) Accurately ripped
11 | (1261/1297) Accurately ripped
12 | (1244/1297) Accurately ripped, or (2/1297) differs in 72 samples @02:10:32-02:10:33
13 | (1243/1297) Accurately ripped
14 | (1232/1297) Accurately ripped
15 | (1239/1297) Accurately ripped
16 | (1226/1297) Accurately ripped
17 | (1224/1297) Accurately ripped
18 | (1171/1297) Accurately ripped, or (42/1297) differs in 16948 samples @04:21:73-04:22:13
[AccurateRip ID: 002f0f68-02760f1f-0d114e12] found.
Track [ CRC | V2 ] Status
01 [09e0e14e|50d097e9] (200+200/1068) Accurately ripped
02 [503d30d8|92c41352] (200+200/1064) Accurately ripped
03 [339e1052|dcbf38ef] (200+200/1064) Accurately ripped
04 [55233645|f7415361] (200+200/1070) Accurately ripped
05 [84f6ca7a|9bef0d7a] (200+200/1064) Accurately ripped
06 [4be31f40|93de02be] (200+200/1067) Accurately ripped
07 [c44eeee4|eee6204f] (200+200/1066) Accurately ripped
08 [a3b4b075|9fa6f840] (200+200/1066) Accurately ripped
09 [8a9a60d9|172e9c32] (200+200/1061) Accurately ripped
10 [fd3bcf52|7f45d6c1] (200+200/1060) Accurately ripped
11 [f2589808|c742beda] (200+200/1063) Accurately ripped
12 [766e3739|89b1bb88] (200+200/1045) Accurately ripped
13 [8021bdc0|fe078c9e] (200+200/1054) Accurately ripped
14 [df25822e|b27d968f] (200+200/1056) Accurately ripped
15 [db5e521a|d9ff60b0] (200+200/1052) Accurately ripped
16 [0aa719e8|00f6cca7] (200+200/1045) Accurately ripped
17 [dbe40af2|dafc2edd] (200+200/1042) Accurately ripped
18 [f5d3bf68|7078af66] (200+200/1030) Accurately ripped
Offsetted by -676:
01 [f74689de] (005/1068) Accurately ripped
02 [e0489a68] (005/1064) Accurately ripped
03 [21cbf9fe] (005/1064) Accurately ripped
04 [8e6c267d] (005/1070) Accurately ripped
05 [2aa489c2] (005/1064) Accurately ripped
06 [4516e91c] (005/1067) Accurately ripped
07 [a10cc190] (005/1066) Accurately ripped
08 [bd849b9d] (004/1066) Accurately ripped
09 [e1b281f5] (005/1061) Accurately ripped
10 [864945d2] (005/1060) Accurately ripped
11 [cfea9110] (005/1063) Accurately ripped
12 [a0f04d8d] (005/1045) Accurately ripped
13 [b097edbc] (005/1054) Accurately ripped
14 [ad350a1a] (005/1056) Accurately ripped
15 [4968f412] (005/1052) Accurately ripped
16 [fe3bf72c] (005/1045) Accurately ripped
17 [0dfe105e] (005/1042) Accurately ripped
18 [eeafab96] (005/1030) Accurately ripped
Offsetted by -669:
01 [67f10942] (004/1068) Accurately ripped
02 [b7c93e0c] (003/1064) Accurately ripped
03 [7243ed59] (004/1064) Accurately ripped
04 [0c5081eb] (004/1070) Accurately ripped
05 [10b0c034] (004/1064) Accurately ripped
06 [600c2643] (004/1067) Accurately ripped
07 [d121832b] (004/1066) Accurately ripped
08 [36d01687] (004/1066) Accurately ripped
09 [9b1d6dec] (004/1061) Accurately ripped
10 [56aa7572] (004/1060) Accurately ripped
11 [386a30f2] (004/1063) Accurately ripped
12 [22645a32] (004/1045) Accurately ripped
13 [a02fb2eb] (004/1054) Accurately ripped
14 [e31eea05] (004/1056) Accurately ripped
15 [e32876f0] (004/1052) Accurately ripped
16 [b9d1864d] (004/1045) Accurately ripped
17 [4d184da9] (004/1042) Accurately ripped
18 [088acf8c] (004/1030) Accurately ripped
Offsetted by -594:
01 [d5ef3996] (025/1068) Accurately ripped
02 [2a74a9a0] (026/1064) Accurately ripped
03 [f4fff828] (026/1064) Accurately ripped
04 [2c960c61] (026/1070) Accurately ripped
05 [68582c1e] (024/1064) Accurately ripped
06 [132b232e] (025/1067) Accurately ripped
07 [d4490b3a] (025/1066) Accurately ripped
08 [b81d6009] (025/1066) Accurately ripped
09 [824de067] (025/1061) Accurately ripped
10 [a1972a92] (025/1060) Accurately ripped
11 [bc9d068c] (025/1063) Accurately ripped
12 [8d644f63] (025/1045) Accurately ripped
13 [f0653cbe] (025/1054) Accurately ripped
14 [b70d4924] (026/1056) Accurately ripped
15 [0950f116] (025/1052) Accurately ripped
16 [6f13f18a] (026/1045) Accurately ripped
17 [f13170a8] (026/1042) Accurately ripped
18 [be35d6e1] (025/1030) Accurately ripped
Offsetted by -267:
01 [1be753fa] (109/1068) Accurately ripped
02 [eb371844] (108/1064) Accurately ripped
03 [c89a3bc3] (104/1064) Accurately ripped
04 [00f8724f] (107/1070) Accurately ripped
05 [19b74010] (105/1064) Accurately ripped
06 [90c6b995] (103/1067) Accurately ripped
07 [9a5bcd15] (105/1066) Accurately ripped
08 [4807f273] (107/1066) Accurately ripped
09 [7c87819e] (104/1061) Accurately ripped
10 [3a2e9232] (101/1060) Accurately ripped
11 [f2c257ee] (106/1063) Accurately ripped
12 [2cb60bc8] (103/1045) Accurately ripped
13 [f1f2812d] (103/1054) Accurately ripped
14 [1fdf254f] (102/1056) Accurately ripped
15 [ce67d274] (105/1052) Accurately ripped
16 [855e7d6b] (099/1045) Accurately ripped
17 [74fb3233] (100/1042) Accurately ripped
18 [5588ca89] (098/1030) Accurately ripped
Offsetted by 65:
01 [6934a4ca] (131/1068) Accurately ripped
02 [b39e8e14] (128/1064) Accurately ripped
03 [fa41089f] (129/1064) Accurately ripped
04 [0ab4d067] (129/1070) Accurately ripped
05 [26439f78] (128/1064) Accurately ripped
06 [b3ece961] (132/1067) Accurately ripped
07 [82c686f1] (129/1066) Accurately ripped
08 [9c4d013b] (128/1066) Accurately ripped
09 [1fc45daa] (128/1061) Accurately ripped
10 [f9e6d2b2] (128/1060) Accurately ripped
11 [981e4016] (129/1063) Accurately ripped
12 [287f3eec] (126/1045) Accurately ripped
13 [e7c79b99] (121/1054) Accurately ripped
14 [417ca16b] (126/1056) Accurately ripped
15 [b82c114c] (122/1052) Accurately ripped
16 [fd13dd3f] (124/1045) Accurately ripped
17 [25d7b1cf] (123/1042) Accurately ripped
18 [639310c5] (119/1030) Accurately ripped
Offsetted by 389:
01 [112cd1ba] (008/1068) Accurately ripped
02 [3c979204] (008/1064) Accurately ripped
03 [623a2d13] (008/1064) Accurately ripped
04 [f247a16f] (008/1070) Accurately ripped
05 [075452f0] (008/1064) Accurately ripped
06 [01688a25] (008/1067) Accurately ripped
07 [343e1a65] (007/1066) Accurately ripped
08 [1cce15d3] (008/1066) Accurately ripped
09 [8162752e] (008/1061) Accurately ripped
10 [149db832] (008/1060) Accurately ripped
11 [585603ce] (007/1063) Accurately ripped
12 [90561a78] (008/1045) Accurately ripped
13 [f05cf93d] (008/1054) Accurately ripped
14 [6ea11d9f] (008/1056) Accurately ripped
15 [cda7ba94] (008/1052) Accurately ripped
16 [0c1e505b] (008/1045) Accurately ripped
17 [8e963483] (008/1042) Accurately ripped
18 [979f9f2a] (007/1030) Accurately ripped
Offsetted by -1595:
01 [e6b210ba] (000/1068) No match (V2 was not tested)
02 [c9994104] (000/1064) No match (V2 was not tested)
03 [01ff0853] (000/1064) No match (V2 was not tested)
04 [da06f9ef] (000/1070) No match (V2 was not tested)
05 [e785c270] (000/1064) No match (V2 was not tested)
06 [042dfa65] (000/1067) No match (V2 was not tested)
07 [f8b0e5a5] (000/1066) No match (V2 was not tested)
08 [f6f3b753] (000/1066) No match (V2 was not tested)
09 [ef94116e] (000/1061) No match (V2 was not tested)
10 [3b4d9032] (000/1060) No match (V2 was not tested)
11 [5d52b74e] (000/1063) No match (V2 was not tested)
12 [3d913f38] (000/1045) No match (V2 was not tested)
13 [1a9e177d] (000/1054) No match (V2 was not tested)
14 [996934df] (000/1056) No match (V2 was not tested)
15 [2756d714] (000/1052) No match (V2 was not tested)
16 [a688fe1b] (000/1045) No match (V2 was not tested)
17 [b18933c3] (000/1042) No match (V2 was not tested)
18 [42541a6a] (000/1030) No match (V2 was not tested)
Offsetted by -499:
01 [6142439a] (000/1068) No match (V2 was not tested)
02 [bbb431e4] (000/1064) No match (V2 was not tested)
03 [efee27fb] (000/1064) No match (V2 was not tested)
04 [2243777f] (000/1070) No match (V2 was not tested)
05 [2cb4c5e0] (000/1064) No match (V2 was not tested)
06 [5c7485ad] (000/1067) No match (V2 was not tested)
07 [60d0734d] (000/1066) No match
08 [4ad49b03] (000/1066) No match (V2 was not tested)
09 [0d8b3e36] (000/1061) No match
10 [89074332] (000/1060) No match (V2 was not tested)
11 [fdaa373e] (000/1063) No match
12 [6a421f90] (000/1045) No match
13 [11ba1e85] (000/1054) No match
14 [6e2a2807] (000/1056) No match
15 [c22ee124] (000/1052) No match
16 [aa01ac93] (000/1045) No match
17 [49958beb] (000/1042) No match (V2 was not tested)
18 [7d5cee96] (000/1030) No match
Offsetted by -338:
01 [8093b596] (000/1068) No match (V2 was not tested)
02 [1842e5a0] (000/1064) No match (V2 was not tested)
03 [2ab50528] (000/1064) No match (V2 was not tested)
04 [71c7ae61] (000/1070) No match (V2 was not tested)
05 [d7cdaa1e] (000/1064) No match (V2 was not tested)
06 [c87d042e] (000/1067) No match (V2 was not tested)
07 [b2add83a] (000/1066) No match (V2 was not tested)
08 [309ca609] (000/1066) No match (V2 was not tested)
09 [b6267167] (000/1061) No match (V2 was not tested)
10 [41c28a92] (000/1060) No match (V2 was not tested)
11 [6121948c] (000/1063) No match (V2 was not tested)
12 [0baf4263] (000/1045) No match (V2 was not tested)
13 [985cd5be] (000/1054) No match (V2 was not tested)
14 [462d4624] (000/1056) No match (V2 was not tested)
15 [9263a316] (000/1052) No match (V2 was not tested)
16 [8471888a] (000/1045) No match (V2 was not tested)
17 [f4f10da8] (000/1042) No match (V2 was not tested)
18 [9296788f] (000/1030) No match (V2 was not tested)
Offsetted by -321:
01 [ffe8a1d2] (000/1068) No match (V2 was not tested)
02 [ff0d979c] (000/1064) No match (V2 was not tested)
03 [37460b05] (000/1064) No match (V2 was not tested)
04 [5a5ffa23] (000/1070) No match (V2 was not tested)
05 [7434777c] (000/1064) No match (V2 was not tested)
06 [2e87741f] (000/1067) No match (V2 was not tested)
07 [277289d7] (000/1066) No match (V2 was not tested)
08 [329d19af] (000/1066) No match (V2 was not tested)
09 [c197d308] (000/1061) No match (V2 was not tested)
10 [60656bf2] (000/1060) No match (V2 was not tested)
11 [a80e61fa] (000/1063) No match (V2 was not tested)
12 [46123c86] (000/1045) No match (V2 was not tested)
13 [708446e7] (000/1054) No match (V2 was not tested)
14 [edae65f1] (000/1056) No match (V2 was not tested)
15 [757de0e8] (000/1052) No match (V2 was not tested)
16 [02dcbf91] (000/1045) No match (V2 was not tested)
17 [8e30c715] (000/1042) No match (V2 was not tested)
18 [d07eb2e4] (000/1030) No match (V2 was not tested)
Offsetted by -297:
01 [efe80d72] (000/1068) No match (V2 was not tested)
02 [bd58ed3c] (000/1064) No match (V2 was not tested)
03 [944f043d] (000/1064) No match (V2 was not tested)
04 [c0dca153] (000/1070) No match (V2 was not tested)
05 [f6a77b4c] (000/1064) No match (V2 was not tested)
06 [af872137] (000/1067) No match (V2 was not tested)
07 [cc4bfd0f] (000/1066) No match (V2 was not tested)
08 [ade9083f] (000/1066) No match (V2 was not tested)
09 [867420a0] (000/1061) No match (V2 was not tested)
10 [4f697cf2] (000/1060) No match (V2 was not tested)
11 [577acf4a] (000/1063) No match (V2 was not tested)
12 [01e9434e] (000/1045) No match (V2 was not tested)
13 [38437d3f] (000/1054) No match (V2 was not tested)
14 [cb1965a9] (000/1056) No match (V2 was not tested)
15 [f257a198] (000/1052) No match (V2 was not tested)
16 [3cdd85b9] (000/1045) No match (V2 was not tested)
17 [668abdcd] (000/1042) No match (V2 was not tested)
18 [920a9b63] (000/1030) No match (V2 was not tested)
Offsetted by -66:
01 [75e27956] (000/1068) No match
02 [84ee0560] (000/1064) No match
03 [f3c562f8] (000/1064) No match
04 [fb4c6a81] (000/1070) No match (V2 was not tested)
05 [9e3a7ffe] (000/1064) No match (V2 was not tested)
06 [2924033e] (000/1067) No match (V2 was not tested)
07 [fef8f20a] (000/1066) No match (V2 was not tested)
08 [50a3e069] (000/1066) No match (V2 was not tested)
09 [6d3c8b77] (000/1061) No match (V2 was not tested)
10 [2bf0a092] (000/1060) No match (V2 was not tested)
11 [cfee6b6c] (000/1063) No match (V2 was not tested)
12 [b1dee493] (000/1045) No match (V2 was not tested)
13 [1ad3e84e] (000/1054) No match (V2 was not tested)
14 [be3f42f4] (000/1056) No match (V2 was not tested)
15 [c4078036] (000/1052) No match (V2 was not tested)
16 [6b24f8fa] (000/1045) No match (V2 was not tested)
17 [88eca478] (000/1042) No match
18 [b4c75182] (000/1030) No match
Offsetted by 6:
01 [45e0bc36] (000/1068) No match
02 [bfd00640] (000/1064) No match
03 [0ae04ea0] (000/1064) No match
04 [2ec26011] (000/1070) No match
05 [25938b6e] (000/1064) No match
06 [ac230a86] (000/1067) No match
07 [ed854bb2] (000/1066) No match
08 [c287ac19] (000/1066) No match
09 [bbd1743f] (000/1061) No match
10 [f8fcd392] (000/1060) No match
11 [de33b35c] (000/1063) No match
12 [e563f8eb] (000/1045) No match
13 [72118b56] (000/1054) No match
14 [5680421c] (000/1056) No match
15 [3a94c246] (000/1052) No match
16 [19274b72] (000/1045) No match
17 [11fa88a0] (000/1042) No match (V2 was not tested)
18 [66598b44] (000/1030) No match (V2 was not tested)

Track Peak [ CRC32 ] [W/O NULL] [ LOG ]
– 100,0 [E9A87C2B] [DE3CE9D7] CRC32
01 97,5 [6B398420] [48746941]
02 97,4 [D75B53EF] [89A7E915]
03 95,9 [6ACD3720] [D48FFB6E]
04 97,1 [CEEA1EDC] [3B687990]
05 98,9 [338E3CC9] [42CD6FFF]
06 97,9 [50021F14] [5C84AA47]
07 99,1 [D1300763] [9A6ECD04]
08 97,1 [46B52237] [3529DD4C]
09 96,2 [6EC686A0] [651B119D]
10 95,0 [12260AFD] [9FDE95C3]
11 99,5 [01509D5B] [F764554A]
12 95,4 [2C025026] [C14AF838]
13 97,2 [E0760D2C] [B27B8C89]
14 98,2 [1AB3FE41] [C24C2E3B]
15 96,9 [1D5EE1AE] [BA073ACA]
16 97,5 [CF610701] [B43A0C0C]
17 99,5 [0BE294B2] [A80037B3]
18 100,0 [4D8F1829] [D36AA1B4]

Tina Turner - Simply The Best (1991)

All thanks go to salernitana

>>> Tina Turner in my Blog <<<

Download from icerbox.com: