Subcategories

Tim Maia - Racional Vol. 1 (1975) {2011 Abril ColeCoes/Vitoria Regia}

Posted By: TestTickles
Tim Maia - Racional Vol. 1 (1975) {2011 Abril ColeCoes/Vitoria Regia}

Tim Maia - Racional Vol. 1 (1975) {2011 Abril ColeCoes/Vitoria Regia}
EAC Rip | FLAC with CUE and LOG | scans | 225 mb
MP3 CBR 320 kbps | RAR | 73 mb
Genre: MPB, soul, R&B

Racional Vol. 1 is the 1975 album by Brazilian artist Tim Maia. This was reissued in 2011 by Abril ColeCoes/Vitoria Regia.

Tim Maia - Racional Vol. 1 (1975) {2011 Abril ColeCoes/Vitoria Regia}

01. Imunização Racional (Que Beleza) (5:08)
02. O Grao Mestre Varonil (0:23)
03. Bom Senso (5:05)
04. Energia Racional (0:12)
05. Leia O Livro Universo Em Desencanto (2:41)
06. Contacto Com O Mundo Racional (3:01)
07. Universo Em Desencanto 3:45)
08. You Don't Know What I Know (0:32)
09. Rational Culture (15:19)

Exact Audio Copy V1.0 beta 1 from 15. November 2010

EAC extraction logfile from 12. May 2011, 11:06

Tim Maia / Racional Vol. 1

Used drive : TSSTcorpDVD+-RW TS-L632H Adapter: 1 ID: 0

Read mode : Secure
Utilize accurate stream : Yes
Defeat audio cache : Yes
Make use of C2 pointers : No

Read offset correction : 6
Overread into Lead-In and Lead-Out : No
Fill up missing offset samples with silence : Yes
Delete leading and trailing silent blocks : No
Null samples used in CRC calculations : Yes
Used interface : Native Win32 interface for Win NT & 2000

Used output format : User Defined Encoder
Selected bitrate : 768 kBit/s
Quality : High
Add ID3 tag : No
Command line compressor : C:\Program Files\Exact Audio Copy\FLAC\FLAC.EXE
Additional command line options : -6 -V -T "ARTIST=%a" -T "TITLE=%t" -T "ALBUM=%g" -T "DATE=%y" -T "TRACKNUMBER=%n" -T "GENRE=%m" -T "COMMENT=%e" %j–picture="%i"%j %s -o %d

TOC of the extracted CD

Track | Start | Length | Start sector | End sector
––––––––––––––––––––––––––––-
1 | 0:00.00 | 5:07.45 | 0 | 23069
2 | 5:07.45 | 0:21.70 | 23070 | 24714
3 | 5:29.40 | 5:05.52 | 24715 | 47641
4 | 10:35.17 | 0:12.18 | 47642 | 48559
5 | 10:47.35 | 2:42.15 | 48560 | 60724
6 | 13:29.50 | 3:01.65 | 60725 | 74364
7 | 16:31.40 | 3:44.02 | 74365 | 91166
8 | 20:15.42 | 0:32.73 | 91167 | 93639
9 | 20:48.40 | 12:18.30 | 93640 | 149019

Range status and errors

Selected range

Filename C:\cuntfist\FLAC\Tim Maia - Racional Vol. 1 (1975) [FLAC] {2011 Abril ColeCoes, Vitoria Regia}\Tim Maia - Racional Vol. 1.wav

Peak level 100.0 %
Extraction speed 1.3 X
Range quality 100.0 %
Copy CRC 3413E4A7
Copy OK

No errors occurred

AccurateRip summary

Track 1 not present in database
Track 2 not present in database
Track 3 not present in database
Track 4 not present in database
Track 5 not present in database
Track 6 not present in database
Track 7 not present in database
Track 8 not present in database
Track 9 not present in database

None of the tracks are present in the AccurateRip database

End of status report

==== Log checksum 2EAEB27F4047E80A27B0BEA00B438B7266FF6645B6641C3A118A9B99E3797ABA ====


Tim Maia - Racional Vol. 1 (1975) {2011 Abril ColeCoes/Vitoria Regia}


Thank you to the original uploader.