Subcategories

Tim Maia - Racional Vol. 2 (1976) {2011 Abril ColeCoes/Vitoria Regia}

Posted By: TestTickles
Tim Maia - Racional Vol. 2 (1976) {2011 Abril ColeCoes/Vitoria Regia}

Tim Maia - Racional Vol. 2 (1976) {2011 Abril ColeCoes/Vitoria Regia}
EAC Rip | FLAC with CUE and LOG | scans | 268 mb
MP3 CBR 320 kbps | RAR | 91 mb
Genre: MPB, soul, R&B

Racional Vol. 2 is the 1976 album by Brazilian artist Tim Maia. This was reissued in 2011 by Abril ColeCoes/Vitoria Regia.

Tim Maia - Racional Vol. 2 (1976) {2011 Abril ColeCoes/Vitoria Regia}

01. Quer Queira Quer Não Queira (4:49)
02. Paz Interior (2:51)
03. O Caminho Do Bem (6:05)
04. Energia Racional (2:52)
05. Que Legal (4:08)
06. Cultura Racional (4:54)
07. O Dever de Fazer Propaganda Deste Conhecimento (5:52)
08. Guine Bissau, Mocambique e Angola Racional (6:07)
09. Imunização Racional (Que Beleza) (3:29)

Exact Audio Copy V1.0 beta 1 from 15. November 2010

EAC extraction logfile from 12. May 2011, 12:12

Tim Maia / Racional Vol. 2

Used drive : TSSTcorpDVD+-RW TS-L632H Adapter: 1 ID: 0

Read mode : Secure
Utilize accurate stream : Yes
Defeat audio cache : Yes
Make use of C2 pointers : No

Read offset correction : 6
Overread into Lead-In and Lead-Out : No
Fill up missing offset samples with silence : Yes
Delete leading and trailing silent blocks : No
Null samples used in CRC calculations : Yes
Used interface : Native Win32 interface for Win NT & 2000

Used output format : User Defined Encoder
Selected bitrate : 768 kBit/s
Quality : High
Add ID3 tag : No
Command line compressor : C:\Program Files\Exact Audio Copy\FLAC\FLAC.EXE
Additional command line options : -6 -V -T "ARTIST=%a" -T "TITLE=%t" -T "ALBUM=%g" -T "DATE=%y" -T "TRACKNUMBER=%n" -T "GENRE=%m" -T "COMMENT=%e" %j–picture="%i"%j %s -o %d

TOC of the extracted CD

Track | Start | Length | Start sector | End sector
––––––––––––––––––––––––––––-
1 | 0:00.00 | 4:49.25 | 0 | 21699
2 | 4:49.25 | 2:52.35 | 21700 | 34634
3 | 7:41.60 | 6:05.50 | 34635 | 62059
4 | 13:47.35 | 2:50.47 | 62060 | 74856
5 | 16:38.07 | 4:09.48 | 74857 | 93579
6 | 20:47.55 | 4:51.20 | 93580 | 115424
7 | 25:39.00 | 5:50.60 | 115425 | 141734
8 | 31:29.60 | 6:07.67 | 141735 | 169326
9 | 37:37.52 | 3:29.63 | 169327 | 185064

Range status and errors

Selected range

Filename C:\cuntfist\FLAC\Tim Maia - Racional Vol. 2 (1976) [FLAC] {2011 Abril ColeCoes, Vitoria Regia}\Tim Maia - Racional Vol. 2.wav

Peak level 100.0 %
Extraction speed 0.3 X
Range quality 100.0 %
Copy CRC 8B6E3183
Copy OK

No errors occurred

AccurateRip summary

Track 1 not present in database
Track 2 not present in database
Track 3 not present in database
Track 4 not present in database
Track 5 not present in database
Track 6 not present in database
Track 7 not present in database
Track 8 not present in database
Track 9 not present in database

None of the tracks are present in the AccurateRip database

End of status report

==== Log checksum 33C29F5F00DD29197E44A4A2174C05ACA421AC33521098F00FC2A4DEB5152A70 ====


Tim Maia - Racional Vol. 2 (1976) {2011 Abril ColeCoes/Vitoria Regia}


Thank you to the original uploader.