Subcategories

Tim Maia - s/t (1972) {1993 Polydor}

Posted By: TestTickles
Tim Maia - s/t (1972) {1993 Polydor}

Tim Maia - s/t (1972) {1993 Polydor}
EAC Rip | FLAC with CUE and LOG | scans | 238 mb
MP3 CBR 320 kbps | RAR | 107 mb
Genre: MPB, Latin, funk, soul

Tim Maia is the 1972 album by Brazilian artist Tim Maia. Many of his albums were titled after his name and sometimes the records were just given the date of the year of release so t his could be either titled Tim Maia or 1972. This comes from the first CD pressing released in 1993 by Polydor.

Tim Maia - s/t (1972) {1993 Polydor}

01. Idade (2:15)
02. My Little Girl (2:05)
03. O Que Você Quer Apostar? (2:30)
04. Canário Do Reino (2:21)
05. Já Era Tempo De Você (3:13)
06. Where Is My Other Half (3:56)
07. O Que Me Importa (2:33)
08. Lamento (3:29)
09. Sofre (4:44)
10. Razão De Sambar (1:28)
11. Pelo Amor De Deus (3:01)
12. These Are The Songs (Esta É A Canção) (3:09)

EAC extraction logfile from 19. May 2008, 12:47 for CD
Tim Maia / Tim Maia (1972)

Used drive : TDK CDRW5200B Adapter: 1 ID: 1
Read mode : Secure with NO C2, accurate stream, disable cache
Read offset correction : 6
Overread into Lead-In and Lead-Out : No

Used output format : Internal WAV Routines
44.100 Hz; 16 Bit; Stereo

Other options :
Fill up missing offset samples with silence : Yes
Delete leading and trailing silent blocks : No
Native Win32 interface for Win NT & 2000


Track 1
Filename C:\cuntfist\FLAC\Tim Maia - s-t (1972) [FLAC] {1993 Polydor}\01 - Idade.wav

Pre-gap length 0:00:02.32

Peak level 95.3 %
Track quality 100.0 %
Test CRC E9E8C587
Copy CRC E9E8C587
Copy OK

Track 2
Filename C:\cuntfist\FLAC\Tim Maia - s-t (1972) [FLAC] {1993 Polydor}\02 - My Little Girl.wav

Pre-gap length 0:00:00.05

Peak level 96.8 %
Track quality 100.0 %
Test CRC 68A24D24
Copy CRC 68A24D24
Copy OK

Track 3
Filename C:\cuntfist\FLAC\Tim Maia - s-t (1972) [FLAC] {1993 Polydor}\03 - O Que Voce Quer Apostar.wav

Pre-gap length 0:00:00.02

Peak level 86.5 %
Track quality 100.0 %
Test CRC 87AB4E74
Copy CRC 87AB4E74
Copy OK

Track 4
Filename C:\cuntfist\FLAC\Tim Maia - s-t (1972) [FLAC] {1993 Polydor}\04 - Canario Do Reino.wav

Pre-gap length 0:00:00.25

Peak level 98.8 %
Track quality 100.0 %
Test CRC 80E985F8
Copy CRC 80E985F8
Copy OK

Track 5
Filename C:\cuntfist\FLAC\Tim Maia - s-t (1972) [FLAC] {1993 Polydor}\05 - Ja Era Tempo De Voce.wav

Pre-gap length 0:00:00.12

Peak level 90.6 %
Track quality 100.0 %
Test CRC EDF4D737
Copy CRC EDF4D737
Copy OK

Track 6
Filename C:\cuntfist\FLAC\Tim Maia - s-t (1972) [FLAC] {1993 Polydor}\06 - Where Is My Other Half.wav

Peak level 81.9 %
Track quality 100.0 %
Test CRC 73634C4A
Copy CRC 73634C4A
Copy OK

Track 7
Filename C:\cuntfist\FLAC\Tim Maia - s-t (1972) [FLAC] {1993 Polydor}\07 - O Que Me Importa.wav

Pre-gap length 0:00:00.25

Peak level 67.6 %
Track quality 100.0 %
Test CRC 11A41E68
Copy CRC 11A41E68
Copy OK

Track 8
Filename C:\cuntfist\FLAC\Tim Maia - s-t (1972) [FLAC] {1993 Polydor}\08 - Lamento.wav

Pre-gap length 0:00:00.07

Peak level 91.9 %
Track quality 100.0 %
Test CRC 40214F78
Copy CRC 40214F78
Copy OK

Track 9
Filename C:\cuntfist\FLAC\Tim Maia - s-t (1972) [FLAC] {1993 Polydor}\09 - Sofre.wav

Pre-gap length 0:00:00.12

Peak level 100.0 %
Track quality 99.9 %
Test CRC C4E4424E
Copy CRC C4E4424E
Copy OK

Track 10
Filename C:\cuntfist\FLAC\Tim Maia - s-t (1972) [FLAC] {1993 Polydor}\10 - Razao De Sambar.wav

Peak level 90.4 %
Track quality 100.0 %
Test CRC C412215F
Copy CRC C412215F
Copy OK

Track 11
Filename C:\cuntfist\FLAC\Tim Maia - s-t (1972) [FLAC] {1993 Polydor}\11 - Pelo Amor De Deus.wav

Peak level 76.0 %
Track quality 100.0 %
Test CRC 70907EA6
Copy CRC 70907EA6
Copy OK

Track 12
Filename C:\cuntfist\FLAC\Tim Maia - s-t (1972) [FLAC] {1993 Polydor}\12 - These Are The Songs (Esta E A Cancao).wav

Peak level 67.3 %
Track quality 100.0 %
Test CRC BE7DACCF
Copy CRC BE7DACCF
Copy OK

No errors occured


End of status report



Tim Maia - s/t (1972) {1993 Polydor}


Thank you to the original uploader.