Subcategories

Tim Maia - s/t (1976) {2010 Mercury/Universal Music Brazil}

Posted By: TestTickles
Tim Maia - s/t (1976) {2010 Mercury/Universal Music Brazil}

Tim Maia - s/t (1976) {2010 Mercury/Universal Music Brazil}
EAC Rip | FLAC with CUE and LOG | scans | 201 mb
MP3 CBR 320 kbps | RAR | 65 mb
Genre: MPB, Latin, funk, soul

Tim Maia is the 1976 album by Brazilian artist Tim Maia. This is taken from the 2010 remaster reissued by Mercury/Universal Music Brazil.

Tim Maia - s/t (1976) {2010 Mercury/Universal Music Brazil}

01. Dance Enquanto E Tempo (1:52)
02. E Preciso Amar (3:14)
03. Rodesia (2:56)
04. Marcio Leonardo E Telmo (1:54)
05. Sentimental (2:04)
06. Nobody Can Live Forever (2:44)
07. Me Enganei (2:16)
08. Manha De Sol Florida/Cheia De Coisas Maravilhosas (3:18)
09. Brother, Father, Sister And Mother (3:17)
10. Batata Frita/O Ladrao De Bicicleta (2:35)
11. The Dance Is Over (2:28)

Exact Audio Copy V1.0 beta 2 from 29. April 2011

EAC extraction logfile from 6. April 2012, 11:16

Tim Maia / Tim Maia (1976)

Used drive : HL-DT-STDVDRAM GH22NS50 Adapter: 3 ID: 0

Read mode : Secure
Utilize accurate stream : Yes
Defeat audio cache : Yes
Make use of C2 pointers : No

Read offset correction : 667
Overread into Lead-In and Lead-Out : No
Fill up missing offset samples with silence : Yes
Delete leading and trailing silent blocks : No
Null samples used in CRC calculations : Yes
Used interface : Native Win32 interface for Win NT & 2000
Gap handling : Appended to previous track

Used output format : User Defined Encoder
Selected bitrate : 1024 kBit/s
Quality : High
Add ID3 tag : No
Command line compressor : C:\Program Files (x86)\FLAC\flac.exe
Additional command line options : -8 -V -T "ARTIST=%artist%" -T "TITLE=%title%" -T "ALBUM=%albumtitle%" -T "DATE=%year%" -T "TRACKNUMBER=%tracknr%" -T "GENRE=%genre%" -T "PERFORMER=%albuminterpret%" -T "COMPOSER=%composer%" %haslyrics%–tag-from-file=LYRICS


TOC of the extracted CD

Track | Start | Length | Start sector | End sector
––––––––––––––––––––––––––––-
1 | 0:00.00 | 1:53.35 | 0 | 8509
2 | 1:53.35 | 3:14.60 | 8510 | 23119
3 | 5:08.20 | 2:58.62 | 23120 | 36531
4 | 8:07.07 | 1:56.70 | 36532 | 45301
5 | 10:04.02 | 2:06.53 | 45302 | 54804
6 | 12:10.55 | 2:50.65 | 54805 | 67619
7 | 15:01.45 | 2:17.52 | 67620 | 77946
8 | 17:19.22 | 3:19.45 | 77947 | 92916
9 | 20:38.67 | 3:17.58 | 92917 | 107749
10 | 23:56.50 | 2:35.17 | 107750 | 119391
11 | 26:31.67 | 2:27.33 | 119392 | 130449


Track 1

Filename C:\cuntfist\FLAC\Tim Maia - s-t (1976) [FLAC] {2010 Mercury, Universal Music Brazil}\01 - Dance Enquanto É Tempo.wav

Pre-gap length 0:00:02.00

Peak level 100.0 %
Extraction speed 0.3 X
Track quality 99.6 %
Test CRC 407B1FE2
Copy CRC 407B1FE2
Track not present in AccurateRip database
Copy OK

Track 2

Filename C:\cuntfist\FLAC\Tim Maia - s-t (1976) [FLAC] {2010 Mercury, Universal Music Brazil}\02 - É Preciso Amar.wav

Peak level 100.0 %
Extraction speed 1.1 X
Track quality 100.0 %
Test CRC D6DB459D
Copy CRC D6DB459D
Track not present in AccurateRip database
Copy OK

Track 3

Filename C:\cuntfist\FLAC\Tim Maia - s-t (1976) [FLAC] {2010 Mercury, Universal Music Brazil}\03 - Rodésia.wav

Peak level 100.0 %
Extraction speed 1.2 X
Track quality 100.0 %
Test CRC DDCD7337
Copy CRC DDCD7337
Track not present in AccurateRip database
Copy OK

Track 4

Filename C:\cuntfist\FLAC\Tim Maia - s-t (1976) [FLAC] {2010 Mercury, Universal Music Brazil}\04 - Márcio Leonardo E Telmo.wav

Peak level 98.7 %
Extraction speed 1.2 X
Track quality 100.0 %
Test CRC 1DB9BA10
Copy CRC 1DB9BA10
Track not present in AccurateRip database
Copy OK

Track 5

Filename C:\cuntfist\FLAC\Tim Maia - s-t (1976) [FLAC] {2010 Mercury, Universal Music Brazil}\05 - Sentimental.wav

Peak level 100.0 %
Extraction speed 0.6 X
Track quality 99.7 %
Test CRC 36DFD722
Copy CRC 36DFD722
Track not present in AccurateRip database
Copy OK

Track 6

Filename C:\cuntfist\FLAC\Tim Maia - s-t (1976) [FLAC] {2010 Mercury, Universal Music Brazil}\06 - Nobody Can Live For Ever.wav

Peak level 100.0 %
Extraction speed 0.7 X
Track quality 99.8 %
Test CRC D68934A0
Copy CRC D68934A0
Track not present in AccurateRip database
Copy OK

Track 7

Filename C:\cuntfist\FLAC\Tim Maia - s-t (1976) [FLAC] {2010 Mercury, Universal Music Brazil}\07 - Me Neganei.wav

Peak level 100.0 %
Extraction speed 1.4 X
Track quality 100.0 %
Test CRC 5B7F43C7
Copy CRC 5B7F43C7
Track not present in AccurateRip database
Copy OK

Track 8

Filename C:\cuntfist\FLAC\Tim Maia - s-t (1976) [FLAC] {2010 Mercury, Universal Music Brazil}\08 - Manhã De Sol Florida, Cheia De Coisas Maravilhosas.wav

Peak level 98.6 %
Extraction speed 1.1 X
Track quality 99.8 %
Test CRC F25CFE19
Copy CRC F25CFE19
Track not present in AccurateRip database
Copy OK

Track 9

Filename C:\cuntfist\FLAC\Tim Maia - s-t (1976) [FLAC] {2010 Mercury, Universal Music Brazil}\09 - Brother, Father, Sister And Mother.wav

Peak level 100.0 %
Extraction speed 1.6 X
Track quality 100.0 %
Test CRC 34488BB3
Copy CRC 34488BB3
Track not present in AccurateRip database
Copy OK

Track 10

Filename C:\cuntfist\FLAC\Tim Maia - s-t (1976) [FLAC] {2010 Mercury, Universal Music Brazil}\10 - Batata Frita, O Ladrão De Bicicleta.wav

Peak level 100.0 %
Extraction speed 1.6 X
Track quality 100.0 %
Test CRC F48CC4FE
Copy CRC F48CC4FE
Track not present in AccurateRip database
Copy OK

Track 11

Filename C:\cuntfist\FLAC\Tim Maia - s-t (1976) [FLAC] {2010 Mercury, Universal Music Brazil}\11 - The Dance Is Over.wav

Peak level 97.5 %
Extraction speed 1.4 X
Track quality 99.9 %
Test CRC ED07EC6D
Copy CRC ED07EC6D
Track not present in AccurateRip database
Copy OK


None of the tracks are present in the AccurateRip database

No errors occurred

End of status report

==== Log checksum 24F6AAE573C92F0523036256CB41F9D61C86689F72B9B43F7FFCA25E662883D4 ====


Tim Maia - s/t (1976) {2010 Mercury/Universal Music Brazil}


Thank you to the original uploader.