Subcategories

Alfredo Rodríguez - Tocororo (2016)

Posted By: SERTiL
Alfredo Rodríguez - Tocororo (2016)

Alfredo Rodríguez - Tocororo
Latin Jazz | FLAC (tracks)+cue, front cover | 47:35 min | 252 MB
Label: Mack Avenue | Tracks: 13 | Rls.date: 2016

Each recording by Cuban pianist and composer Alfredo Rodríguez tells a story. His albums are not collections of musical pieces but tales told in a distinctive voice. His 2011 debut, 'Sounds of Space', served as an introduction to his bold talent. Guests on 'Tocororo' include Ibrahim Maalouf (trumpet), Richard Bona (vocals, electric bass) and Ibeyi (vocals).

The thirteen tracks on 'Tocororo' - the name refers to Cuba's national bird - include five originals by Rodríguez and a fresh reading of Compay Segundo's classic song "Chan Chan," which became an international hit after the Buena Vista Social Club phenomenon. There are also nods to modern Cuban songwriting such as "Venga La Esperanza" by singer and songwriter Silvio Rodríguez (no relation) and "Sabanas Blancas," a musical postcard of Havana by Gerardo Alfonso.

TRACKLIST
01. Chan Chan
02. Yemaya (feat. Ibeyi)
03. Raices (Roots) [feat. Richard Bona]
04. Gitanerías (feat. Antonio Lizana)
05. Tocororo (feat. Ganavya)
06. Venga la Esperanza (feat. Ibrahim Maalouf)
07. Ay, Mamá Inés (feat. Richard Bona)
08. Sabanas Blancas (feat. Ibeyi)
09. Jesu, Joy of Man's Desiring
10. Kaleidoscope (feat. Ibrahim Maalouf & Ganavya)
11. Adiós Nonino
12. Meteorite
13. Ay, Mamá Inés (Remix)

PERSONNEL
Alfredo Rodríguez (piano, Suzuki melodion, synthesizer, vocals)
Reinier Elizarde (acoustic bass)
Michael Olivera (drums, percussion)
Ibeyi, Ganavya Doraiswamy, Antonio Lizana (vocals)
Richard Bona (vocals, electric bass)
Ibrahim Maalouf (trumpet)
Ariel Bringuez (tenor and soprano saxophones, clarinet, flute)

Exact Audio Copy V1.0 beta 3 from 29. August 2011

EAC extraction logfile from 8. October 2016, 14:05

Alfredo Rodriguez / Tocororo

Used drive : TSSTcorpCDDVDW SE-218CB Adapter: 1 ID: 0

Read mode : Secure
Utilize accurate stream : Yes
Defeat audio cache : Yes
Make use of C2 pointers : No

Read offset correction : 6
Overread into Lead-In and Lead-Out : No
Fill up missing offset samples with silence : Yes
Delete leading and trailing silent blocks : No
Null samples used in CRC calculations : Yes
Used interface : Native Win32 interface for Win NT & 2000
Gap handling : Appended to previous track

Used output format : User Defined Encoder
Selected bitrate : 1024 kBit/s
Quality : High
Add ID3 tag : No
Command line compressor : C:\Program Files (x86)\Exact Audio Copy\Flac\flac.exe
Additional command line options : -8 -V -T "ARTIST=%artist%" -T "TITLE=%title%" -T "ALBUM=%albumtitle%" -T "DATE=%year%" -T "TRACKNUMBER=%tracknr%" -T "GENRE=%genre%" -T "PERFORMER=%albuminterpret%" -T "COMPOSER=%composer%" %haslyrics%–tag-from-file=LYRICS="%lyricsfile%"%haslyrics% -T "ALBUMARTIST=%albumartist%" -T "DISCNUMBER=%cdnumber%" -T "TOTALDISCS=%totalcds%" -T "TOTALTRACKS=%numtracks%" -T "COMMENT=%comment%" %source% -o %dest%


TOC of the extracted CD

Track | Start | Length | Start sector | End sector
––––––––––––––––––––––––––––-
1 | 0:00.00 | 2:09.46 | 0 | 9720
2 | 2:09.46 | 3:42.56 | 9721 | 26426
3 | 5:52.27 | 4:28.33 | 26427 | 46559
4 | 10:20.60 | 3:58.59 | 46560 | 64468
5 | 14:19.44 | 5:03.74 | 64469 | 87267
6 | 19:23.43 | 4:25.03 | 87268 | 107145
7 | 23:48.46 | 3:14.53 | 107146 | 121748
8 | 27:03.24 | 4:06.41 | 121749 | 140239
9 | 31:09.65 | 3:15.20 | 140240 | 154884
10 | 34:25.10 | 3:05.72 | 154885 | 168831
11 | 37:31.07 | 4:08.59 | 168832 | 187490
12 | 41:39.66 | 3:24.19 | 187491 | 202809
13 | 45:04.10 | 2:38.59 | 202810 | 214718


Track 1

Filename C:\EAC\Alfredo Rodriguez - Tocororo - 2016 - FLAC - CD\01. Chan Chan.wav

Pre-gap length 0:00:02.00

Peak level 100.0 %
Extraction speed 2.2 X
Track quality 100.0 %
Test CRC E53CA603
Copy CRC E53CA603
Accurately ripped (confidence 6) [6B44F5F4] (AR v2)
Copy OK

Track 2

Filename C:\EAC\Alfredo Rodriguez - Tocororo - 2016 - FLAC - CD\02. Yemaya.wav

Pre-gap length 0:00:00.26

Peak level 100.0 %
Extraction speed 2.1 X
Track quality 99.9 %
Test CRC 0E7246A3
Copy CRC 0E7246A3
Accurately ripped (confidence 6) [BF8550AA] (AR v2)
Copy OK

Track 3

Filename C:\EAC\Alfredo Rodriguez - Tocororo - 2016 - FLAC - CD\03. Raices (Roots).wav

Pre-gap length 0:00:00.66

Peak level 100.0 %
Extraction speed 2.9 X
Track quality 100.0 %
Test CRC 766DC5BD
Copy CRC 766DC5BD
Cannot be verified as accurate (confidence 5) [79BEF06F], AccurateRip returned [A17AC9E7] (AR v2)
Copy OK

Track 4

Filename C:\EAC\Alfredo Rodriguez - Tocororo - 2016 - FLAC - CD\04. Gitanerias.wav

Pre-gap length 0:00:00.33

Peak level 100.0 %
Extraction speed 3.2 X
Track quality 100.0 %
Test CRC B88F1F14
Copy CRC B88F1F14
Accurately ripped (confidence 6) [F19EE58D] (AR v2)
Copy OK

Track 5

Filename C:\EAC\Alfredo Rodriguez - Tocororo - 2016 - FLAC - CD\05. Tocororo.wav

Pre-gap length 0:00:00.66

Peak level 100.0 %
Extraction speed 3.5 X
Track quality 100.0 %
Test CRC 0A24CD59
Copy CRC 0A24CD59
Accurately ripped (confidence 6) [A3DD034F] (AR v2)
Copy OK

Track 6

Filename C:\EAC\Alfredo Rodriguez - Tocororo - 2016 - FLAC - CD\06. Venga La Esperanza.wav

Pre-gap length 0:00:01.33

Peak level 100.0 %
Extraction speed 3.7 X
Track quality 100.0 %
Test CRC D6784AE7
Copy CRC D6784AE7
Accurately ripped (confidence 6) [4159F914] (AR v2)
Copy OK

Track 7

Filename C:\EAC\Alfredo Rodriguez - Tocororo - 2016 - FLAC - CD\07. Ay, Mama Ines.wav

Pre-gap length 0:00:00.66

Peak level 100.0 %
Extraction speed 3.6 X
Track quality 100.0 %
Test CRC 43DADBBC
Copy CRC 43DADBBC
Accurately ripped (confidence 6) [04463438] (AR v2)
Copy OK

Track 8

Filename C:\EAC\Alfredo Rodriguez - Tocororo - 2016 - FLAC - CD\08. Sabanas Blancas.wav

Pre-gap length 0:00:00.66

Peak level 100.0 %
Extraction speed 4.0 X
Track quality 100.0 %
Test CRC 02E7AF21
Copy CRC 02E7AF21
Accurately ripped (confidence 6) [8438ECA8] (AR v2)
Copy OK

Track 9

Filename C:\EAC\Alfredo Rodriguez - Tocororo - 2016 - FLAC - CD\09. Jesu, Joy Of Man's Desiring.wav

Pre-gap length 0:00:00.65

Peak level 100.0 %
Extraction speed 3.9 X
Track quality 100.0 %
Test CRC C76F0548
Copy CRC C76F0548
Accurately ripped (confidence 6) [431A94A2] (AR v2)
Copy OK

Track 10

Filename C:\EAC\Alfredo Rodriguez - Tocororo - 2016 - FLAC - CD\10. Kaleidoscope.wav

Pre-gap length 0:00:00.86

Peak level 100.0 %
Extraction speed 4.1 X
Track quality 100.0 %
Test CRC EFEA0076
Copy CRC EFEA0076
Accurately ripped (confidence 6) [46213F0B] (AR v2)
Copy OK

Track 11

Filename C:\EAC\Alfredo Rodriguez - Tocororo - 2016 - FLAC - CD\11. Adios Nonino.wav

Pre-gap length 0:00:00.66

Peak level 100.0 %
Extraction speed 4.4 X
Track quality 100.0 %
Test CRC 644074F6
Copy CRC 644074F6
Accurately ripped (confidence 6) [D9A7FBA9] (AR v2)
Copy OK

Track 12

Filename C:\EAC\Alfredo Rodriguez - Tocororo - 2016 - FLAC - CD\12. Meteorite.wav

Pre-gap length 0:00:00.49

Peak level 100.0 %
Extraction speed 4.4 X
Track quality 100.0 %
Test CRC 4E484743
Copy CRC 4E484743
Accurately ripped (confidence 6) [554A6B32] (AR v2)
Copy OK

Track 13

Filename C:\EAC\Alfredo Rodriguez - Tocororo - 2016 - FLAC - CD\13. Ay, Mama Ines Remix.wav

Pre-gap length 0:00:01.26

Peak level 100.0 %
Extraction speed 4.3 X
Track quality 100.0 %
Test CRC B84B7691
Copy CRC B84B7691
Accurately ripped (confidence 6) [595C69F5] (AR v2)
Copy OK


12 track(s) accurately ripped
1 track(s) could not be verified as accurate

Some tracks could not be verified as accurate

No errors occurred

End of status report

==== Log checksum 02A1BD99C78563C872E7490E9FD66FD1B5448B96F0A59421608A09119B84BAC5 ====


Thanks to the Original customer.