Subcategories

Tom Jones - Tom Jones: Live On Air 1965 - 1968 (2020)

Posted By: ciklon5
Tom Jones - Tom Jones: Live On Air 1965 - 1968 (2020)

Tom Jones - Tom Jones: Live On Air 1965 - 1968 (2020)
Flac image + cue + log | 2:36:45 | 613 Mb
Genre: Rock, Pop / Label: London Calling

Tom Jones live als Gast bei der BBC. Zwischen 1965 und 1968 trat der Sänger diverse Mal bi der BBC auf, Insbesondere Soul und erdiger Rhythm & Blues standen im Mittelpunkt der Sets. 2CD-Set im wertigen 6 Panel-Digipak mit umfangreichen Linernotes. Mit den Hits ›Can I Get A Witness‹, ›It's Not Unusual‹, ›Once Upon A Time‹, ›Little By Little‹, ›Thunderball‹, ›Spanish Harlem‹, ›Long Tall Sally‹, ›Stupidity‹, ›Living, Loving Wreck‹ u. v.a.

Track List:
CD1
[02:42] 01/52. Tom Jones - Can I Get A Witness (Live: March 12th 1965)
[02:43] 02/52. Tom Jones - It’s Not Unusual (Live: March 12th 1965)
[02:10] 03/52. Tom Jones - Once Upon A Time (Live: March 12th 1965)
[02:56] 04/52. Tom Jones - Lucille (Live: May 21st 1965)
[03:20] 05/52. Tom Jones - Once Upon A Time (Live: May 21st 1965)
[02:08] 06/52. Tom Jones - It’s Not Unusual (Live: May 21st 1965)
[02:20] 07/52. Tom Jones - Little By Little (Live: June 11th 1965)
[03:05] 08/52. Tom Jones - Once Upon A Time (Live: June 11th 1965)
[01:33] 09/52. Tom Jones - Bama Lama Bama Loo (Live: June 11th 1965)
[03:09] 10/52. Tom Jones - Spanish Harlem (Live: September 9th 1965)
[02:58] 11/52. Tom Jones - What’cha Gonna Do (Live: September 9th 1965)
[03:50] 12/52. Tom Jones - With These Hands (Live: September 9th 1965)
[04:10] 13/52. Tom Jones - What’d I Say? (Live: September 9th 1965)
[02:18] 14/52. Tom Jones - In the Midnight Hour (Live: December 24th 1965)
[03:48] 15/52. Tom Jones - Thunderball (Live: December 24th 1965)
[02:03] 16/52. Tom Jones - Treat Her Right (Live: December 24th 1965)
[03:09] 17/52. Tom Jones - The Rose (Live: January 28th 1966)
[03:03] 18/52. Tom Jones - The Key To My Heart (Live: January 28th 1966)
[03:20] 19/52. Tom Jones - Long Tall Sally (Live: January 28th 1966)
[02:01] 20/52. Tom Jones - Not Responsible (Live: July 8th 1966)
[02:32] 21/52. Tom Jones - Stupidity (Live: July 8th 1966)
[02:26] 22/52. Tom Jones - Once There Was A Time (Live: July 8th 1966)
[01:53] 23/52. Tom Jones - Sticks And Stones (Live: July 8th 1966)
[03:19] 24/52. Tom Jones - Summertime (Live: August 26th 1966)
[03:00] 25/52. Tom Jones - Not Responsible (Live: August 26th 1966)
[02:54] 26/52. Tom Jones - The Green Green Grass Of Home (Live: August 26th 1966)
[01:40] 27/52. Tom Jones - Living Loving Wreck (Live: August 26th 1966)
[02:24] 28/52. Tom Jones - Shake (Live: December 16th 1966)

CD2
[03:03] 29/52. Tom Jones - He’ll Have To Go (Live: December 16th 1966)
[04:03] 30/52. Tom Jones - The Green Green Grass Of Home (Live: December 16th 1966)
[03:47] 31/52. Tom Jones - What Did I Say (Live: December 16th 1966)
[04:26] 32/52. Tom Jones - Detroit City (Live: March 24th 1967)
[02:12] 33/52. Tom Jones - Land of a Thousand Dances (Live: March 24th 1967)
[04:08] 34/52. Tom Jones - I (Who Have Nothing) (Live: April 14th 1967)
[04:14] 35/52. Tom Jones - Detroit City (Live: April 14th 1967)
[02:48] 36/52. Tom Jones - Barefootin’ (Live: April 14th 1967)
[02:36] 37/52. Tom Jones - Do It Right (Live: May 19th 1967)
[03:45] 38/52. Tom Jones - Funny Familiar Forgotten Feelings (Live: May 19th 1967)
[02:30] 39/52. Tom Jones - Big Boss Man (Live: May 19th 1967)
[02:55] 40/52. Tom Jones - My Prayer (Live: June 16th 1967)
[03:52] 41/52. Tom Jones - Funny Familiar Forgotten Feelings (Live: June 16th 1967)
[02:23] 42/52. Tom Jones - Money Honey (Live: June 16th 1967)
[02:31] 43/52. Tom Jones - Trying to Find My Baby (Live: August 18th 1967)
[02:26] 44/52. Tom Jones - Sea Of Heartbreaks (Live: August 18th 1967)
[04:42] 45/52. Tom Jones - I’ll Never Fall In Love Again (Live: August 18th 1967)
[04:53] 46/52. Tom Jones - Land Of A Thousand Dances (Live: August 18th 1967)
[03:21] 47/52. Tom Jones - I Can’t Stop Loving You (Live: September 8th 1967)
[03:17] 48/52. Tom Jones - Sixteen Tons (Live: September 8th 1967)
[02:07] 49/52. Tom Jones - Good News (Live: December 29th 1967)
[04:29] 50/52. Tom Jones - I’m Coming Home (Live: December 29th 1967)
[02:29] 51/52. Tom Jones - Don’t Fight It (Live: December 29th 1967)
[02:26] 52/52. Tom Jones - Money Honey (Live: January 19th 1968)

Exact Audio Copy V1.3 from 2. September 2016

EAC extraction logfile from 27. March 2020, 16:00

Tom Jones / Live on Air 1965-1968

Used drive : Lenovo Slim_USB_Burner Adapter: 1 ID: 0

Read mode : Secure
Utilize accurate stream : Yes
Defeat audio cache : Yes
Make use of C2 pointers : No

Read offset correction : 6
Overread into Lead-In and Lead-Out : No
Fill up missing offset samples with silence : Yes
Delete leading and trailing silent blocks : No
Null samples used in CRC calculations : Yes
Used interface : Native Win32 interface for Win NT & 2000

Used output format : User Defined Encoder
Selected bitrate : 128 kBit/s
Quality : High
Add ID3 tag : No
Command line compressor : C:\Program Files (x86)\Exact Audio Copy\FLAC\FLAC.EXE
Additional command line options : -V -8 -T "Genre=%genre%" -T "Artist=%artist%" -T "Title=%title%" -T "Album=%albumtitle%" -T "Date=%year%" -T "Tracknumber=%tracknr%" -T "Comment=%comment%" %source%


TOC of the extracted CD

Track | Start | Length | Start sector | End sector
––––––––––––––––––––––––––––-
1 | 0:00.00 | 2:42.62 | 0 | 12211
2 | 2:42.62 | 2:43.19 | 12212 | 24455
3 | 5:26.06 | 2:10.16 | 24456 | 34221
4 | 7:36.22 | 2:56.64 | 34222 | 47485
5 | 10:33.11 | 3:20.54 | 47486 | 62539
6 | 13:53.65 | 2:08.17 | 62540 | 72156
7 | 16:02.07 | 2:20.43 | 72157 | 82699
8 | 18:22.50 | 3:05.27 | 82700 | 96601
9 | 21:28.02 | 1:33.44 | 96602 | 103620
10 | 23:01.46 | 3:09.23 | 103621 | 117818
11 | 26:10.69 | 2:58.54 | 117819 | 131222
12 | 29:09.48 | 3:50.27 | 131223 | 148499
13 | 33:00.00 | 4:10.29 | 148500 | 167278
14 | 37:10.29 | 2:18.66 | 167279 | 177694
15 | 39:29.20 | 3:48.68 | 177695 | 194862
16 | 43:18.13 | 2:03.50 | 194863 | 204137
17 | 45:21.63 | 3:09.43 | 204138 | 218355
18 | 48:31.31 | 3:03.72 | 218356 | 232152
19 | 51:35.28 | 3:20.35 | 232153 | 247187
20 | 54:55.63 | 2:01.35 | 247188 | 256297
21 | 56:57.23 | 2:32.52 | 256298 | 267749
22 | 59:30.00 | 2:26.54 | 267750 | 278753
23 | 61:56.54 | 1:53.55 | 278754 | 287283
24 | 63:50.34 | 3:19.28 | 287284 | 302236
25 | 67:09.62 | 3:00.52 | 302237 | 315788
26 | 70:10.39 | 2:54.31 | 315789 | 328869
27 | 73:04.70 | 1:40.50 | 328870 | 336419
28 | 74:45.45 | 2:24.27 | 336420 | 347246


Range status and errors

Selected range

Filename F:\музыка\Tom Jones lossless\2020 - Live on Air 1965-1968\CD1\Tom Jones - Live on Air 1965-1968.wav

Peak level 91.4 %
Extraction speed 4.8 X
Range quality 100.0 %
Test CRC 65C71A27
Copy CRC 65C71A27
Copy OK

No errors occurred


AccurateRip summary

Track 1 not present in database
Track 2 not present in database
Track 3 not present in database
Track 4 not present in database
Track 5 not present in database
Track 6 not present in database
Track 7 not present in database
Track 8 not present in database
Track 9 not present in database
Track 10 not present in database
Track 11 not present in database
Track 12 not present in database
Track 13 not present in database
Track 14 not present in database
Track 15 not present in database
Track 16 not present in database
Track 17 not present in database
Track 18 not present in database
Track 19 not present in database
Track 20 not present in database
Track 21 not present in database
Track 22 not present in database
Track 23 not present in database
Track 24 not present in database
Track 25 not present in database
Track 26 not present in database
Track 27 not present in database
Track 28 not present in database

None of the tracks are present in the AccurateRip database

End of status report

–– CUETools DB Plugin V2.1.6

[CTDB TOCID: o6GsLSlaEQHTlCqJ5L7WV0ocN6I-] disk not present in database
Submit result: o6GsLSlaEQHTlCqJ5L7WV0ocN6I- has been uploaded


==== Log checksum 98F02174132F25B1E75017113E944EC4A778776CD9B389D3F248C932B46CD7D1 ====

Exact Audio Copy V1.3 from 2. September 2016

EAC extraction logfile from 27. March 2020, 18:31

Tom Jones / Live on Air 1965-1968

Used drive : Lenovo Slim_USB_Burner Adapter: 1 ID: 0

Read mode : Secure
Utilize accurate stream : Yes
Defeat audio cache : Yes
Make use of C2 pointers : No

Read offset correction : 6
Overread into Lead-In and Lead-Out : No
Fill up missing offset samples with silence : Yes
Delete leading and trailing silent blocks : No
Null samples used in CRC calculations : Yes
Used interface : Native Win32 interface for Win NT & 2000

Used output format : User Defined Encoder
Selected bitrate : 128 kBit/s
Quality : High
Add ID3 tag : No
Command line compressor : C:\Program Files (x86)\Exact Audio Copy\FLAC\FLAC.EXE
Additional command line options : -V -8 -T "Genre=%genre%" -T "Artist=%artist%" -T "Title=%title%" -T "Album=%albumtitle%" -T "Date=%year%" -T "Tracknumber=%tracknr%" -T "Comment=%comment%" %source%


TOC of the extracted CD

Track | Start | Length | Start sector | End sector
––––––––––––––––––––––––––––-
1 | 0:00.00 | 3:03.30 | 0 | 13754
2 | 3:03.30 | 4:03.57 | 13755 | 32036
3 | 7:07.12 | 3:47.35 | 32037 | 49096
4 | 10:54.47 | 4:26.27 | 49097 | 69073
5 | 15:20.74 | 2:12.63 | 69074 | 79036
6 | 17:33.62 | 4:08.62 | 79037 | 97698
7 | 21:42.49 | 4:14.56 | 97699 | 116804
8 | 25:57.30 | 2:48.48 | 116805 | 129452
9 | 28:46.03 | 2:36.33 | 129453 | 141185
10 | 31:22.36 | 3:45.29 | 141186 | 158089
11 | 35:07.65 | 2:30.22 | 158090 | 169361
12 | 37:38.12 | 2:55.22 | 169362 | 182508
13 | 40:33.34 | 3:52.64 | 182509 | 199972
14 | 44:26.23 | 2:23.53 | 199973 | 210750
15 | 46:50.01 | 2:31.22 | 210751 | 222097
16 | 49:21.23 | 2:26.37 | 222098 | 233084
17 | 51:47.60 | 4:42.18 | 233085 | 254252
18 | 56:30.03 | 4:53.51 | 254253 | 276278
19 | 61:23.54 | 3:21.48 | 276279 | 291401
20 | 64:45.27 | 3:17.29 | 291402 | 306205
21 | 68:02.56 | 2:07.14 | 306206 | 315744
22 | 70:09.70 | 4:29.53 | 315745 | 335972
23 | 74:39.48 | 2:29.23 | 335973 | 347170
24 | 77:08.71 | 2:26.61 | 347171 | 358181


Range status and errors

Selected range

Filename F:\музыка\Tom Jones lossless\2020 - Live on Air 1965-1968\CD2\Tom Jones - Live on Air 1965-1968.wav

Peak level 91.4 %
Extraction speed 5.0 X
Range quality 100.0 %
Test CRC 36201AC0
Copy CRC 36201AC0
Copy OK

No errors occurred


AccurateRip summary

Track 1 not present in database
Track 2 not present in database
Track 3 not present in database
Track 4 not present in database
Track 5 not present in database
Track 6 not present in database
Track 7 not present in database
Track 8 not present in database
Track 9 not present in database
Track 10 not present in database
Track 11 not present in database
Track 12 not present in database
Track 13 not present in database
Track 14 not present in database
Track 15 not present in database
Track 16 not present in database
Track 17 not present in database
Track 18 not present in database
Track 19 not present in database
Track 20 not present in database
Track 21 not present in database
Track 22 not present in database
Track 23 not present in database
Track 24 not present in database

None of the tracks are present in the AccurateRip database

End of status report

–– CUETools DB Plugin V2.1.6

[CTDB TOCID: wgIB9wwWNjXcBcDCtiMcgk7k98k-] disk not present in database
Submit result: wgIB9wwWNjXcBcDCtiMcgk7k98k- has been uploaded


==== Log checksum D6AF94B5FAC4191E93A243B9FAF69622D42E39A81DDC230449BCB3BB27F92C11 ====