Subcategories

Tom Waits - Mule Variations (1999) {2006, Reissue}

Posted By: popsakov
Tom Waits - Mule Variations (1999) {2006, Reissue}

Tom Waits - Mule Variations (1999) {2006, Reissue}
EAC Rip | FLAC (Img) + Cue + Log ~ 413 Mb | MP3 CBR320 ~ 169 Mb
Full Scans (JPG, 600 dpi) ~ 48 Mb | RAR 5% Recovery
Rock, Experimental | Anti / Epitaph / Soyuz Music #86547-2

Tom Waits grew steadily less prolific after redefining himself as a junkyard noise poet with Swordfishtrombones, but the five-year wait between The Black Rider and 1999's Mule Variations was the longest yet. Given the fact that Waits decided to abandon major labels for the California indie Epitaph, Mule Variations would seem like a golden opportunity to redefine himself and begin a new phase of his career. However, it plays like a revue of highlights from every album he's made since Swordfishtrombones. Of course, that's hardly a criticism; the album uses the ragged cacophony of Bone Machine as a starting point, and proceeds to bring in the songwriterly aspects of Rain Dogs, along with its affection for backstreet and backwoods blues, plus a hint of the beatnik qualities of Swordfish. So Mule Variations delivers what fans want, in terms of both songs and sonics. But that also explains why it sounds terrific on initial spins, only to reveal itself as slightly dissatisfying with subsequent plays. All of Waits' Island records felt like fully conceived albums with genuine themes. Mule Variations, in contrast, is a collection of moments, and while each of those moments is very good (some even bordering on excellent), ultimately the whole doesn't equal the sum of its parts. While that may seem like nitpicking, some may have wanted a masterpiece after five years, and Mule Variations falls short of that mark. Nevertheless, this is a hell of a record by any other standard. Waits is still writing terrific songs and matching them with wildly evocative productions; furthermore, it's his lightest record in years – it's actually fun to listen to, even with a murder ballad here and a psycho blues there. In that sense, it's a unique item in his post-Swordfish catalog, and that may make up for it not being the masterpiece it seemed like it could have been.
~ Stephen Thomas Erlewine, All Music

***************

Tom Waits - Mule Variations (1999) {2006, Reissue}

Tom Waits - Mule Variations (1999) {2006, Reissue}

Track List:

01. Big In Japan [0:04:05.12]
02. Lowside Of The Road [0:02:59.23]
03. Hold On [0:05:33.55]
04. Get Behind The Mule [0:06:52.35]
05. House Where Nobody Lives [0:04:14.15]
06. Cold Water [0:05:23.10]
07. Pony [0:04:32.47]
08. What's He Building In There [0:03:20.18]
09. Black Market Baby [0:05:02.30]
10. Eyeball Kid [0:04:25.72]
11. Picture In A Frame [0:03:39.68]
12. Chocolate Jesus [0:03:55.02]
13. Georgia Lee [0:04:24.28]
14. Filipino Box Spring Hog [0:03:09.65]
15. Take It With Me [0:04:24.72]
16. Come On Up To The House [0:04:36.58]

Personnel:
Tom Waits - vocals (1–7, 9–16), The Voice (8), Guitar (1, 2, 3, 6, 7, 9, 12), Piano (5, 11, 13, 15, 16), Organ (3), Pump Organ (7), percussion (9, 10), Chamberlin (9), Optigan (2)
Andrew Borger - drums (9, 14, 16), Percussion (14)
Kathleen Brennan - Boner (14)
Ralph Carney - Trumpet (1), Sax (1, 16), Alto-Sax (11), Bass Clarinet (10), Reeds (8, 9)
Les Claypool - Bass (1)
Greg Cohen - Bass (11, 12, 15), Percussion (10)
Linda Deluca-Ghidossi - Violin (13)
Dalton Dillingham III - Bass (13)
Joe Gore - Guitar (3, 16)
Chris Grady - Trumpet (2, 14)
John Hammond - Blues Harp (7)
Stephen Hodges - Percussion (3, 4)
Smokey Hormel - Guitar (4), Dobro (7), Chumbus & Dousengoni (2)
Jacquire King - Programming (2, 14)
Larry LaLonde - Guitar (1)
Brain Mantia - Drums (1)
Christopher Marvin - Drums (6)
Charlie Musselwhite - Blues Harp (4, 12, 14, 16)
Nik Phelps - Bari-Sax (11, 16)
DJ M. Mark "The III Media" Reitman - Turntable (8, 9, 10, 14)
Larry Rhodes - Contrabassoon (10)
Marc Ribot - Guitar (3, 9, 10, 14), Lead Guitar (5), Guitar Solo (6, 9)
Jeff Sloan - Percussion (8), Boner (14)
Larry Taylor - Bass (3, 4, 5, 6, 14, 16), Guitar (14), Rhythm Guitar (5)
Wings Over Jordan Gospel, Bali Eternal - Turntable Samples (10)

Exact Audio Copy V1.3 from 2. September 2016

EAC extraction logfile from 23. December 2017, 20:22

Tom Waits / Mule Variations

Used drive : ATAPI iHAS124 D Adapter: 0 ID: 2

Read mode : Secure
Utilize accurate stream : Yes
Defeat audio cache : Yes
Make use of C2 pointers : No

Read offset correction : 6
Overread into Lead-In and Lead-Out : No
Fill up missing offset samples with silence : Yes
Delete leading and trailing silent blocks : No
Null samples used in CRC calculations : Yes
Used interface : Installed external ASPI interface

Used output format : User Defined Encoder
Selected bitrate : 1024 kBit/s
Quality : High
Add ID3 tag : No
Command line compressor : C:\Program Files (x86)\Exact Audio Copy\Flac\flac.exe
Additional command line options : -6 -V -T "ARTIST=%artist%" -T "TITLE=%title%" -T "ALBUM=%albumtitle%" -T "DATE=%year%" -T "TRACKNUMBER=%tracknr%" -T "GENRE=%genre%" -T "COMMENT=%comment%" -T "BAND=%albuminterpret%" -T "ALBUMARTIST=%albuminterpret%" -T "COMPOSER=%composer%" %haslyrics%–tag-from-file=LYRICS="%lyricsfile%"%haslyrics% -T "DISCNUMBER=%cdnumber%" -T "TOTALDISCS=%totalcds%" -T "TOTALTRACKS=%numtracks%" %hascover%–picture="%coverfile%"%hascover% %source% -o %dest%


TOC of the extracted CD

Track | Start | Length | Start sector | End sector
––––––––––––––––––––––––––––-
1 | 0:00.00 | 4:05.12 | 0 | 18386
2 | 4:05.12 | 2:59.23 | 18387 | 31834
3 | 7:04.35 | 5:33.55 | 31835 | 56864
4 | 12:38.15 | 6:52.35 | 56865 | 87799
5 | 19:30.50 | 4:14.15 | 87800 | 106864
6 | 23:44.65 | 5:23.10 | 106865 | 131099
7 | 29:08.00 | 4:32.47 | 131100 | 151546
8 | 33:40.47 | 3:20.18 | 151547 | 166564
9 | 37:00.65 | 5:02.30 | 166565 | 189244
10 | 42:03.20 | 4:25.72 | 189245 | 209191
11 | 46:29.17 | 3:39.68 | 209192 | 225684
12 | 50:09.10 | 3:55.02 | 225685 | 243311
13 | 54:04.12 | 4:24.28 | 243312 | 263139
14 | 58:28.40 | 3:09.65 | 263140 | 277379
15 | 61:38.30 | 4:24.72 | 277380 | 297251
16 | 66:03.27 | 4:36.58 | 297252 | 318009


Range status and errors

Selected range

Filename C:\mm\Tom Waits\1999(2006) - Mule Variations [86547-2]\Tom Waits - Mule Variations.wav

Peak level 100.0 %
Extraction speed 1.9 X
Range quality 100.0 %
Test CRC DEEFFB24
Copy CRC DEEFFB24
Copy OK

No errors occurred


AccurateRip summary

Track 1 accurately ripped (confidence 2) [110F0A57] (AR v2)
Track 2 accurately ripped (confidence 2) [08451470] (AR v2)
Track 3 accurately ripped (confidence 2) [E0863A0B] (AR v2)
Track 4 accurately ripped (confidence 2) [D95682C0] (AR v2)
Track 5 accurately ripped (confidence 2) [BCED6266] (AR v2)
Track 6 accurately ripped (confidence 2) [7C11B274] (AR v2)
Track 7 accurately ripped (confidence 2) [9DD20893] (AR v2)
Track 8 accurately ripped (confidence 2) [CCD06A1C] (AR v2)
Track 9 accurately ripped (confidence 2) [E623B236] (AR v2)
Track 10 accurately ripped (confidence 2) [D26D5AC0] (AR v2)
Track 11 accurately ripped (confidence 2) [F4002F72] (AR v2)
Track 12 accurately ripped (confidence 2) [20E71B2B] (AR v2)
Track 13 accurately ripped (confidence 2) [7CD68C48] (AR v2)
Track 14 accurately ripped (confidence 2) [B5867FBB] (AR v2)
Track 15 accurately ripped (confidence 2) [59D3FB9F] (AR v2)
Track 16 accurately ripped (confidence 2) [D31608B2] (AR v2)

All tracks accurately ripped

End of status report

–– CUETools DB Plugin V2.1.6

[CTDB TOCID: HsO0aV27u45Ak_sBKtgyFc79W.M-] found
Submit result: HsO0aV27u45Ak_sBKtgyFc79W.M- has been confirmed
Track | CTDB Status
1 | (823/838) Accurately ripped
2 | (825/838) Accurately ripped
3 | (832/838) Accurately ripped
4 | (824/838) Accurately ripped
5 | (823/838) Accurately ripped
6 | (822/838) Accurately ripped
7 | (821/838) Accurately ripped
8 | (824/838) Accurately ripped
9 | (822/838) Accurately ripped
10 | (825/838) Accurately ripped
11 | (816/838) Accurately ripped
12 | (819/838) Accurately ripped
13 | (820/838) Accurately ripped
14 | (820/838) Accurately ripped
15 | (819/838) Accurately ripped
16 | (817/838) Accurately ripped

foobar2000 1.3.16 / Dynamic Range Meter 1.1.1
log date: 2017-12-26 12:15:04

––––––––––––––––––––––––––––––––––––––––
Analyzed: Tom Waits / Mule Variations
––––––––––––––––––––––––––––––––––––––––

DR Peak RMS Duration Track
––––––––––––––––––––––––––––––––––––––––
DR8 0.00 dB -9.64 dB 4:05 01-Big In Japan
DR9 0.00 dB -10.94 dB 2:59 02-Lowside Of The Road
DR10 0.00 dB -12.12 dB 5:34 03-Hold On
DR10 0.00 dB -10.97 dB 6:52 04-Get Behind The Mule
DR13 0.00 dB -15.82 dB 4:14 05-House Where Nobody Lives
DR9 0.00 dB -10.77 dB 5:23 06-Cold Water
DR11 0.00 dB -12.88 dB 4:33 07-Pony
DR15 0.00 dB -18.69 dB 3:20 08-What's He Building In There
DR13 0.00 dB -14.65 dB 5:02 09-Black Market Baby
DR10 0.00 dB -11.18 dB 4:26 10-Eyeball Kid
DR11 0.00 dB -13.88 dB 3:40 11-Picture In A Frame
DR13 0.00 dB -14.76 dB 3:55 12-Chocolate Jesus
DR11 0.00 dB -12.91 dB 4:24 13-Georgia Lee
DR10 0.00 dB -11.04 dB 3:10 14-Filipino Box Spring Hog
DR12 -0.54 dB -15.09 dB 4:25 15-Take It With Me
DR10 0.00 dB -10.72 dB 4:37 16-Come On Up To The House
––––––––––––––––––––––––––––––––––––––––

Number of tracks: 16
Official DR value: DR11

Samplerate: 44100 Hz
Channels: 2
Bits per sample: 16
Bitrate: 779 kbps
Codec: FLAC
================================================================================

[CUETools log; Date: 26.12.2017 12:15:16; Version: 2.1.5]
[CTDB TOCID: HsO0aV27u45Ak_sBKtgyFc79W.M-] found.
Track | CTDB Status
1 | (826/841) Accurately ripped
2 | (828/841) Accurately ripped
3 | (835/841) Accurately ripped
4 | (827/841) Accurately ripped
5 | (826/841) Accurately ripped
6 | (825/841) Accurately ripped
7 | (824/841) Accurately ripped
8 | (827/841) Accurately ripped
9 | (825/841) Accurately ripped
10 | (828/841) Accurately ripped
11 | (819/841) Accurately ripped
12 | (822/841) Accurately ripped
13 | (823/841) Accurately ripped
14 | (823/841) Accurately ripped
15 | (822/841) Accurately ripped
16 | (820/841) Accurately ripped
[AccurateRip ID: 002a54a4-01f9b037-ba109010] found.
Track [ CRC | V2 ] Status
01 [b29f0115|110f0a57] (000+002/874) Accurately ripped
02 [c96016e6|08451470] (000+002/875) Accurately ripped
03 [68349655|e0863a0b] (000+002/877) Accurately ripped
04 [f94f3ff0|d95682c0] (000+002/874) Accurately ripped
05 [ba923e23|bced6266] (000+002/877) Accurately ripped
06 [018a42cc|7c11b274] (000+002/870) Accurately ripped
07 [d3651d7e|9dd20893] (000+002/875) Accurately ripped
08 [7484c137|ccd06a1c] (000+002/872) Accurately ripped
09 [f0b142e4|e623b236] (000+002/870) Accurately ripped
10 [8c2ea625|d26d5ac0] (000+002/871) Accurately ripped
11 [70178f31|f4002f72] (000+002/867) Accurately ripped
12 [9e5aafc1|20e71b2b] (000+002/868) Accurately ripped
13 [411b3002|7cd68c48] (000+002/867) Accurately ripped
14 [2ede09c1|b5867fbb] (000+002/866) Accurately ripped
15 [856c2023|59d3fb9f] (000+002/859) Accurately ripped
16 [bc8c6b34|d31608b2] (000+002/848) Accurately ripped
Offsetted by -280:
01 [4e5cf3f5] (003/874) Accurately ripped
02 [8dd16a16] (003/875) Accurately ripped
03 [a53c322d] (003/877) Accurately ripped
04 [32ef9278] (003/874) Accurately ripped
05 [35a423ab] (003/877) Accurately ripped
06 [d0437c34] (003/870) Accurately ripped
07 [3451df1e] (003/875) Accurately ripped
08 [5fe3d6cf] (002/872) Accurately ripped
09 [0cac970c] (002/870) Accurately ripped
10 [a709a465] (003/871) Accurately ripped
11 [c66f6515] (003/867) Accurately ripped
12 [a63c979c] (003/868) Accurately ripped
13 [37192ae3] (003/867) Accurately ripped
14 [df896649] (003/866) Accurately ripped
15 [c074c183] (002/859) Accurately ripped
16 [08ae81d5] (002/848) Accurately ripped
Offsetted by -5:
01 [19f940d9] (004/874) Accurately ripped
02 [a84fd3d0] (004/875) Accurately ripped
03 [80270242] (004/877) Accurately ripped
04 [11321cd7] (004/874) Accurately ripped
05 [ef0dfdaa] (004/877) Accurately ripped
06 [37846cf7] (004/870) Accurately ripped
07 [82d70eaa] (004/875) Accurately ripped
08 [bd4b062c] (004/872) Accurately ripped
09 [9ee808f7] (004/870) Accurately ripped
10 [5a60461d] (004/871) Accurately ripped
11 [16ec339b] (004/867) Accurately ripped
12 [35b940cc] (004/868) Accurately ripped
13 [282c79ba] (004/867) Accurately ripped
14 [1205ab68] (004/866) Accurately ripped
15 [ab0c4797] (004/859) Accurately ripped
16 [aedcbeba] (004/848) Accurately ripped
Offsetted by 664:
01 [af012035] (179/874) Accurately ripped
02 [89cfb0b6] (179/875) Accurately ripped
03 [2f3fccfd] (180/877) Accurately ripped
04 [953974e8] (177/874) Accurately ripped
05 [4d93b01b] (180/877) Accurately ripped
06 [67c462e4] (177/870) Accurately ripped
07 [36b001de] (178/875) Accurately ripped
08 [1a77621f] (178/872) Accurately ripped
09 [91141c3c] (178/870) Accurately ripped
10 [2f3d43e5] (179/871) Accurately ripped
11 [92d8c024] (174/867) Accurately ripped
12 [500c1b21] (177/868) Accurately ripped
13 [2fcd466f] (176/867) Accurately ripped
14 [8be894b9] (175/866) Accurately ripped
15 [9a57a8c3] (173/859) Accurately ripped
16 [0d4f812d] (172/848) Accurately ripped
Offsetted by 809:
01 [f9c7e701] (198/874) Accurately ripped
02 [48a74a34] (199/875) Accurately ripped
03 [78c99324] (200/877) Accurately ripped
04 [e0866ebd] (200/874) Accurately ripped
05 [5b8efdd0] (200/877) Accurately ripped
06 [4a6d9c05] (198/870) Accurately ripped
07 [56c7afe2] (200/875) Accurately ripped
08 [dc01925e] (199/872) Accurately ripped
09 [d4dfac15] (198/870) Accurately ripped
10 [d39e24cd] (196/871) Accurately ripped
11 [aa65631a] (197/867) Accurately ripped
12 [64b94ad5] (195/868) Accurately ripped
13 [20e58d08] (195/867) Accurately ripped
14 [d06b44ce] (197/866) Accurately ripped
15 [5733309f] (193/859) Accurately ripped
16 [7b820c8e] (181/848) Accurately ripped
Offsetted by 857:
01 [4ccbe941] (028/874) Accurately ripped
02 [b94367d4] (028/875) Accurately ripped
03 [f94bed74] (028/877) Accurately ripped
04 [fb37bfad] (028/874) Accurately ripped
05 [fd5168c0] (028/877) Accurately ripped
06 [110c0735] (028/870) Accurately ripped
07 [8f4ea4a2] (028/875) Accurately ripped
08 [ee2bc92e] (028/872) Accurately ripped
09 [4c6b71c5] (028/870) Accurately ripped
10 [4b5b584d] (029/871) Accurately ripped
11 [b065b5dc] (029/867) Accurately ripped
12 [7f8f2cdf] (029/868) Accurately ripped
13 [60d156b8] (029/867) Accurately ripped
14 [b22201be] (029/866) Accurately ripped
15 [2131b5df] (029/859) Accurately ripped
16 [d82e7900] (028/848) Accurately ripped
Offsetted by -483:
01 [7f46aa71] (000/874) No match (V2 was not tested)
02 [1c3d2ccc] (000/875) No match
03 [0b14e990] (000/877) No match
04 [fcb70181] (000/874) No match
05 [eeddea14] (000/877) No match
06 [92f02c39] (000/870) No match
07 [3a971eb2] (000/875) No match
08 [1dbbf9aa] (000/872) No match
09 [adc2cda9] (000/870) No match
10 [274ecfed] (000/871) No match
11 [b050fdd2] (000/867) No match
12 [eadca9e5] (000/868) No match
13 [7f2e9020] (000/867) No match
14 [7f9f3c92] (000/866) No match
15 [84db034f] (000/859) No match
16 [dd3b4bc9] (000/848) No match
Offsetted by -28:
01 [c231ffc5] (000/874) No match (V2 was not tested)
02 [dd05059e] (000/875) No match (V2 was not tested)
03 [87e88c51] (000/877) No match (V2 was not tested)
04 [7f127b64] (000/874) No match (V2 was not tested)
05 [46e0d517] (000/877) No match (V2 was not tested)
06 [63032ef0] (000/870) No match (V2 was not tested)
07 [dd16640e] (000/875) No match (V2 was not tested)
08 [3f417693] (000/872) No match
09 [c04a64e8] (000/870) No match (V2 was not tested)
10 [dbaaf2c5] (000/871) No match
11 [4163f3f2] (000/867) No match (V2 was not tested)
12 [8c4b8d8a] (000/868) No match
13 [1206c1e4] (000/867) No match (V2 was not tested)
14 [c088c635] (000/866) No match
15 [24ecfd13] (000/859) No match
16 [fb681331] (000/848) No match
Offsetted by 209:
01 [6c15cae1] (002/874) Accurately ripped
02 [c907d7e4] (002/875) Accurately ripped
03 [b26c2a3c] (002/877) Accurately ripped
04 [12ddfb05] (002/874) Accurately ripped
05 [f590c518] (002/877) Accurately ripped
06 [97b1602d] (002/870) Accurately ripped
07 [9430bc82] (002/875) Accurately ripped
08 [f8f1e536] (002/872) Accurately ripped
09 [7e8c84fd] (002/870) Accurately ripped
10 [7ae1210d] (002/871) Accurately ripped
11 [3cfa41a5] (002/867) Accurately ripped
12 [0406235a] (002/868) Accurately ripped
13 [7dd72f68] (002/867) Accurately ripped
14 [4aff0b16] (000/866) No match (V2 was not tested)
15 [fa45aeff] (000/859) No match (V2 was not tested)
16 [6acba74c] (000/848) No match (V2 was not tested)
Offsetted by 532:
01 [8ab61a05] (000/874) No match
02 [54225f3e] (000/875) No match
03 [0dd954a1] (000/877) No match
04 [0bd1d654] (000/874) No match (V2 was not tested)
05 [50bd0a07] (000/877) No match
06 [c590bc20] (000/870) No match
07 [1b3ce0ce] (000/875) No match
08 [68834b63] (000/872) No match
09 [8853bc98] (000/870) No match
10 [a5f4f645] (000/871) No match
11 [a3630d70] (000/867) No match
12 [e57490ed] (000/868) No match
13 [c004dbcb] (000/867) No match
14 [5f320d25] (000/866) No match
15 [aedbba53] (000/859) No match
16 [66c57183] (000/848) No match
Offsetted by 723:
01 [850b62f9] (000/874) No match
02 [a98f9520] (000/875) No match
03 [47e006aa] (000/877) No match
04 [7b5e130f] (000/874) No match
05 [af12a8e2] (000/877) No match
06 [513c714f] (000/870) No match
07 [86d5e40a] (000/875) No match
08 [26209ad4] (000/872) No match (V2 was not tested)
09 [895a948f] (000/870) No match
10 [47c07ddd] (000/871) No match
11 [116b5cbd] (000/867) No match
12 [c72d9cda] (000/868) No match
13 [8e5f1902] (000/867) No match
14 [46ae87a0] (000/866) No match
15 [77f5d737] (000/859) No match
16 [0e78e61b] (000/848) No match
Offsetted by 743:
01 [e7a263e9] (002/874) Accurately ripped
02 [2dd0a178] (002/875) Accurately ripped
03 [e81656f6] (002/877) Accurately ripped
04 [1bd29f73] (002/874) Accurately ripped
05 [dd23aac6] (002/877) Accurately ripped
06 [7953c8a3] (000/870) No match (V2 was not tested)
07 [c90e1f5a] (002/875) Accurately ripped
08 [03078700] (002/872) Accurately ripped
09 [d07f7c43] (000/870) No match (V2 was not tested)
10 [0ef9fdfd] (000/871) No match
11 [ef599d1b] (000/867) No match
12 [8e4c9438] (000/868) No match
13 [690157b6] (000/867) No match
14 [ba100104] (000/866) No match
15 [e1753967] (000/859) No match
16 [4a876885] (000/848) No match
Offsetted by 767:
01 [91246509] (000/874) No match
02 [661eb048] (000/875) No match
03 [a857841e] (000/877) No match
04 [a92b47eb] (000/874) No match
05 [ae04e03e] (000/877) No match
06 [dca2fe3b] (000/870) No match
07 [e55199ba] (000/875) No match
08 [0c1ca268] (000/872) No match
09 [8c455f1b] (000/870) No match
10 [cad897bd] (000/871) No match
11 [9ab109c4] (000/867) No match
12 [d41044c7] (000/868) No match (V2 was not tested)
13 [08f73c8e] (000/867) No match
14 [aaeb5f7c] (000/866) No match
15 [c6747c07] (000/859) No match
16 [14b7b17d] (000/848) No match
Offsetted by 821:
01 [ce88e791] (000/874) No match (V2 was not tested)
02 [64ce519c] (000/875) No match (V2 was not tested)
03 [d8ea29b8] (000/877) No match (V2 was not tested)
04 [a732c2f9] (000/874) No match (V2 was not tested)
05 [43ff988c] (000/877) No match (V2 was not tested)
06 [fc1536d1] (000/870) No match (V2 was not tested)
07 [e4e96d12] (000/875) No match (V2 was not tested)
08 [608c2012] (000/872) No match (V2 was not tested)
09 [32c29d81] (000/870) No match (V2 was not tested)
10 [b18d71ad] (000/871) No match (V2 was not tested)
11 [2cdcac3d] (000/867) No match (V2 was not tested)
12 [f1f38aaa] (000/868) No match (V2 was not tested)
13 [70e07f74] (000/867) No match (V2 was not tested)
14 [48d8f40a] (000/866) No match (V2 was not tested)
15 [c9b2d1ef] (000/859) No match (V2 was not tested)
16 [1b0b57b8] (000/848) No match (V2 was not tested)

Track Peak [ CRC32 ] [W/O NULL] [ LOG ]
– 100,0 [DEEFFB24] [2BC19A7D] CRC32
01 100,0 [D565C1AE] [DBC31269]
02 100,0 [3D4E73CD] [350CC2DE]
03 100,0 [32E0F764] [010BA590]
04 100,0 [7EF7464D] [AC586C9A]
05 100,0 [5AE28EC1] [E61CB5E8]
06 100,0 [F306CF00] [46E0376F]
07 100,0 [1D48AF42] [5E2EC75A]
08 100,0 [23A437B5] [3D4596D2]
09 100,0 [F27FA2DC] [17077420]
10 100,0 [9B1AC4ED] [1ED52E3C]
11 100,0 [8AE87554] [246E7752]
12 100,0 [59EE6F43] [ED590AD2]
13 100,0 [3220905C] [1943598E]
14 100,0 [2191392D] [17A35E83]
15 94,0 [61DFC66C] [8383DADA]
16 100,0 [E670FC7A] [4D8F5580]

Tom Waits - Mule Variations (1999) {2006, Reissue}

See also:
Tom Waits - Blue Valentine (1978) {Gold CD, Reissue}

All thanks go to sergych

>>> My Blog <<<

Download from icerbox.com: