Subcategories

Tom Harrell - Colors Of A Dream (2013) {HighNote}

Posted By: tiburon
Tom Harrell - Colors Of A Dream (2013) {HighNote}

Tom Harrell - Colors Of A Dream (2013) {HighNote}
EAC 1.0b3 | FLAC tracks level 8 | Cue+Log+M3U | Full Scans 300dpi | 431MB + 5% Recovery
MP3 CBR 320 Kbps | 173MB + 5% Recovery
Genre: Jazz, Post-Bop
Tom Harrell - Colors Of A Dream (2013) {HighNote}

Colors of a Dream is the sixth HighNote Records album by trumpeter-composer Tom Harrell, featuring two basses played by Ugonna Okegwo and Esperanza Spalding, with the latter doubling on vocal, Jaleel Shaw on alto saxophone, Wayne Escoffery on tenor saxophone, and Johnathan Blake on drums. According to JazzTimes, this album deviates from Harrell's previous works. The use of piano is absent, and the three horns often play in block-chord formation. There are hints of Latin jazz, R&B and indie-rock. According to the review, "Colors of a Dream may deviate, but it never disappoints."
Track List
01. Tango 6:25
02. Velejar (Sail Away) 6:58
03. Phantasy In Latin 6:17
04. State 5:04
05. Seventy 3:17
06. Blues 2013 8:59
07. Nite Life 5:16
08. Even If 4:57
09. Walkway 6:41
10. Family 4:16
11. Goin' Out 6:25

musicians
Tom Harrell - trumpet, flugelhorn
Jaleel Shaw - alto sax
Wayne Escoffery - tenor sax
Esperanza Spalding - bass, vocal
Ugonna Okegwo - bass
Johnathan Blake - drums

Produced by Tom Harrell and Angela Harrell


Exact Audio Copy V1.0 beta 3 from 29. August 2011

EAC extraction logfile from 28. September 2014, 13:54

Tom Harrell / Colors Of A Dream

Used drive : HL-DT-STDVDRAM GH20NS10 Adapter: 2 ID: 1

Read mode : Secure
Utilize accurate stream : Yes
Defeat audio cache : Yes
Make use of C2 pointers : No

Read offset correction : 667
Overread into Lead-In and Lead-Out : No
Fill up missing offset samples with silence : Yes
Delete leading and trailing silent blocks : No
Null samples used in CRC calculations : Yes
Used interface : Native Win32 interface for Win NT & 2000
Gap handling : Appended to previous track

Used output format : User Defined Encoder
Selected bitrate : 1024 kBit/s
Quality : High
Add ID3 tag : No
Command line compressor : C:\Program Files\Exact Audio Copy\Flac\flac.exe
Additional command line options : -8 -V -T "ARTIST=%artist%" -T "TITLE=%title%" -T "ALBUM=%albumtitle%" -T "DATE=%year%" -T "TRACKNUMBER=%tracknr%" -T "TOTALTRACKS=%numtracks%" -T "GENRE=%genre%" -T "ALBUMARTIST=%albumartist%" -T "ALBUM ARTIST=%albumartist%" -T "COMMENT=EAC Secure Mode, Test & Copy, AccurateRip, FLAC -8" %source%


TOC of the extracted CD

Track | Start | Length | Start sector | End sector
––––––––––––––––––––––––––––-
1 | 0:00.00 | 6:26.09 | 0 | 28958
2 | 6:26.09 | 7:01.51 | 28959 | 60584
3 | 13:27.60 | 6:19.21 | 60585 | 89030
4 | 19:47.06 | 5:06.47 | 89031 | 112027
5 | 24:53.53 | 3:18.63 | 112028 | 126940
6 | 28:12.41 | 9:01.09 | 126941 | 167524
7 | 37:13.50 | 5:16.61 | 167525 | 191285
8 | 42:30.36 | 4:58.31 | 191286 | 213666
9 | 47:28.67 | 6:43.40 | 213667 | 243931
10 | 54:12.32 | 4:18.29 | 243932 | 263310
11 | 58:30.61 | 6:25.47 | 263311 | 292232


Track 1

Filename D:\Tom Harrell - Colors Of A Dream (2013) [FLAC]\01 - Tango.wav

Pre-gap length 0:00:02.00

Peak level 96.5 %
Extraction speed 3.8 X
Track quality 99.9 %
Test CRC DE577FF6
Copy CRC DE577FF6
Accurately ripped (confidence 6) [319E4955] (AR v2)
Copy OK

Track 2

Filename D:\Tom Harrell - Colors Of A Dream (2013) [FLAC]\02 - Velejar (Sail Away).wav

Pre-gap length 0:00:00.42

Peak level 96.6 %
Extraction speed 5.9 X
Track quality 100.0 %
Test CRC B7DDD152
Copy CRC B7DDD152
Accurately ripped (confidence 6) [4ADD8A89] (AR v2)
Copy OK

Track 3

Filename D:\Tom Harrell - Colors Of A Dream (2013) [FLAC]\03 - Phantasy In Latin.wav

Pre-gap length 0:00:01.40

Peak level 97.1 %
Extraction speed 6.4 X
Track quality 100.0 %
Test CRC 57416ADA
Copy CRC 57416ADA
Accurately ripped (confidence 6) [79057C71] (AR v2)
Copy OK

Track 4

Filename D:\Tom Harrell - Colors Of A Dream (2013) [FLAC]\04 - State.wav

Pre-gap length 0:00:01.74

Peak level 97.7 %
Extraction speed 6.6 X
Track quality 100.0 %
Test CRC 4C1F8F7E
Copy CRC 4C1F8F7E
Accurately ripped (confidence 6) [16DA9357] (AR v2)
Copy OK

Track 5

Filename D:\Tom Harrell - Colors Of A Dream (2013) [FLAC]\05 - Seventy.wav

Pre-gap length 0:00:01.58

Peak level 96.5 %
Extraction speed 5.2 X
Track quality 99.9 %
Test CRC 592F5643
Copy CRC 592F5643
Accurately ripped (confidence 6) [0199DE81] (AR v2)
Copy OK

Track 6

Filename D:\Tom Harrell - Colors Of A Dream (2013) [FLAC]\06 - Blues 2013.wav

Pre-gap length 0:00:01.18

Peak level 96.6 %
Extraction speed 5.2 X
Track quality 99.9 %
Test CRC 71B3CC2B
Copy CRC 71B3CC2B
Accurately ripped (confidence 6) [245670E6] (AR v2)
Copy OK

Track 7

Filename D:\Tom Harrell - Colors Of A Dream (2013) [FLAC]\07 - Nite Life.wav

Pre-gap length 0:00:00.72

Peak level 97.1 %
Extraction speed 7.9 X
Track quality 100.0 %
Test CRC B914C0FA
Copy CRC B914C0FA
Accurately ripped (confidence 6) [9CAA399A] (AR v2)
Copy OK

Track 8

Filename D:\Tom Harrell - Colors Of A Dream (2013) [FLAC]\08 - Even If.wav

Pre-gap length 0:00:00.58

Peak level 97.3 %
Extraction speed 8.0 X
Track quality 100.0 %
Test CRC 18550205
Copy CRC 18550205
Accurately ripped (confidence 6) [E05C8965] (AR v2)
Copy OK

Track 9

Filename D:\Tom Harrell - Colors Of A Dream (2013) [FLAC]\09 - Walkway.wav

Pre-gap length 0:00:01.01

Peak level 96.6 %
Extraction speed 8.7 X
Track quality 100.0 %
Test CRC 97925A46
Copy CRC 97925A46
Accurately ripped (confidence 6) [E6979574] (AR v2)
Copy OK

Track 10

Filename D:\Tom Harrell - Colors Of A Dream (2013) [FLAC]\10 - Family.wav

Pre-gap length 0:00:01.74

Peak level 95.5 %
Extraction speed 8.6 X
Track quality 100.0 %
Test CRC 425DB850
Copy CRC 425DB850
Accurately ripped (confidence 6) [1BF1D166] (AR v2)
Copy OK

Track 11

Filename D:\Tom Harrell - Colors Of A Dream (2013) [FLAC]\11 - Goin' Out.wav

Pre-gap length 0:00:01.74

Peak level 97.7 %
Extraction speed 9.2 X
Track quality 100.0 %
Test CRC FB27B161
Copy CRC FB27B161
Accurately ripped (confidence 6) [30550D2F] (AR v2)
Copy OK


All tracks accurately ripped

No errors occurred

End of status report

==== Log checksum CC7F54876559C265568AF2390708417EB2F90292EE0D61734661FA610832417F ====


––––––––––––––––––––––––––––––––––––––––
Analyzed: Tom Harrell / Colors Of A Dream
––––––––––––––––––––––––––––––––––––––––

DR Peak RMS Duration Track
––––––––––––––––––––––––––––––––––––––––
DR9 -0.31 dB -11.84 dB 6:26 01-Tango
DR11 -0.30 dB -13.51 dB 7:02 02-Velejar (Sail Away)
DR8 -0.25 dB -10.44 dB 6:19 03-Phantasy In Latin
DR8 -0.20 dB -9.56 dB 5:07 04-State
DR11 -0.30 dB -14.07 dB 3:19 05-Seventy
DR8 -0.30 dB -10.86 dB 9:01 06-Blues 2013
DR7 -0.25 dB -9.44 dB 5:17 07-Nite Life
DR8 -0.23 dB -10.56 dB 4:58 08-Even If
DR9 -0.30 dB -12.05 dB 6:44 09-Walkway
DR11 -0.40 dB -14.61 dB 4:18 10-Family
DR8 -0.20 dB -9.17 dB 6:26 11-Goin' Out
––––––––––––––––––––––––––––––––––––––––

Number of tracks: 11
Official DR value: DR9

Samplerate: 44100 Hz
Channels: 2
Bits per sample: 16
Bitrate: 956 kbps
Codec: FLAC
================================================================================

Tom Harrell - Colors Of A Dream (2013) {HighNote}
Tom Harrell - Colors Of A Dream (2013) {HighNote}
Tom Harrell - Colors Of A Dream (2013) {HighNote}