Subcategories

Tommy Castro - Gratitude (2003)

Posted By: popsakov
Tommy Castro - Gratitude (2003)

Tommy Castro - Gratitude (2003)
EAC Rip | FLAC (Img) + Cue + Log ~ 429 Mb | MP3 CBR320 ~ 148 Mb
Scans Included (JPG, 300 dpi) | RAR 5% Recovery
Blues, Rhythm & Blues, Soul | DixieFrog #DFGCD 8553

As its title suggests, Tommy Castro's seventh album is a note of thanks to the artists who inspired the West Coast guitarist/vocalist. While rocking R&B and blues greats like B.B. and Albert King, Chuck Berry and Buddy Guy are obvious choices, Castro digs deep into their catalogs. He covers B.B. King's "Bad Case of Love," Albert King's "Everybody Want to Go to Heaven," Berry's "Tulane," and Guy's version of Willie Dixon's "When My Left Eye Jumps." More interesting, though, are Castro's '60s soul roots which he acknowledges in versions of songs made popular by Wilson Pickett (a powerful "I Found a Love"), Sam & Dave (Curtis Salgado joins in on a duet of "I Take What I Want"), Otis Redding (a thumping "Lovey Dovey" with Sista Monica Parker taking the Carla Thomas part) and James Brown (a swinging "I Feel That Old Feeling Coming On," which is a departure from Brown's usual funky work). Less successful are Castro's takes on Howlin' Wolf's "44" where his direct approach loses the original's voodoo marching vibe. John Lee Hooker's "Serve You Right to Suffer" sounds more like the J. Geils Band's cover than Hooker's spooky approach, with an ill-advised rocking middle section that misses the song's intent. Much better is Castro's succinct, sharp cover of Muddy Waters' "I Wants to Be Loved" where he toughens up the attack but maintains the tune's defiant drive. Pianist John Turk helps fatten the sound, keeping it raw with his work on the album's slow blues workouts such as Guy's "…Left Eye" and Ray Charles' "Come Back Baby." Castro is loose and tough, with his gritty voice and thick, clean guitar lines sounding confident and assertive. More than just a holding pattern until he writes new tunes, Gratitude is not only an enjoyable peek inside Tommy Castro's influences but a fascinating compilation of generally underexposed material from blues, soul and R&B greats.
~ Hal Horowitz, All Music

***************

Tommy Castro - Gratitude (2003)

Track List:

01. It Serves You Right To Suffer [0:06:52.07]
02. Bad Case Of Love [0:04:53.21]
03. Tulane [0:04:10.00]
04. I Wants To Be Loved [0:02:15.32]
05. Come Back Baby [0:05:40.71]
06. Lovey Dovey [0:04:46.09]
07. Everybody Wants To Go To Heaven [0:04:57.41]
08. I Feel That Old Feeling Coming On [0:04:21.38]
09. I Take What I Want [0:04:01.56]
10. When Me Left Eye Jumps [0:06:14.05]
11. 44 [0:04:43.50]
12. I Found A Love [0:04:11.47]

Personnel:
Bass – Randy McDonald
Drums – Billy Lee Lewis
Guitar, Vocals – Tommy Castro
Harp, Backing Vocals – Curtis Salgado (tracks: 3,9,12)
Piano, Organ – John Turk (tracks: 12)
Saxophone – Keith Crossan
Tenor Saxophone – Michael Peliquin
Trumpet – Tom Poole
Vocals – Sista Monica Parker (tracks: 6)

Exact Audio Copy V0.99 prebeta 4 from 23. January 2008

Отчёт EAC об извлечении, выполненном 30. мая 2010, 18:50

Tommy Castro / Gratitude

Дисковод: Optiarc DVD RW AD-7173S Adapter: 2 ID: 0

Режим чтения : Достоверность
Использование точного потока : Да
Отключение кэша аудио : Да
Использование указателей C2 : Нет

Коррекция смещения при чтении : 48
Способность читать области Lead-in и Lead-out : Нет
Заполнение пропущенных сэмплов тишиной : Да
Удаление блоков с тишиной в начале и конце : Нет
При вычислениях CRC использовались нулевые сэмплы : Да
Интерфейс : Встроенный Win32-интерфейс для Win NT/2000

Выходной формат : Monkey's Audio (без потерь)
Выбранный битрейт : Normal Lossless Compression
Качество : Высокий
Добавление ID3-тэга : Да
Утилита сжатия : C:\Program Files\Monkey's Audio\MAC.exe


TOC извлечённого CD

Трек | Старт | Длительность | Начальный сектор | Конечный сектор
––––––––––––––––––––––––––––––––––-
1 | 0:00.00 | 6:52.07 | 0 | 30906
2 | 6:52.07 | 4:53.21 | 30907 | 52902
3 | 11:45.28 | 4:10.00 | 52903 | 71652
4 | 15:55.28 | 2:15.32 | 71653 | 81809
5 | 18:10.60 | 5:40.71 | 81810 | 107380
6 | 23:51.56 | 4:46.09 | 107381 | 128839
7 | 28:37.65 | 4:57.41 | 128840 | 151155
8 | 33:35.31 | 4:21.38 | 151156 | 170768
9 | 37:56.69 | 4:01.56 | 170769 | 188899
10 | 41:58.50 | 6:14.05 | 188900 | 216954
11 | 48:12.55 | 4:43.50 | 216955 | 238229
12 | 52:56.30 | 4:11.47 | 238230 | 257101


Характеристики диапазона извлечения и сообщения об ошибках

Выбранный диапазон

Имя файла D:\Music\Tommy Castro - Gratitude 2003\Tommy Castro - Gratitude.wav

Пиковый уровень 100.0 %
Качество диапазона 100.0 %
CRC копии 8DB37E5C
Копирование… OK

Ошибок не произошло

Конец отчёта

foobar2000 1.3.16 / Dynamic Range Meter 1.1.1
log date: 2018-02-26 22:16:17

––––––––––––––––––––––––––––––––––––––––
Analyzed: Tommy Castro / Gratitude
––––––––––––––––––––––––––––––––––––––––

DR Peak RMS Duration Track
––––––––––––––––––––––––––––––––––––––––
DR9 0.00 dB -10.46 dB 6:52 01-It Serves You Right To Suffer
DR6 -0.20 dB -7.09 dB 4:53 02-Bad Case Of Love
DR6 -0.20 dB -7.46 dB 4:10 03-Tulane
DR5 -0.20 dB -6.60 dB 2:15 04-I Wants To Be Loved
DR7 -0.20 dB -8.37 dB 5:41 05-Come Back Baby
DR5 -0.20 dB -6.60 dB 4:46 06-Lovey Dovey
DR7 -0.19 dB -8.21 dB 4:58 07-Everybody Wants To Go To Heaven
DR6 -0.20 dB -6.81 dB 4:22 08-I Feel That Old Feeling Coming On
DR6 -0.20 dB -7.39 dB 4:02 09-I Take What I Want
DR6 -0.20 dB -7.08 dB 6:14 10-When Me Left Eye Jumps
DR5 -0.20 dB -6.77 dB 4:44 11-44
DR5 -0.20 dB -6.24 dB 4:12 12-I Found A Love
––––––––––––––––––––––––––––––––––––––––

Number of tracks: 12
Official DR value: DR6

Samplerate: 44100 Hz
Channels: 2
Bits per sample: 16
Bitrate: 976 kbps
Codec: FLAC
================================================================================

[CUETools log; Date: 26.02.2018 22:16:32; Version: 2.1.5]
[CTDB TOCID: fCO8w4U.D_g6AHVI0hWqS0.s5Ug-] found.
Track | CTDB Status
1 | (2/2) Accurately ripped
2 | (2/2) Accurately ripped
3 | (2/2) Accurately ripped
4 | (2/2) Accurately ripped
5 | (2/2) Accurately ripped
6 | (2/2) Accurately ripped
7 | (2/2) Accurately ripped
8 | (2/2) Accurately ripped
9 | (2/2) Accurately ripped
10 | (2/2) Accurately ripped
11 | (2/2) Accurately ripped
12 | (2/2) Accurately ripped
[AccurateRip ID: 0019e35e-00ef55f8-a70d640c] found.
Track [ CRC | V2 ] Status
01 [c8c30bbe|e5796273] (3+3/6) Accurately ripped
02 [468b4daa|4b1ae36a] (3+3/6) Accurately ripped
03 [28f45d5e|1de7f2ae] (3+3/6) Accurately ripped
04 [27c3d084|3047f077] (3+3/6) Accurately ripped
05 [5f227b0b|29c0804e] (3+3/6) Accurately ripped
06 [2fa87f6a|cce8d717] (3+3/6) Accurately ripped
07 [5dcefbc2|a749a534] (3+3/6) Accurately ripped
08 [2bcdf7bd|b14bfc70] (3+3/6) Accurately ripped
09 [fcf7568d|b069c52c] (3+3/6) Accurately ripped
10 [2ffb6ae8|04cb192d] (3+3/6) Accurately ripped
11 [7d5912ba|2b87ffe7] (3+3/6) Accurately ripped
12 [65f83c6a|67eb18d7] (3+3/6) Accurately ripped

Track Peak [ CRC32 ] [W/O NULL] [ LOG ]
– 100,0 [8DB37E5C] [94C4D62E] CRC32
01 100,0 [21DF28F0] [1C8DE8F2]
02 97,7 [2BB6B6F6] [FB330AAF]
03 97,7 [19696C15] [DAA93D76]
04 97,7 [25C4F4FC] [B348264C]
05 97,7 [2385C13F] [5B6EC799]
06 97,7 [7B182EAD] [B12E322E]
07 97,7 [431CBB8D] [5BF1C55B]
08 97,7 [F3E8593D] [5A57F959]
09 97,7 [BF8A8ED5] [C657846C]
10 97,7 [A2CEF3CD] [9886ED38]
11 97,7 [36099974] [346BCE46]
12 97,7 [74F0E6A9] [AC1243F2]

Tommy Castro - Gratitude (2003)

All thanks go to the original ripper(s) …

>>> Tommy Castro in y Blog <<<

Download from icerbox.com: