Subcategories

Tommy Emmanuel - It's Never Too Late (2015)

Posted By: Designol
Tommy Emmanuel - It's Never Too Late (2015)

Tommy Emmanuel - It’s Never Too Late (2015)
EAC | FLAC | Image (Cue&Log) ~ 293 Mb | Mp3 (CBR320) ~ 135 Mb | Scans included | 00:46:33
Guitar Virtuoso, Fingerpicking, Jazz, Country, Folk, Word | Label: CGP Sounds | # CGP-002

Quality is laced throughout It s Never Too Late, the first regular studio album featuring Emmanuel completely solo without guests since 2000. A friend and follower of the late Chet Atkins who christened Emmanuel a Certified Guitar Player, making him one of only five musicians to receive the C.G.P. distinction from the master Emmanuel easily skates between musical styles, playing with blues in One Mint Julep, infusing Spanish tradition in El Vaquero and exploring folk in The Duke. An accomplished fingerstyle player, Emmanuel frequently threads three different parts simultaneously into his material, operating as a one-man band who handles the melody, the supporting chords and the bass all at once. That expert layering is evident in It's Never Too Late on the quixotic Only Elliott, the calming title track and the gorgeous Hellos And Goodbyes.

Give a listen to "Old Photographs", the closing track on Tommy Emmanuel's "It's Never Too Late", and you'll hear the distinctive squeak of finger noise as he runs his hands across the frets of his Maton Signature TE guitar. Many musicians would edit those imperfections out, but to Emmanuel, those imperfections are perfect. A master technician, Emmanuel started professionally at age 6, rising through the ranks as a studio player and member of several Australian rock bands before he set off on a solo career. One of only five musicians handpicked by his mentor, Chet Atkins, as a Certified Guitar Player (CGP), he's piled up numerous accolades, including two Grammy nominations, two ARIA Awards from the Australian Recording Industry Association (the Aussie equivalent of the Recording Academy) and repeated honors in the Guitar Player magazine reader's poll. A noted fingerstyle guitarist, Emmanuel frequently threads three different parts simultaneously into his material, operating as a one-man band who handles the melody, the supporting chords and the bass all at once. His talents, which translate in any language, carry him to the far corners of the globe, but Emmanuel never plays the same show twice, and he improvises big chunks of every date. That leaves him open to those technical imperfections, though they also provide some of the humanity to an other-worldly talent.

Tommy Emmanuel - It's Never Too Late (2015)



Tracklist:

01. Only Elliot (02:01)
02. Itҳ Never Too Late (03:32)
03. The Bug (01:59)
04. El Vaquero (02:07)
05. Hope Street (03:27)
06. Blood Brother (04:53)
07. Miyazakiҳ Dream (04:21)
08. One Day (03:32)
09. Traveling Clothes (02:39)
10. T. E. Ranch (02:30)
11. Hellos And Goodbyes (04:22)
12. One Mint Julep (03:40)
13. The Duke (03:23)
14. Old Photographs (03:58)


Exact Audio Copy V1.1 from 23. June 2015

Отчёт EAC об извлечении, выполненном 5. ноября 2015, 19:14

Tommy Emmanuel / It’s Never Too Late

Дисковод: _NEC DVD_RW ND-4570A Adapter: 1 ID: 0

Режим чтения : Достоверность
Использование точного потока : Да
Отключение кэша аудио : Да
Использование указателей C2 : Нет

Коррекция смещения при чтении : 48
Способность читать области Lead-in и Lead-out : Нет
Заполнение пропущенных сэмплов тишиной : Да
Удаление блоков с тишиной в начале и конце : Нет
При вычислениях CRC использовались нулевые сэмплы : Да
Интерфейс : Встроенный Win32-интерфейс для Win NT/2000

Выходной формат : Пользовательский кодировщик
Выбранный битрейт : 768 kBit/s
Качество : Высокий
Добавление ID3-тега : Нет
Утилита сжатия : C:\Program Files\Exact Audio Copy\FLAC\FLAC.EXE
Дополнительные параметры : -6 -V -T "ARTIST=%artist%" -T "TITLE=%title%" -T "ALBUM=%albumtitle%" -T "DATE=%year%" -T "TRACKNUMBER=%tracknr%" -T "GENRE=%genre%" -T "COMMENT=%comment%" -T "BAND=%albuminterpret%" -T "ALBUMARTIST=%albuminterpret%" -T "COMPOSER=%composer%" %haslyrics%–tag-from-file=LYRICS="%lyricsfile%"%haslyrics% -T "DISCNUMBER=%cdnumber%" -T "TOTALDISCS=%totalcds%" -T "TOTALTRACKS=%numtracks%" %hascover%–picture="%coverfile%"%hascover% %source% -o %dest%


TOC извлечённого CD

Трек | Старт | Длительность | Начальный сектор | Конечный сектор
––––––––––––––––––––––––––––––––––-
1 | 0:00.00 | 2:01.33 | 0 | 9107
2 | 2:01.33 | 3:32.39 | 9108 | 25046
3 | 5:33.72 | 1:59.24 | 25047 | 33995
4 | 7:33.21 | 2:07.64 | 33996 | 43584
5 | 9:41.10 | 3:27.06 | 43585 | 59115
6 | 13:08.16 | 4:53.43 | 59116 | 81133
7 | 18:01.59 | 4:21.51 | 81134 | 100759
8 | 22:23.35 | 3:32.51 | 100760 | 116710
9 | 25:56.11 | 2:39.70 | 116711 | 128705
10 | 28:36.06 | 2:30.21 | 128706 | 139976
11 | 31:06.27 | 4:22.66 | 139977 | 159692
12 | 35:29.18 | 3:40.56 | 159693 | 176248
13 | 39:09.74 | 3:23.35 | 176249 | 191508
14 | 42:33.34 | 3:57.64 | 191509 | 209347


Характеристики диапазона извлечения и сообщения об ошибках

Выбранный диапазон

Имя файла D:\UPLOADS-3\Tommy Emmanuel - It’s Never Too Late - 2015 - 46'33''\Tommy Emmanuel - It’s Never Too Late.wav

Пиковый уровень 100.0 %
Скорость извлечения 7.0 X
Качество диапазона 100.0 %
CRC теста 60EBA579
CRC копии 60EBA579
Копирование… OK

Ошибок не произошло

Конец отчёта

–– CUETools DB Plugin V2.1.6

[CTDB TOCID: Flnqiif2EEe1qQa7BZtqfcoy54I-] found
Submit result: Flnqiif2EEe1qQa7BZtqfcoy54I- has been confirmed
Track | CTDB Status
1 | (12/12) Accurately ripped
2 | (12/12) Accurately ripped
3 | (12/12) Accurately ripped
4 | (12/12) Accurately ripped
5 | (12/12) Accurately ripped
6 | (12/12) Accurately ripped
7 | (12/12) Accurately ripped
8 | (12/12) Accurately ripped
9 | (12/12) Accurately ripped
10 | (12/12) Accurately ripped
11 | (12/12) Accurately ripped
12 | (12/12) Accurately ripped
13 | (12/12) Accurately ripped
14 | (12/12) Accurately ripped


==== Контрольная сумма отчёта 78B02E5B0A01BB07D1A75A2EFE68EAE9F75CD63E18D05B21B11B5BFEFBC786B0 ====

foobar2000 1.3.8 / Dynamic Range Meter 1.1.1
log date: 2015-11-11 18:12:14

––––––––––––––––––––––––––––––––––––––––
Analyzed: Tommy Emmanuel / It’s Never Too Late
––––––––––––––––––––––––––––––––––––––––

DR Peak RMS Duration Track
––––––––––––––––––––––––––––––––––––––––
DR8 -0.12 dB -9.02 dB 2:01 01-Only Elliot
DR11 0.00 dB -12.83 dB 3:33 02-It’s Never Too Late
DR10 0.00 dB -11.89 dB 1:59 03-The Bug
DR8 -0.15 dB -10.25 dB 2:08 04-El Vaquero
DR8 -0.57 dB -10.87 dB 3:27 05-Hope Street
DR8 -0.10 dB -11.02 dB 4:54 06-Blood Brother
DR11 -0.18 dB -13.76 dB 4:22 07-Miyazaki’s Dream
DR10 0.00 dB -12.74 dB 3:33 08-One Day
DR9 -0.29 dB -11.65 dB 2:40 09-Traveling Clothes
DR10 0.00 dB -11.83 dB 2:30 10-T. E. Ranch
DR8 0.00 dB -10.82 dB 4:23 11-Hellos And Goodbyes
DR9 -0.06 dB -11.13 dB 3:41 12-One Mint Julep
DR11 -0.30 dB -13.91 dB 3:23 13-The Duke
DR12 0.00 dB -14.52 dB 3:58 14-Old Photographs
––––––––––––––––––––––––––––––––––––––––

Number of tracks: 14
Official DR value: DR10

Samplerate: 44100 Hz
Channels: 2
Bits per sample: 16
Bitrate: 796 kbps
Codec: FLAC
================================================================================

Tommy Emmanuel - It's Never Too Late (2015)

Tommy Emmanuel - It's Never Too Late (2015)