Tony Bennett & Bill Charlap - The Silver Lining: The Songs Of Jerome Kern (2015)

Posted By: popsakov
Tony Bennett & Bill Charlap - The Silver Lining: The Songs Of Jerome Kern (2015)

Tony Bennett & Bill Charlap - The Silver Lining: The Songs Of Jerome Kern (2015)
EAC Rip | FLAC (Img) + Cue + Log ~ 224 Mb | Full Scans (PNG, 400 dpi) ~ 151 Mb | RAR 5% Recovery
Jazz, Vocal Jazz | RPM Records / Columbia / Sony Music #88875145742

The Silver Lining: The Songs of Jerome Kern functions as something of an answer to its predecessor, Cheek to Cheek. That 2014 duet album with Lady Gaga was suitably brassy and snazzy, relying on well-loved standards and pizzazz – the kind of thing designed to stoke nostalgia vibes – but The Silver Lining is a purer jazz record, an intimate songbook collaboration with pianist Bill Charlap; the difference can be heard simply in comparing the versions of "I Won't Dance" that pop up on the two albums – the Gaga swings boldly, the Charlap rendition carries a wry resignation. Songbooks have been a standard item for Bennett throughout the years but if The Silver Lining recalls any specific album in the vocalist's discography, it's The Tony Bennett/Bill Evans Album, a record released in 1975 when Bennett dropped off the major-label radar and his name was perhaps as well-known to record buyers as that of Evans. While there may be a slight wattage differential between Bennett and Charlap, the difference is due to scale: Bennett is a household name; Charlap is a star among modern mainstream jazz fans. Accordingly, Bennett treats the pianist as an equal, giving him plenty of room to spin out long, liquid solos, passages that seem to glide out imperceptibly from his understated support. Often, The Silver Lining features little more than just the singer and the pianist – when they're augmented by other musicians, it's just bass and drums, offering a bit of rhythm and color – and this sparseness never seems austere due to the inherent warmth of the musicians' easy interplay, not to mention their individual voices. Both aspects are subtly showcased on The Silver Lining, and it's that delicate dance, where Bennett and Charlap enjoy playing together and apart, that makes this so charming.
~ Stephen Thomas Erlewine, All Music
Tony Bennett & Bill Charlap - The Silver Lining: The Songs Of Jerome Kern (2015)


***************

Tony Bennett & Bill Charlap - The Silver Lining: The Songs Of Jerome Kern (2015)

Tony Bennett & Bill Charlap - The Silver Lining: The Songs Of Jerome Kern (2015)

Track List:

01. All The Things You Are [4:39]
02. Pick Yourself Up [2:57]
03. The Last Time I Saw Paris [3:26]
04. I Won't Dance [3:15]
05. Long Ago And Far Away [3:26]
06. Dearly Beloved [3:31]
07. The Song Is You [3:58]
08. They Didn't Believe Me [4:52]
09. I'm Old Fashioned [2:49]
10. The Way You Look Tonight [2:57]
11. Yesterdays [3:33]
12. Make Believe [2:21]
13. Nobody Else But Me [2:43]
14. Look For The Silver Lining [2:36]

Exact Audio Copy V1.0 beta 3 from 29. August 2011

EAC extraction logfile from 28. July 2017, 23:05

Tony Bennett / The Silver Lining (with Bill Charlap) - The Songs Of Jerome Kern

Used drive : PIONEER BD-RW BDR-TD03 Adapter: 0 ID: 1

Read mode : Secure
Utilize accurate stream : Yes
Defeat audio cache : Yes
Make use of C2 pointers : No

Read offset correction : 667
Overread into Lead-In and Lead-Out : No
Fill up missing offset samples with silence : Yes
Delete leading and trailing silent blocks : No
Null samples used in CRC calculations : Yes
Used interface : Native Win32 interface for Win NT & 2000

Used output format : User Defined Encoder
Selected bitrate : 768 kBit/s
Quality : High
Add ID3 tag : No
Command line compressor : C:\Program Files (x86)\Exact Audio Copy\FLAC\FLAC.EXE
Additional command line options : -6 -V -T "ARTIST=%artist%" -T "TITLE=%title%" -T "ALBUM=%albumtitle%" -T "DATE=%year%" -T "TRACKNUMBER=%tracknr%" -T "GENRE=%genre%" -T "COMMENT=%comment%" -T "BAND=%albuminterpret%" -T "ALBUMARTIST=%albuminterpret%" -T "COMPOSER=%composer%" %haslyrics%–tag-from-file=LYRICS="%lyricsfile%"%haslyrics% -T "DISCNUMBER=%cdnumber%" -T "TOTALDISCS=%totalcds%" -T "TOTALTRACKS=%numtracks%" %hascover%–picture="%coverfile%"%hascover% %source% -o %dest%


TOC of the extracted CD

Track | Start | Length | Start sector | End sector
––––––––––––––––––––––––––––-
1 | 0:00.00 | 4:38.39 | 0 | 20888
2 | 4:38.39 | 2:57.22 | 20889 | 34185
3 | 7:35.61 | 3:25.46 | 34186 | 49606
4 | 11:01.32 | 3:14.67 | 49607 | 64223
5 | 14:16.24 | 3:25.59 | 64224 | 79657
6 | 17:42.08 | 3:30.69 | 79658 | 95476
7 | 21:13.02 | 3:57.62 | 95477 | 113313
8 | 25:10.64 | 4:51.42 | 113314 | 135180
9 | 30:02.31 | 2:48.49 | 135181 | 147829
10 | 32:51.05 | 2:56.62 | 147830 | 161091
11 | 35:47.67 | 3:32.48 | 161092 | 177039
12 | 39:20.40 | 2:21.00 | 177040 | 187614
13 | 41:41.40 | 2:43.00 | 187615 | 199839
14 | 44:24.40 | 2:36.24 | 199840 | 211563


Range status and errors

Selected range

Filename C:\Users\Deris\Desktop\kpnemo.eu\BenKern\Tony Bennett - The Silver Lining (with Bill Charlap) - The Songs Of Jerome Kern.wav

Peak level 94.4 %
Extraction speed 4.6 X
Range quality 100.0 %
Test CRC 5CC5BD0F
Copy CRC 5CC5BD0F
Copy OK

No errors occurred


AccurateRip summary

Track 1 accurately ripped (confidence 39) [482A2DAC] (AR v2)
Track 2 accurately ripped (confidence 38) [AF65C9BF] (AR v2)
Track 3 accurately ripped (confidence 39) [263B5B48] (AR v2)
Track 4 accurately ripped (confidence 39) [465F4A05] (AR v2)
Track 5 accurately ripped (confidence 39) [7DC7A319] (AR v2)
Track 6 accurately ripped (confidence 38) [CC312401] (AR v2)
Track 7 accurately ripped (confidence 39) [CC06AA1D] (AR v2)
Track 8 accurately ripped (confidence 38) [FF813FB9] (AR v2)
Track 9 accurately ripped (confidence 38) [E50C0878] (AR v2)
Track 10 accurately ripped (confidence 39) [CB89B8EB] (AR v2)
Track 11 accurately ripped (confidence 39) [FE98E0C9] (AR v2)
Track 12 accurately ripped (confidence 40) [8D71764A] (AR v2)
Track 13 accurately ripped (confidence 40) [B2257A75] (AR v2)
Track 14 accurately ripped (confidence 39) [905094AD] (AR v2)

All tracks accurately ripped

End of status report

–– CUETools DB Plugin V2.1.3

[CTDB TOCID: nlvnVXoNU1ptvbnAhdcRtECxNIc-] found, Submit result: nlvnVXoNU1ptvbnAhdcRtECxNIc- has been confirmed
[6c388445] (112/113) Accurately ripped
[89d5aee8] (001/113) No match


==== Log checksum 70F83CDE7D911C66CB7BDD564ACF544702AC538513EC7B5772F670513CC66AAA ====

foobar2000 1.2.6 / Dynamic Range Meter 1.1.1
log date: 2017-08-01 12:32:45

––––––––––––––––––––––––––––––––––––––––
Analyzed: Tony Bennett / The Silver Lining (with Bill Charlap) - The Songs Of Jerome Kern
––––––––––––––––––––––––––––––––––––––––

DR Peak RMS Duration Track
––––––––––––––––––––––––––––––––––––––––
DR10 -0.51 dB -13.95 dB 4:39 01-All The Things You Are
DR11 -0.49 dB -14.11 dB 2:57 02-Pick Yourself Up
DR12 -1.12 dB -17.86 dB 3:26 03-The Last Time I Saw Paris
DR13 -0.53 dB -15.55 dB 3:15 04-I Won't Dance
DR11 -0.52 dB -14.33 dB 3:26 05-Long Ago And Far Away
DR13 -0.52 dB -15.98 dB 3:31 06-Dearly Beloved
DR12 -0.52 dB -15.18 dB 3:58 07-The Song Is You
DR13 -0.53 dB -18.08 dB 4:52 08-They Didn't Believe Me
DR13 -0.63 dB -16.25 dB 2:49 09-I'm Old Fashioned
DR12 -1.03 dB -18.01 dB 2:57 10-The Way You Look Tonight
DR10 -0.51 dB -14.77 dB 3:33 11-Yesterdays
DR11 -0.52 dB -13.99 dB 2:21 12-Make Believe
DR11 -0.50 dB -14.09 dB 2:43 13-Nobody Else But Me
DR12 -0.52 dB -15.77 dB 2:36 14-Look For The Silver Lining
––––––––––––––––––––––––––––––––––––––––

Number of tracks: 14
Official DR value: DR12

Samplerate: 44100 Hz
Channels: 2
Bits per sample: 16
Bitrate: 636 kbps
Codec: FLAC
================================================================================

[CUETools log; Date: 01.08.2017 12:32:49; Version: 2.1.5]
[CTDB TOCID: nlvnVXoNU1ptvbnAhdcRtECxNIc-] found.
Track | CTDB Status
1 | (114/114) Accurately ripped
2 | (114/114) Accurately ripped
3 | (114/114) Accurately ripped
4 | (114/114) Accurately ripped
5 | (114/114) Accurately ripped
6 | (114/114) Accurately ripped
7 | (114/114) Accurately ripped
8 | (114/114) Accurately ripped
9 | (114/114) Accurately ripped
10 | (114/114) Accurately ripped
11 | (114/114) Accurately ripped
12 | (114/114) Accurately ripped
13 | (114/114) Accurately ripped
14 | (113/114) Accurately ripped
[AccurateRip ID: 001998cd-010e5c30-bf0b040e] found.
Track [ CRC | V2 ] Status
01 [a082643e|482a2dac] (03+39/45) Accurately ripped
02 [0a250b06|af65c9bf] (03+38/44) Accurately ripped
03 [ca2118a4|263b5b48] (03+39/45) Accurately ripped
04 [7454dfc8|465f4a05] (03+39/45) Accurately ripped
05 [6c874e33|7dc7a319] (03+39/45) Accurately ripped
06 [96f23d67|cc312401] (03+38/44) Accurately ripped
07 [b7c5a1d1|cc06aa1d] (03+39/45) Accurately ripped
08 [37cdfd60|ff813fb9] (03+38/44) Accurately ripped
09 [822b0e60|e50c0878] (03+38/44) Accurately ripped
10 [b82cbdcc|cb89b8eb] (03+39/45) Accurately ripped
11 [72d8565f|fe98e0c9] (03+39/45) Accurately ripped
12 [b9d79293|8d71764a] (03+40/46) Accurately ripped
13 [cc18702e|b2257a75] (03+40/46) Accurately ripped
14 [2365e34d|905094ad] (03+39/45) Accurately ripped
Offsetted by -18:
01 [496b076b] (00/45) No match (V2 was not tested)
02 [615ac79e] (00/44) No match (V2 was not tested)
03 [d84c6ab2] (00/45) No match (V2 was not tested)
04 [870f2d32] (00/45) No match (V2 was not tested)
05 [dfdb6653] (00/45) No match (V2 was not tested)
06 [864191cd] (00/44) No match (V2 was not tested)
07 [13be9ef1] (00/45) No match (V2 was not tested)
08 [0c651f75] (00/44) No match (V2 was not tested)
09 [bdc56c9a] (00/44) No match (V2 was not tested)
10 [54d8ab44] (00/45) No match (V2 was not tested)
11 [0c97a95b] (00/45) No match (V2 was not tested)
12 [fe8acce3] (00/46) No match (V2 was not tested)
13 [e23e0418] (00/46) No match (V2 was not tested)
14 [dd86e257] (00/45) No match (V2 was not tested)

Track Peak [ CRC32 ] [W/O NULL] [ LOG ]
– 94,4 [5CC5BD0F] [E0ADCE1B] CRC32
01 94,2 [A6A5F556] [0191ABBC]
02 94,4 [D197864F] [8F729ACB]
03 87,9 [865FFCBE] [1F4A500C]
04 94,0 [6DC8E0EB] [973C7E4E]
05 94,1 [AA392A48] [EED0B0A1]
06 94,2 [8A14DF0C] [1CEBEB14]
07 94,1 [366B85BD] [FF81D970]
08 94,1 [7196B590] [37D98B18]
09 93,0 [29CCC205] [5FE13216]
10 88,8 [289F627D] [9C4B4175]
11 94,3 [70E844D9] [7C6606FA]
12 94,2 [5060501A] [9CC310E2]
13 94,3 [B0B03DD9] [A8D3F4E3]
14 94,2 [C2FBBA26] [F706E08B]

Tony Bennett & Bill Charlap - The Silver Lining: The Songs Of Jerome Kern (2015)

See also:
Tony Bennett - Perfectly Frank (1992)

All thanks go to Boris1

>>> My Blog <<<

Download from icerbox.com: