Subcategories

Tony Joe White - Rain Crow (2016)

Posted By: popsakov
Tony Joe White - Rain Crow (2016)

Tony Joe White - Rain Crow (2016)
EAC Rip | FLAC (Img) + Cue + Log ~ 273 Mb | Scans (JPG, 600 dpi) ~ 63 Mb | RAR 5% Recovery
Swamp Blues, Electric Blues, Folk Rock, Blues Rock | Yep Roc Records / Swamp Records #YEP-2450

Tony Joe White is a genre unto himself. Sure, there are other artists who can approximate White's rich gumbo of blues, rock, country, and bayou atmosphere, but almost 50 years after "Polk Salad Annie" made his name, you can still tell one of his records from its first few moments. 2016's Rain Crow confirms White hasn't lost his step in the recording studio. Produced by his son Jody White, Rain Crow is lean, dark, and tough; the bass and drums (Steve Forrest and Bryan Owings) are implacable and just a bit ominous, like the sound of horses galloping in the distance, while the flinty report of White's guitar sketches out the framework of the melodies and lets the listener's imagination do the rest. White's best music has always had more than one foot in the blues, and Rain Crow often recalls the hypnotic backwoods juke joint sounds of R.L. Burnside and Junior Kimbrough, built on a groove that travels as far and as deep as it needs to go. And White the storyteller is in great form on Rain Crow, from the tricky family tale of "The Middle of Nowhere" and the spooky happenings of "Conjure Child" to "Hoochie Woman"'s celebration of a woman who knows what to do with spice and shrimp. As for White's singing, that's where evaluating Rain Crow gets a bit complicated. These days, White's voice is a swampy croak that lacks the strength of his signature recordings of the '60s and '70s, and occasionally he's just hard to hear. But if White isn't much of a singer at the age of 72, his half-sung, half-mumbled vocals work unexpectedly well in context, suggesting some aging swampland griot, and they suit the late-night vibe of the material better than a stronger performance might. Rain Crow doesn't blaze many new trails for Tony Joe White, but it leaves no doubt that he's still the king of his own swampy sound, and he's not getting older, he's getting deeper.
~ Mark Deming, All Music

***************

Tony Joe White - Rain Crow (2016)

Track List:

01. Hoochie Woman [04:02]
02. The Bad Wind [04:54]
03. Rain Crow [04:57]
04. The Opening Of The Box [05:29]
05. Right Back In The Fire [05:01]
06. The Middle Of Nowhere [04:26]
07. Conjure Child [05:33]
08. Where Do They Go [04:34]
09. Tell Me A Swamp Story [06:04]

Exact Audio Copy V1.0 beta 3 from 29. August 2011

Отчёт EAC об извлечении, выполненном 27. мая 2016, 17:07

Tony Joe White / Rain Crow

Дисковод: PLEXTOR DVDR PX-880SA Adapter: 1 ID: 0

Режим чтения : Достоверность
Использование точного потока : Да
Отключение кэша аудио : Да
Использование указателей C2 : Нет

Коррекция смещения при чтении : 6
Способность читать области Lead-in и Lead-out : Нет
Заполнение пропущенных сэмплов тишиной : Да
Удаление блоков с тишиной в начале и конце : Нет
При вычислениях CRC использовались нулевые сэмплы : Да
Интерфейс : Установленный внешний ASPI-интерфейс

Выходной формат : Пользовательский кодировщик
Выбранный битрейт : 1024 kBit/s
Качество : Высокий
Добавление ID3-тега : Нет
Утилита сжатия : C:\Program Files\Exact Audio Copy\FLAC\FLAC.EXE
Дополнительные параметры : -8 -V -T "ARTIST=%artist%" -T "ALBUM=%albumtitle%" -T "DATE=%year%" -T "GENRE=%genre%" -T "COMMENT=ripped by izia1956" %source%


TOC извлечённого CD

Трек | Старт | Длительность | Начальный сектор | Конечный сектор
––––––––––––––––––––––––––––––––––-
1 | 0:00.00 | 4:01.46 | 0 | 18120
2 | 4:01.46 | 4:53.65 | 18121 | 40160
3 | 8:55.36 | 4:56.58 | 40161 | 62418
4 | 13:52.19 | 5:28.51 | 62419 | 87069
5 | 19:20.70 | 5:00.32 | 87070 | 109601
6 | 24:21.27 | 4:25.05 | 109602 | 129481
7 | 28:46.32 | 5:32.26 | 129482 | 154407
8 | 34:18.58 | 4:33.57 | 154408 | 174939
9 | 38:52.40 | 6:03.44 | 174940 | 202208


Характеристики диапазона извлечения и сообщения об ошибках

Выбранный диапазон

Имя файла D:\BitComet\Tony Joe White - Rain Crow (2016)\Tony Joe White - Rain Crow.wav

Пиковый уровень 94.9 %
Скорость извлечения 2.8 X
Качество диапазона 100.0 %
CRC теста 7FAD1B62
CRC копии 7FAD1B62
Копирование… OK

Ошибок не произошло


AccurateRip: сводка

Трек 1 отсутствует в базе данных
Трек 2 отсутствует в базе данных
Трек 3 отсутствует в базе данных
Трек 4 отсутствует в базе данных
Трек 5 отсутствует в базе данных
Трек 6 отсутствует в базе данных
Трек 7 отсутствует в базе данных
Трек 8 отсутствует в базе данных
Трек 9 отсутствует в базе данных

Ни одного трека нет в базе AccurateRip

Конец отчёта

==== Контрольная сумма отчёта C7A30E5EAB7731A6A2ADA3F63897B876A48746314E647018B0756251052CD0AF ====

foobar2000 1.2.6 / Dynamic Range Meter 1.1.1
log date: 2016-06-02 15:34:25

––––––––––––––––––––––––––––––––––––––––
Analyzed: Tony Joe White / Rain Crow
––––––––––––––––––––––––––––––––––––––––

DR Peak RMS Duration Track
––––––––––––––––––––––––––––––––––––––––
DR8 -0.45 dB -9.92 dB 4:02 01-Hoochie Woman
DR8 -0.45 dB -10.35 dB 4:54 02-The Bad Wind
DR9 -0.45 dB -11.21 dB 4:57 03-Rain Crow
DR11 -0.45 dB -12.25 dB 5:29 04-The Opening Of The Box
DR10 -0.45 dB -11.38 dB 5:00 05-Right Back In The Fire
DR11 -0.45 dB -12.78 dB 4:25 06-The Middle Of Nowhere
DR10 -0.45 dB -12.37 dB 5:32 07-Conjure Child
DR10 -0.45 dB -11.85 dB 4:34 08-Where Do They Go
DR12 -0.45 dB -13.67 dB 6:04 09-Tell Me A Swamp Story
––––––––––––––––––––––––––––––––––––––––

Number of tracks: 9
Official DR value: DR10

Samplerate: 44100 Hz
Channels: 2
Bits per sample: 16
Bitrate: 808 kbps
Codec: FLAC
================================================================================

[CUETools log; Date: 02.06.2016 15:34:24; Version: 2.1.5]
[CTDB TOCID: BXz3vdv0Zf0hIS9ps.55amvhl7o-] found.
Track | CTDB Status
1 | (2/2) Accurately ripped
2 | (2/2) Accurately ripped
3 | (2/2) Accurately ripped
4 | (2/2) Accurately ripped
5 | (2/2) Accurately ripped
6 | (2/2) Accurately ripped
7 | (2/2) Accurately ripped
8 | (2/2) Accurately ripped
9 | (2/2) Accurately ripped
[AccurateRip ID: 000eedec-006e6fb0-670a8809] found.
Track [ CRC | V2 ] Status
01 [90f072d8|201d8786] (0+2/2) Accurately ripped
02 [5bf0017f|d2b6ad69] (0+2/2) Accurately ripped
03 [ec45fdfd|f16ad31e] (0+2/2) Accurately ripped
04 [6c5ed2a6|496fc412] (0+2/2) Accurately ripped
05 [868259c8|d98260d2] (0+2/2) Accurately ripped
06 [0b2fb479|60fd2970] (0+2/2) Accurately ripped
07 [6afc0052|ad959108] (0+2/2) Accurately ripped
08 [399e607c|c9c36139] (0+2/2) Accurately ripped
09 [71c6034e|da1771aa] (0+2/2) Accurately ripped

Track Peak [ CRC32 ] [W/O NULL] [ LOG ]
– 94,9 [7FAD1B62] [C4BDCF84] CRC32
01 94,9 [80E8B67E] [6EBAC3D9]
02 94,9 [280E268B] [21AF7E97]
03 94,9 [4E771674] [31E9AC4D]
04 94,9 [940858B2] [AAFA0AD0]
05 94,9 [279B89D4] [050AFD0D]
06 94,9 [6348F374] [A0ACEED6]
07 94,9 [C1662379] [8B7C4D84]
08 94,9 [C09AB8F1] [F83156A6]
09 94,9 [68E5415F] [E11B6215]

Tony Joe White - Rain Crow (2016)

Tony Joe White - Rain Crow (2016)

All thanks go to izia1956

Tony Joe White in my blog!

Download:
Nitroflare: FLAC | Scans