Subcategories

Tony Joe White - One Hot July (1998) [Repost, New Rip]

Posted By: Designol
Tony Joe White - One Hot July (1998) [Repost, New Rip]

Tony Joe White - One Hot July (1998)
EAC | FLAC | Image (Cue&Log) ~ 417 Mb (incl 5%) | Mp3 (CBR320) ~ 156 Mb (incl 5%) | Scans ~ 184 Mb
Genre: Singer/Songwriter, Swamp Rock, Blues Rock, Country-Rock | Label: Mercury | # 558 894-2 | Time: 01:05:05

Tony Joe's first U.S. release since 1983 finds the swamp-rocker in rare form. Produced by Roger Davies – Tina Turner's manager/producer, and the one responsible for her '80s breakthrough – this is the most cohesive album he's made since his early Monument LPs with Billy Swan. Tony Joe is kept tightly focused with a small combo (Hammond organ, bass, drums), and the rest of the space in the mix is occupied by the star's funky guitar, harmonica, and breathy vocals, recorded so close he sounds like he's two inches from the listener's face. It also helps that Tony Joe's songwriting skills have only sharpened over the years; the disc is simply loaded with great songs, including "Crack the Window Baby," "Gumbo John," "I Want My Fleetwood Back," and the moody "Cold Fingers," "I Believe I've Lost My Way," and "Across From Midnight." One of his very best, and as highly recommended as they come.

Review by Cub Koda, Allmusic.com

Tony Joe White - One Hot July (1998) [Repost, New Rip]



Tracklist:

01. Crack The Window Baby (04:13)
02. Gumbo John (04:15)
03. Across From Midnight (04:38)
04. Goin' Down Rockin' (04:05)
05. Cold Fingers (04:31)
06. I Want My Fleetwood Back (05:04)
07. I Believe I've Lost My Way (06:59)
08. Don't Over Do It (03:59)
09. The Delta Singer (04:34)
10. Ol' Black Crow (05:34)
11. One Hot July (06:20)
12. Conjure Woman (05:34)
13. Selena (04:33)
14. One Hot July (String Ensemble) (00:40)


Exact Audio Copy V1.0 beta 3 from 29. August 2011

EAC extraction logfile from 11. December 2014, 12:19

Tony Joe White / One Hot July

Used drive : PLEXTOR DVDR PX-891SA Adapter: 0 ID: 2

Read mode : Secure
Utilize accurate stream : Yes
Defeat audio cache : Yes
Make use of C2 pointers : No

Read offset correction : 6
Overread into Lead-In and Lead-Out : No
Fill up missing offset samples with silence : Yes
Delete leading and trailing silent blocks : No
Null samples used in CRC calculations : Yes
Used interface : Installed external ASPI interface

Used output format : User Defined Encoder
Selected bitrate : 320 kBit/s
Quality : High
Add ID3 tag : No
Command line compressor : C:\Program Files\Exact Audio Copy 1.0\Flac\flac.exe
Additional command line options : -V -8 -T "Date=%year%" -T "Genre=%genre%" %source%


TOC of the extracted CD

Track | Start | Length | Start sector | End sector
––––––––––––––––––––––––––––-
1 | 0:00.00 | 4:13.10 | 0 | 18984
2 | 4:13.10 | 4:15.55 | 18985 | 38164
3 | 8:28.65 | 4:38.48 | 38165 | 59062
4 | 13:07.38 | 4:05.22 | 59063 | 77459
5 | 17:12.60 | 4:31.50 | 77460 | 97834
6 | 21:44.35 | 5:04.15 | 97835 | 120649
7 | 26:48.50 | 6:59.35 | 120650 | 152109
8 | 33:48.10 | 3:59.43 | 152110 | 170077
9 | 37:47.53 | 4:34.60 | 170078 | 190687
10 | 42:22.38 | 5:34.05 | 190688 | 215742
11 | 47:56.43 | 6:20.02 | 215743 | 244244
12 | 54:16.45 | 5:34.33 | 244245 | 269327
13 | 59:51.03 | 4:33.15 | 269328 | 289817
14 | 64:24.18 | 0:40.55 | 289818 | 292872


Range status and errors

Selected range

Filename K:\Lossless Temp\Tony Joe White\Tony Joe White - One Hot July - 1998 (1998 Mercury Records, 558 894-2, Germany)\Tony Joe White - One Hot July.wav

Peak level 99.9 %
Extraction speed 6.5 X
Range quality 99.9 %
Test CRC D23939B0
Copy CRC D23939B0
Copy OK

No errors occurred


AccurateRip summary

Track 1 accurately ripped (confidence 18) [61248C45] (AR v2)
Track 2 accurately ripped (confidence 17) [0CF3DBA6] (AR v2)
Track 3 accurately ripped (confidence 18) [66AABA45] (AR v2)
Track 4 accurately ripped (confidence 18) [BD9C0A9C] (AR v2)
Track 5 accurately ripped (confidence 18) [45E28DC8] (AR v2)
Track 6 accurately ripped (confidence 18) [4CD2BEC3] (AR v2)
Track 7 accurately ripped (confidence 18) [91282163] (AR v2)
Track 8 accurately ripped (confidence 18) [E4CFBB62] (AR v2)
Track 9 accurately ripped (confidence 18) [BCDF8FCC] (AR v2)
Track 10 accurately ripped (confidence 18) [D1EB2000] (AR v2)
Track 11 accurately ripped (confidence 18) [D710136C] (AR v2)
Track 12 accurately ripped (confidence 18) [56D0DE70] (AR v2)
Track 13 accurately ripped (confidence 18) [CE4A9E3C] (AR v2)
Track 14 accurately ripped (confidence 18) [AAEBB014] (AR v2)

All tracks accurately ripped

End of status report

==== Log checksum 35CFD0C7598F74A71622B178DC069023DACAE7BDC5E539BA769637F137A849CF ====

foobar2000 1.2 / Dynamic Range Meter 1.1.1
log date: 2015-09-08 20:48:26

––––––––––––––––––––––––––––––––––––––––
Analyzed: Tony Joe White / One Hot July
––––––––––––––––––––––––––––––––––––––––

DR Peak RMS Duration Track
––––––––––––––––––––––––––––––––––––––––
DR10 -0.01 dB -10.94 dB 4:13 01-Crack The Window Baby
DR8 -0.01 dB -10.01 dB 4:16 02-Gumbo John
DR10 -0.18 dB -11.43 dB 4:39 03-Across From Midnight
DR8 -0.14 dB -10.26 dB 4:05 04-Goin' Down Rockin'
DR10 -0.01 dB -11.92 dB 4:32 05-Cold Fingers
DR10 -0.18 dB -11.38 dB 5:04 06-I Want My Fleetwood Back
DR12 -0.01 dB -15.10 dB 6:59 07-I Believe I've Lost My Way
DR11 -0.18 dB -13.15 dB 4:00 08-Don't Over Do It
DR11 -0.01 dB -12.63 dB 4:35 09-The Delta Singer
DR9 -0.18 dB -11.42 dB 5:34 10-Ol' Black Crow
DR13 -0.19 dB -16.86 dB 6:20 11-One Hot July
DR10 -0.01 dB -11.68 dB 5:34 12-Conjure Woman
DR10 -0.06 dB -11.31 dB 4:33 13-Selena
DR8 -1.11 dB -15.10 dB 0:41 14-One Hot July (String Ensemble)
––––––––––––––––––––––––––––––––––––––––

Number of tracks: 14
Official DR value: DR10

Samplerate: 44100 Hz
Channels: 2
Bits per sample: 16
Bitrate: 853 kbps
Codec: FLAC
================================================================================

Tony Joe White - One Hot July (1998) [Repost, New Rip]

Tony Joe White - One Hot July (1998) [Repost, New Rip]