Subcategories

Tony MacAlpine - Concrete Gardens (2015)

Posted By: Andi_Deris
Tony MacAlpine - Concrete Gardens (2015)

Tony MacAlpine - Concrete Gardens (2015)
EAC Rip | FLAC: Image+Cue+Log | MP3 CBR 320 kbps | Scans
448 Mb | 146 Mb | Time: 59:15
Sun Dog Records | SDR 20151
Instrumental Rock, Progressive Metal

Two years in the making, Concrete Gardens comprises of 12 mind-blowing tracks and features Brazilian powerhouse drummer Aquiles Priester, bassist Pete Griffin, along with bass appearances from Sean Delson, Lucky Islam and Tony himself. The track “Square Circles” features a guitar duel with the mighty Jeff Loomis!



Tony MacAlpine - Concrete Gardens (2015)


Track Listing

01. Exhibitionist Blvd. (04:28)
02. The King's Rhapsody (04:45)
03. Man In A Metal Cage (04:20)
04. Poison Cookies (05:07)
05. Epic (05:01)
06. Napoleon's Puppet (05:13)
07. Sierra Morena (04:53)
08. Square Circles (05:13)
09. Red Giant (05:11)
10. Confessions Of A Medieval Monument (05:46)
11. Concrete Gardens (05:04)
12. Maiden's Wish (04:20)

Produced by Tony MacAlpine
Executive producer: Michael Mesker

Personnel

• Tony MacAlpine - guitar, keyboard, bass (tracks 2, 3, 5, 10)
• Aquiles Priester - drums
• Pete Griffin - bass (tracks 1, 4, 6–8)

*****
Jeff Loomis - guitar solo (track 8)
• Lucky Islam - bass (track 9)
• Sean Delson - bass (track 11)

Exact Audio Copy V1.0 beta 3 from 29. August 2011

EAC extraction logfile from 22. May 2015, 17:32

Tony MacAlpine / Concrete Gardens SDR20151)

Used drive : PLEXTOR BD-R PX-B940SA Adapter: 5 ID: 0

Read mode : Secure
Utilize accurate stream : Yes
Defeat audio cache : Yes
Make use of C2 pointers : No

Read offset correction : 667
Overread into Lead-In and Lead-Out : No
Fill up missing offset samples with silence : Yes
Delete leading and trailing silent blocks : No
Null samples used in CRC calculations : Yes
Used interface : Installed external ASPI interface

Used output format : User Defined Encoder
Selected bitrate : 128 kBit/s
Quality : High
Add ID3 tag : Yes
Command line compressor : G:\Program Files (x86)\Exact Audio Copy\Flac\flac.exe
Additional command line options : -V -8 -T "Date=%year%" -T "Genre=%genre%" %source%


TOC of the extracted CD

Track | Start | Length | Start sector | End sector
––––––––––––––––––––––––––––-
1 | 0:00.00 | 4:27.48 | 0 | 20072
2 | 4:27.48 | 4:44.67 | 20073 | 41439
3 | 9:12.40 | 4:19.68 | 41440 | 60932
4 | 13:32.33 | 5:05.71 | 60933 | 83878
5 | 18:38.29 | 5:00.16 | 83879 | 106394
6 | 23:38.45 | 5:12.51 | 106395 | 129845
7 | 28:51.21 | 4:52.02 | 129846 | 151747
8 | 33:43.23 | 5:12.19 | 151748 | 175166
9 | 38:55.42 | 5:10.26 | 175167 | 198442
10 | 44:05.68 | 5:45.41 | 198443 | 224358
11 | 49:51.34 | 5:03.24 | 224359 | 247107
12 | 54:54.58 | 4:19.17 | 247108 | 266549


Range status and errors

Selected range

Filename D:\MUSIC\Tony MacAlpine - Concrete Gardens SDR20151).wav

Peak level 99.9 %
Extraction speed 2.8 X
Range quality 99.9 %
Test CRC 63ED0400
Copy CRC 63ED0400
Copy OK

No errors occurred


AccurateRip summary

Track 1 not present in database
Track 2 not present in database
Track 3 not present in database
Track 4 not present in database
Track 5 not present in database
Track 6 not present in database
Track 7 not present in database
Track 8 not present in database
Track 9 not present in database
Track 10 not present in database
Track 11 not present in database
Track 12 not present in database

None of the tracks are present in the AccurateRip database

End of status report

==== Log checksum 39031EB49444C7389D6F5778F75D88645509F5882BBC6DD12566B6AB3646838C ====


Many thanks to the original uploader: rd



Password: pass