Subcategories

Tori Amos - Live at Montreux 1991 & 1992 (2008) 2 CD

Posted By: Designol
Tori Amos - Live at Montreux 1991 & 1992 (2008) 2 CD

Tori Amos - Live at Montreux 1991 & 1992 (2008) 2 CD
EAC | APE | Image (Cue&Log) ~ 543 Mb (incl 5%) | Mp3 (CBR320/Stereo) ~ 214 Mb (incl 5%) | Scans ~ 60 Mb
Genre: Piano Rock, Alternative Rock, Alternative Pop Rock | Label: Eagle Records | # EDGCD391 | Time: 01:30:34

These two concerts from Montreux in 1991 and 1992 catch Tori Amos right at the start of her solo career. The first, from July 1991, was filmed a few months before the release of her "Little Earthquakes" album and the second from July 1992 followed a few months after. There is a fascinating progression from one year to the next as she grows in confidence and skill as a live performer, buoyed by the critical and commercial success of the album. Naturally most of the songs are taken from "Little Earthquakes" but there are also rare songs from her various EPs released across the two years which didn't make it onto the album including her distinctive takes on Led Zeppelin's "Whole Lotta Love" and "Thank You" and Nirvana's "Smells Like Teen Spirit".
Tori Amos - Live at Montreux 1991 & 1992 (2008) 2 CD

The audience that turned up for a Moody Blues concert at the Montreux Jazz Festival in Switzerland on July 3, 1991, clearly didn't know what it was in for when it encountered the opening act, a totally unknown 27-year-old American singer/pianist named Tori Amos. Just as clearly, however, that audience was taken with Amos immediately. In that time and place, her similarity to Kate Bush would have been more apparent than it was, for instance, to Americans later. But Bush was never so provocative; she didn't sing about menstruation and orgasms the way Amos did, in intense performances that the rest of the music world would become familiar with starting about six months later when her debut solo album, Little Earthquakes began to get attention. The Moody Blues fans responded, listening carefully and applauding, even forgiving her for going up on the lyrics to "Happy Phantom," and after nine songs (seven that would appear on Little Earthquakes, plus the a cappella "Song for Eric" and "Upside Down," which later emerged as B-sides), they even brought her back for an encore, which turned out to be Led Zeppelin's "Thank You." Just over a year later, on July 7, 1992, she returned to Montreux as a headliner, having charted all over the world, and sang many of the same songs, adding an even more provocative one she hadn't risked the first time, "Me and a Gun," as well as a cover of Nirvana's "Smells Like Teen Spirit" and "Thank You" again, done as a medley with "Whole Lotta Love." (Notwithstanding her new status, she had to scold talkers during "Little Earthquakes," which hadn't been necessary the year before.) Finally available 16-17 years later, this album (also issued as a DVD with three extra songs from 1992) chronicles her breakthrough.
Review by William Ruhlmann, Allmusic.com
Biography
Official Website
Wiki

Tracklist:


CD1:
01. Silent All These Years [4:18]
02. Precious Things [4:40]
03. China [5:22]
04. Crucify [5:46]
05. Leather [4:01]
06. Song for Eric [1:33]
07. Upside Down [4:35]
08. Happy Phantom [3:39]
09. Winter [6:12]
10. Thank You [4:00]

CD2:
01. Little Earthquakes [6:01]
02. Crucify [5:57]
03. Silent All These Years [5:27]
04. Precious Things [5:25]
05. Happy Phantom [3:30]
06. Whole Lotta Love / Thank You [5:04]
07. Me and a Gun [5:04]
08. Winter [6:26]
09. Smells Like Teen Spirit [3:36]


Exact Audio Copy V0.99 prebeta 4 from 23. January 2008

EAC extraction logfile from 30. September 2008, 21:51

Tori Amos / Live at Montreux 1991-1992 (CD1)

Used drive : ASUS CRW-5232AS Adapter: 1 ID: 1

Read mode : Secure
Utilize accurate stream : Yes
Defeat audio cache : Yes
Make use of C2 pointers : No

Read offset correction : 6
Overread into Lead-In and Lead-Out : No
Fill up missing offset samples with silence : Yes
Delete leading and trailing silent blocks : No
Null samples used in CRC calculations : Yes
Used interface : Installed external ASPI interface

Used output format : Monkey's Audio Lossless Encoder v3.99 DLL
Sample format : Normal Lossless Compression


TOC of the extracted CD

Track | Start | Length | Start sector | End sector
––––––––––––––––––––––––––––-
1 | 0:00.00 | 4:18.08 | 0 | 19357
2 | 4:18.08 | 4:39.62 | 19358 | 40344
3 | 8:57.70 | 5:21.55 | 40345 | 64474
4 | 14:19.50 | 5:45.44 | 64475 | 90393
5 | 20:05.19 | 4:00.56 | 90394 | 108449
6 | 24:06.00 | 1:32.64 | 108450 | 115413
7 | 25:38.64 | 4:35.14 | 115414 | 136052
8 | 30:14.03 | 3:39.14 | 136053 | 152491
9 | 33:53.17 | 6:12.24 | 152492 | 180415
10 | 40:05.41 | 3:59.51 | 180416 | 198391


Range status and errors

Selected range

Filename E:\!tracker\TORIGRAPHY\2008(09) - (Double Album) - Live at Montreux 1991-1992\Tori Amos - Live at Montreux 1991-1992 (CD1).ape

Peak level 99.9 %
Range quality 99.9 %
Test CRC A5D91F14
Copy CRC A5D91F14
Copy OK

No errors occurred


AccurateRip summary

Track 1 not present in database
Track 2 not present in database
Track 3 not present in database
Track 4 not present in database
Track 5 not present in database
Track 6 not present in database
Track 7 not present in database
Track 8 not present in database
Track 9 not present in database
Track 10 not present in database

None of the tracks are present in the AccurateRip database

End of status report

Exact Audio Copy V0.99 prebeta 4 from 23. January 2008

EAC extraction logfile from 1. October 2008, 0:02

Tori Amos / Live at Montreux 1991-1992 (CD2)

Used drive : ASUS CRW-5232AS Adapter: 1 ID: 1

Read mode : Secure
Utilize accurate stream : Yes
Defeat audio cache : Yes
Make use of C2 pointers : No

Read offset correction : 6
Overread into Lead-In and Lead-Out : No
Fill up missing offset samples with silence : Yes
Delete leading and trailing silent blocks : No
Null samples used in CRC calculations : Yes
Used interface : Installed external ASPI interface

Used output format : Monkey's Audio Lossless Encoder v3.99 DLL
Sample format : Normal Lossless Compression


TOC of the extracted CD

Track | Start | Length | Start sector | End sector
––––––––––––––––––––––––––––-
1 | 0:00.00 | 6:01.11 | 0 | 27085
2 | 6:01.11 | 5:56.59 | 27086 | 53844
3 | 11:57.70 | 5:27.27 | 53845 | 78396
4 | 17:25.22 | 5:24.40 | 78397 | 102736
5 | 22:49.62 | 3:29.56 | 102737 | 118467
6 | 26:19.43 | 5:03.55 | 118468 | 141247
7 | 31:23.23 | 5:03.53 | 141248 | 164025
8 | 36:27.01 | 6:26.21 | 164026 | 192996
9 | 42:53.22 | 3:36.33 | 192997 | 209229


Range status and errors

Selected range

Filename E:\!tracker\TORIGRAPHY\2008(09) - (Double Album) - Live at Montreux 1991-1992\Tori Amos - Live at Montreux 1991-1992 (CD2).ape

Peak level 99.9 %
Range quality 100.0 %
Test CRC E23D2F70
Copy CRC E23D2F70
Copy OK

No errors occurred


AccurateRip summary

Track 1 not present in database
Track 2 not present in database
Track 3 not present in database
Track 4 not present in database
Track 5 not present in database
Track 6 not present in database
Track 7 not present in database
Track 8 not present in database
Track 9 not present in database

None of the tracks are present in the AccurateRip database

End of status report

[CUETools log; Date: 25.10.2011 21:52:12; Version: 2.1.1]
[AccurateRip ID: 0010df7d-0085e778-760a550a] found.
Track [ CRC ] Status
01 [34661c17] (21/25) Accurately ripped
02 [8af1a321] (22/26) Accurately ripped
03 [9ca4ead3] (22/26) Accurately ripped
04 [4d3adb36] (22/26) Accurately ripped
05 [602303cc] (22/26) Accurately ripped
06 [785548c8] (22/26) Accurately ripped
07 [ee955dd2] (22/26) Accurately ripped
08 [e50adb87] (22/26) Accurately ripped
09 [dc303908] (22/25) Accurately ripped
10 [f96b00c7] (22/26) Accurately ripped

Track Peak [ CRC32 ] [W/O NULL] [ LOG ]
– 99,9 [A5D91F14] [464CA57C] CRC32
01 99,9 [6794317D] [532C27EA]
02 99,9 [DAB62360] [868070D2]
03 99,9 [530BFF58] [21650741]
04 99,9 [90B861AF] [732B34CF]
05 99,9 [9C5DB7E5] [824092CA]
06 99,9 [FED5FB1B] [BD7411E0]
07 99,9 [AF5D44E0] [7E1999E7]
08 99,9 [90C8677D] [4CE05C66]
09 99,9 [78C46C79] [72B4841A]
10 99,9 [4039D82F] [C05F38C6]

[CUETools log; Date: 25.10.2011 21:52:45; Version: 2.1.1]
[AccurateRip ID: 00109a22-00784ce6-830ae509] found.
Track [ CRC ] Status
01 [94189325] (20/24) Accurately ripped
02 [22af2156] (20/24) Accurately ripped
03 [7e934add] (20/24) Accurately ripped
04 [fece98cb] (20/24) Accurately ripped
05 [94ee59f6] (20/24) Accurately ripped
06 [efe4fd1f] (20/24) Accurately ripped
07 [15d349db] (20/24) Accurately ripped
08 [5d7405f0] (20/23) Accurately ripped
09 [4752dd8c] (20/24) Accurately ripped

Track Peak [ CRC32 ] [W/O NULL] [ LOG ]
– 99,9 [E23D2F70] [72E6788C] CRC32
01 99,9 [3C5B6B8F] [1B3BE703]
02 99,9 [7CD84621] [37A9C422]
03 99,9 [B66ED35C] [DE3AAB00]
04 99,9 [20C76662] [E3609F7E]
05 99,9 [394092D5] [35D63334]
06 99,9 [8D4441A9] [6B6E3234]
07 99,8 [A8B7353C] [873E59BF]
08 99,9 [54F64F19] [DDC2FCF3]
09 99,9 [5AA90E2D] [866080AF]


Tori Amos - Live at Montreux 1991 & 1992 (2008) 2 CD

Tori Amos - Live at Montreux 1991 & 1992 (2008) 2 CD

All thanks to Caker for lossless release

Other albums By Tori Amos in My Blog

->> Welcome to Designol Blog <<-