Subcategories

BBC Philharmonic, Yan Pascal Tortelier - Ernest Chausson: Symphony in B flat; Viviane; Soir de fete; La tempete (1999)

Posted By: Designol
BBC Philharmonic, Yan Pascal Tortelier - Ernest Chausson: Symphony in B flat; Viviane; Soir de fete; La tempete (1999)

Ernest Chausson: Symphony in B flat; Viviane; Soir de fête; La tempête (1999)
BBC Philharmonic, conducted by Yan Pascal Tortelier

EAC | FLAC | Tracks (Cue&Log) ~ 318 Mb (incl 5%) | Mp3 (CBR320) ~ 183 Mb (incl 5%) | Scans included
Genre: Classical | Label: Chandos | # CHAN 9650 | Time: 01:07:21

Ernest Chausson’s death in 1899 in a bicycle accident robbed French music of a major talent. Almost his entire orchestral output fits on this extremely fine CD. Yan Pascal Tortelier’s performance of the richly romantic Symphony is the best since Munch’s Boston Symphony recording. Like Munch, Tortelier knows how to keep the music moving along–he’s only an insignificant two minutes slower than Munch for the whole work–without overindulging the more luscious moments, which in Chausson’s opulent setting really do take care of themselves. Even better, rather than some overplayed encore piece by another composer, the symphony is coupled with two very attractive, rarely heard tone poems and two charming orchestral excerpts from the composer’s incidental music to Shakespeare’s The Tempest. The orchestra plays with conviction, Chandos’ sonics are gorgeous, and if you don’t buy this disc, you’re missing out on some marvelous stuff.

Review by David Hurwitz, Classics Today

BBC Philharmonic, Yan Pascal Tortelier - Ernest Chausson: Symphony in B flat; Viviane; Soir de fete; La tempete (1999)



BBC Philharmonic, Yan Pascal Tortelier - Ernest Chausson: Symphony in B flat; Viviane; Soir de fete; La tempete (1999)



Tracklist:

Symphony in B flat, Op. 20
1. I. Lent [12:06]
2. II. Très lent - [8:29]
3. III. Animé [12:22]

4. Viviane, Op. 5 [12:01]

5. Soir de fête, Op. 32 [13:33]

La tempête, Op. 18 [8:16]
6. Air de danse - [3:24]
7. Danse rustique [4:52]


Exact Audio Copy V1.1 from 23. June 2015

EAC extraction logfile from 22. October 2016, 22:41

Chausson, Ernest / Orchestral Works - BBC Philharmonic, Yan Pascal Tortelier

Used drive : PLEXTOR CD-R PREMIUM2 Adapter: 5 ID: 1

Read mode : Secure
Utilize accurate stream : Yes
Defeat audio cache : Yes
Make use of C2 pointers : No

Read offset correction : 30
Overread into Lead-In and Lead-Out : Yes
Fill up missing offset samples with silence : Yes
Delete leading and trailing silent blocks : No
Null samples used in CRC calculations : Yes
Used interface : Installed external ASPI interface
Gap handling : Appended to previous track

Used output format : User Defined Encoder
Selected bitrate : 896 kBit/s
Quality : High
Add ID3 tag : No
Command line compressor : C:\Program Files\Exact Audio Copy\Flac\flac.exe
Additional command line options : -6 -V -T "ARTIST=%artist%" -T "TITLE=%title%" -T "ALBUM=%albumtitle%" -T "DATE=%year%" -T "PERFORMER=%albuminterpret%" -T "TRACKNUMBER=%tracknr%" -T "TOTALTRACKS=%numtracks%" -T "GENRE=%genre%" -T "COMPOSER=%composer%" -T "ALBUMARTIST=%albumartist%" -T "ALBUM ARTIST=%albumartist%" -T "COMMENT=EAC Secure Mode, Test & Copy, AccurateRip, FLAC -6" %source%


TOC of the extracted CD

Track | Start | Length | Start sector | End sector
––––––––––––––––––––––––––––-
1 | 0:00.00 | 12:12.62 | 0 | 54961
2 | 12:12.62 | 8:28.63 | 54962 | 93124
3 | 20:41.50 | 12:31.50 | 93125 | 149499
4 | 33:13.25 | 12:09.62 | 149500 | 204236
5 | 45:23.12 | 13:41.50 | 204237 | 265861
6 | 59:04.62 | 3:23.63 | 265862 | 281149
7 | 62:28.50 | 4:52.50 | 281150 | 303099


Track 1

Filename D:\EAC extraction\01 - Symphony in B flat, Op. 20 - I. Lent.wav

Pre-gap length 0:00:02.00

Peak level 98.8 %
Extraction speed 1.9 X
Track quality 100.0 %
Test CRC 64F84F37
Copy CRC 64F84F37
Cannot be verified as accurate (confidence 7) [A0981F23], AccurateRip returned [49E161D0] (AR v2)
Copy OK

Track 2

Filename D:\EAC extraction\02 - Symphony in B flat, Op. 20 - II. Tres lent -.wav

Pre-gap length 0:00:05.62

Peak level 97.5 %
Extraction speed 1.9 X
Track quality 100.0 %
Test CRC 0AC2DC98
Copy CRC 0AC2DC98
Cannot be verified as accurate (confidence 7) [F6B764FE], AccurateRip returned [2EF0B097] (AR v2)
Copy OK

Track 3

Filename D:\EAC extraction\03 - Symphony in B flat, Op. 20 - III. Anime.wav

Peak level 93.6 %
Extraction speed 1.9 X
Track quality 100.0 %
Test CRC 171380F7
Copy CRC 171380F7
Cannot be verified as accurate (confidence 7) [74A2DC27], AccurateRip returned [06EA2912] (AR v2)
Copy OK

Track 4

Filename D:\EAC extraction\04 - Viviane, Op. 5.wav

Pre-gap length 0:00:09.25

Peak level 98.8 %
Extraction speed 1.9 X
Track quality 100.0 %
Test CRC F3C93C46
Copy CRC F3C93C46
Cannot be verified as accurate (confidence 7) [104C85F0], AccurateRip returned [8776D457] (AR v2)
Copy OK

Track 5

Filename D:\EAC extraction\05 - Soir de fete, Op. 32.wav

Pre-gap length 0:00:08.12

Peak level 98.8 %
Extraction speed 1.9 X
Track quality 99.9 %
Test CRC 01D50C96
Copy CRC 01D50C96
Cannot be verified as accurate (confidence 7) [3FA1B211], AccurateRip returned [A34DFED1] (AR v2)
Copy OK

Track 6

Filename D:\EAC extraction\06 - La tempete, Op. 18 - Air de danse -.wav

Pre-gap length 0:00:07.62

Peak level 43.3 %
Extraction speed 1.8 X
Track quality 99.9 %
Test CRC 8448AD06
Copy CRC 8448AD06
Cannot be verified as accurate (confidence 7) [234FC400], AccurateRip returned [AFDDA2C5] (AR v2)
Copy OK

Track 7

Filename D:\EAC extraction\07 - La tempete, Op. 18 - Danse rustique.wav

Peak level 97.0 %
Extraction speed 1.9 X
Track quality 100.0 %
Test CRC D967AA9D
Copy CRC D967AA9D
Cannot be verified as accurate (confidence 7) [C6FB8A1E], AccurateRip returned [7AEC7B3E] (AR v2)
Copy OK


No tracks could be verified as accurate
You may have a different pressing from the one(s) in the database

No errors occurred

End of status report

–– CUETools DB Plugin V2.1.6

[CTDB TOCID: kJujWPT.HD89DYPicVthHAtTNng-] found
Submit result: already submitted
Track | CTDB Status
1 | (7/7) Accurately ripped
2 | (7/7) Accurately ripped
3 | (7/7) Accurately ripped
4 | (7/7) Accurately ripped
5 | (7/7) Accurately ripped
6 | (7/7) Accurately ripped
7 | (7/7) Accurately ripped


==== Log checksum 581F3C5D85A4E6BAA3A16C060225057CFF47110E9BBD2C1EC05FAB98DE6D7C4E ====

foobar2000 1.2 / Dynamic Range Meter 1.1.1
log date: 2016-10-26 18:47:08

––––––––––––––––––––––––––––––––––––––––
Analyzed: Chausson, Ernest / Orchestral Works - BBC Philharmonic, Yan Pascal Tortelier
––––––––––––––––––––––––––––––––––––––––

DR Peak RMS Duration Track
––––––––––––––––––––––––––––––––––––––––
DR15 -0.10 dB -21.66 dB 12:13 01-Symphony in B flat, Op. 20 - I. Lent
DR14 -0.21 dB -20.45 dB 8:29 02-Symphony in B flat, Op. 20 - II. Très lent -
DR13 -0.57 dB -20.34 dB 12:32 03-Symphony in B flat, Op. 20 - III. Animé
DR17 -0.10 dB -24.44 dB 12:10 04-Viviane, Op. 5
DR16 -0.10 dB -22.66 dB 13:42 05-Soir de fête, Op. 32
DR12 -7.25 dB -25.95 dB 3:24 06-La tempête, Op. 18 - Air de danse -
DR14 -0.26 dB -21.59 dB 4:53 07-La tempête, Op. 18 - Danse rustique
––––––––––––––––––––––––––––––––––––––––

Number of tracks: 7
Official DR value: DR14

Samplerate: 44100 Hz
Channels: 2
Bits per sample: 16
Bitrate: 593 kbps
Codec: FLAC
================================================================================

BBC Philharmonic, Yan Pascal Tortelier - Ernest Chausson: Symphony in B flat; Viviane; Soir de fete; La tempete (1999)

BBC Philharmonic, Yan Pascal Tortelier - Ernest Chausson: Symphony in B flat; Viviane; Soir de fete; La tempete (1999)