Subcategories

Trevor Pinnock - Bach: 6 Partitas; Goldberg Variations; French Overture; Italian Concerto (2003)

Posted By: murena
Trevor Pinnock - Bach: 6 Partitas; Goldberg Variations; French Overture; Italian Concerto (2003)

Trevor Pinnock - Bach: 6 Partitas; Goldberg Variations; French Overture; Italian Concerto (2003)
EAC Rip | FLAC (Image+.cue, log) | 03:50:00 min | 1,37 Gb | Scans -> 11,2 mb
Genre: Classical / Label: DG Archiv

For those uninitiated into the world of Baroque or harpsichord music, be forewarned: this budget-priced trio of CDs from Archiv is a hefty amount of Bach on the harpsichord. These are reissues of recordings of Bach's greatest keyboard works made in the early '80s by Trevor Pinnock. While you may be able to listen to nearly four straight hours of Bach, some may find it hard to listen to the harpsichord for that long. Three different harpsichords were used in these recordings, so the sound does vary from work to work, and these are harpsichords with a more gentle, mellower sound than other instruments. Even within the works, Pinnock employs different stops to add another dimension to each movement's coloring. He plays with dexterity and even spirit, primarily in the faster movements. The Partitas and the Italian Concerto are performed with confidence and strength, with attention paid to the articulation of rhythms and syncopations. His playing of the French Overture and the Goldberg Variations is more learned and drier than the other works, but they are still very well-done performances, making the set well worth its price. But if you aren't used to the sound of the harpsichord, take your time getting to know the instrument by listening to one work at a time.

Tracklist:

Disc: 1
1. Partita for keyboard No. 1 in B flat major, BWV 825 (BC L1): 1. Praeludium
2. Partita for keyboard No. 1 in B flat major, BWV 825 (BC L1): 2. Allemande
3. Partita for keyboard No. 1 in B flat major, BWV 825 (BC L1): 3. Corrente
4. Partita for keyboard No. 1 in B flat major, BWV 825 (BC L1): 4. Sarabande
5. Partita for keyboard No. 1 in B flat major, BWV 825 (BC L1): 5. Menuet I/II
6. Partita for keyboard No. 1 in B flat major, BWV 825 (BC L1): 6. Gigue
7. Partita for keyboard No. 2 in C minor, BWV 826 (BC L2): 1. Sinfonia. Grave adagio - (Allegro)
8. Partita for keyboard No. 2 in C minor, BWV 826 (BC L2): 2. Allemande
9. Partita for keyboard No. 2 in C minor, BWV 826 (BC L2): 3. Courante
10. Partita for keyboard No. 2 in C minor, BWV 826 (BC L2): 4. Sarabande
11. Partita for keyboard No. 2 in C minor, BWV 826 (BC L2): 5. Rondeaux
12. Partita for keyboard No. 2 in C minor, BWV 826 (BC L2): 6. Capriccio
13. Partita for keyboard No. 3 in A minor, BWV 827 (BC L3): 1. Fantasia
14. Partita for keyboard No. 3 in A minor, BWV 827 (BC L3): 2. Allemande
15. Partita for keyboard No. 3 in A minor, BWV 827 (BC L3): 3. Corrente
16. Partita for keyboard No. 3 in A minor, BWV 827 (BC L3): 4. Sarabande
17. Partita for keyboard No. 3 in A minor, BWV 827 (BC L3): 5. Burlesca
18. Partita for keyboard No. 3 in A minor, BWV 827 (BC L3): 6. Scherzo
19. Partita for keyboard No. 3 in A minor, BWV 827 (BC L3): 7. Gigue
20. Partita for keyboard No. 5 in G major, BWV 829 (BC L5): 1. Praeambulum
21. Partita for keyboard No. 5 in G major, BWV 829 (BC L5): 2. Allemande
22. Partita for keyboard No. 5 in G major, BWV 829 (BC L5): 3. Corrente
23. Partita for keyboard No. 5 in G major, BWV 829 (BC L5): 4. Sarabande
24. Partita for keyboard No. 5 in G major, BWV 829 (BC L5): 5. Tempo di Minuetto
25. Partita for keyboard No. 5 in G major, BWV 829 (BC L5): 6. Passepied
26. Partita for keyboard No. 5 in G major, BWV 829 (BC L5): 7. Gigue

Exact Audio Copy V0.99 prebeta 5 from 4. May 2009

Отчёт EAC об извлечении, выполненном 23. октября 2011, 22:07

Trevor Pinnock / Bach: 6 Partitas · Goldberg Variations · French Overture · Italian Concerto [disc 1]

Дисковод: _NEC DVD_RW ND-3570A Adapter: 3 ID: 0

Режим чтения : Достоверность
Использование точного потока : Да
Отключение кэша аудио : Да
Использование указателей C2 : Нет

Коррекция смещения при чтении : 48
Способность читать области Lead-in и Lead-out : Нет
Заполнение пропущенных сэмплов тишиной : Да
Удаление блоков с тишиной в начале и конце : Нет
При вычислениях CRC использовались нулевые сэмплы : Да
Интерфейс : Установленный внешний ASPI-интерфейс

Выходной формат : Пользовательский кодировщик
Выбранный битрейт : 128 kBit/s
Качество : Высокий
Добавление ID3-тэга : Нет
Утилита сжатия : C:\Program Files\Exact Audio Copy\Flac\flac.exe
Дополнительные параметры : -8 -V -T "ARTIST=%a" -T "TITLE=%t" -T "ALBUM=%g" -T "DATE=%y" -T "TRACKNUMBER=%n" -T "GENRE=%m" -T "COMMENT=EAC FLAC -8" %s


TOC извлечённого CD

Трек | Старт | Длительность | Начальный сектор | Конечный сектор
––––––––––––––––––––––––––––––––––-
1 | 0:00.00 | 1:58.31 | 0 | 8880
2 | 1:58.31 | 4:14.35 | 8881 | 27965
3 | 6:12.66 | 2:51.65 | 27966 | 40855
4 | 9:04.56 | 4:12.20 | 40856 | 59775
5 | 13:17.01 | 2:35.50 | 59776 | 71450
6 | 15:52.51 | 2:32.33 | 71451 | 82883
7 | 18:25.09 | 4:36.50 | 82884 | 103633
8 | 23:01.59 | 5:33.03 | 103634 | 128611
9 | 28:34.62 | 2:02.06 | 128612 | 137767
10 | 30:36.68 | 2:49.70 | 137768 | 150512
11 | 33:26.63 | 1:26.71 | 150513 | 157033
12 | 34:53.59 | 3:41.07 | 157034 | 173615
13 | 38:34.66 | 2:19.14 | 173616 | 184054
14 | 40:54.05 | 3:22.52 | 184055 | 199256
15 | 44:16.57 | 1:55.52 | 199257 | 207933
16 | 46:12.34 | 3:49.72 | 207934 | 225180
17 | 50:02.31 | 1:54.70 | 225181 | 233800
18 | 51:57.26 | 1:14.00 | 233801 | 239350
19 | 53:11.26 | 3:37.71 | 239351 | 255696
20 | 56:49.22 | 2:51.00 | 255697 | 268521
21 | 59:40.22 | 4:05.71 | 268522 | 286967
22 | 63:46.18 | 1:54.45 | 286968 | 295562
23 | 65:40.63 | 3:49.34 | 295563 | 312771
24 | 69:30.22 | 1:16.09 | 312772 | 318480
25 | 70:46.31 | 1:43.20 | 318481 | 326225
26 | 72:29.51 | 4:20.33 | 326226 | 345758


Характеристики диапазона извлечения и сообщения об ошибках

Выбранный диапазон

Имя файла F:\Exact Audio Copy\Bach - Partitas ect. - Pinnock\Trevor Pinnock - Bach 6 Partitas · Goldberg Variations · French Overture · Italian Concerto [disc 1].wav

Пиковый уровень 89.7 %
Качество диапазона 100.0 %
CRC теста 444AC05A
CRC копии 444AC05A
Копирование… OK

Ошибок не произошло


AccurateRip: сводка

Трек 1 точное извлечение (доверие 8) [711BB76D]
Трек 2 точное извлечение (доверие 8) [66B7D8B9]
Трек 3 точное извлечение (доверие 8) [9A4BEB94]
Трек 4 точное извлечение (доверие 8) [DA76D2A0]
Трек 5 точное извлечение (доверие 8) [6935F13C]
Трек 6 точное извлечение (доверие 8) [435F0C1F]
Трек 7 точное извлечение (доверие 8) [AB36C2DE]
Трек 8 точное извлечение (доверие 8) [30E4A31E]
Трек 9 точное извлечение (доверие 8) [98134EA2]
Трек 10 точное извлечение (доверие 8) [9E24A707]
Трек 11 точное извлечение (доверие 8) [2894536D]
Трек 12 точное извлечение (доверие 8) [B70330B8]
Трек 13 точное извлечение (доверие 8) [0AB9707D]
Трек 14 точное извлечение (доверие 8) [8DBD13CE]
Трек 15 точное извлечение (доверие 8) [BEF1419C]
Трек 16 точное извлечение (доверие 8) [007B341D]
Трек 17 точное извлечение (доверие 8) [C6E69494]
Трек 18 точное извлечение (доверие 8) [509D1ECA]
Трек 19 точное извлечение (доверие 8) [813186EF]
Трек 20 точное извлечение (доверие 8) [1A686FC4]
Трек 21 точное извлечение (доверие 8) [895C2A50]
Трек 22 точное извлечение (доверие 8) [B71EAB34]
Трек 23 точное извлечение (доверие 8) [7CD3C52E]
Трек 24 точное извлечение (доверие 8) [E449DC89]
Трек 25 точное извлечение (доверие 8) [BC612678]
Трек 26 точное извлечение (доверие 8) [EAD498F5]

Все треки извлечены точно

Конец отчёта


Disc: 2
1. Partita for keyboard No. 4 in D major, BWV 828 (BC L4): 1. Overture
2. Partita for keyboard No. 4 in D major, BWV 828 (BC L4): 2. Allemande
3. Partita for keyboard No. 4 in D major, BWV 828 (BC L4): 3. Courante
4. Partita for keyboard No. 4 in D major, BWV 828 (BC L4): 4. Aria
5. Partita for keyboard No. 4 in D major, BWV 828 (BC L4): 5. Sarabande
6. Partita for keyboard No. 4 in D major, BWV 828 (BC L4): 6. Menuet
7. Partita for keyboard No. 4 in D major, BWV 828 (BC L4): 7. Gigue
8. Partita for keyboard No. 6 in E minor, BWV 830 (BC L6): 1. Toccata
9. Partita for keyboard No. 6 in E minor, BWV 830 (BC L6): 2. Allemanda
10. Partita for keyboard No. 6 in E minor, BWV 830 (BC L6): 3. Corrente
11. Partita for keyboard No. 6 in E minor, BWV 830 (BC L6): 4. Air
12. Partita for keyboard No. 6 in E minor, BWV 830 (BC L6): 5. Sarabande
13. Partita for keyboard No. 6 in E minor, BWV 830 (BC L6): 6. Tempo di Gavotta
14. Partita for keyboard No. 6 in E minor, BWV 830 (BC L6): 7. Gigue
15. Overture in the French Manner, partita for keyboard in B minor (Clavier-Übung II/2), BWV 831: 6. Bourée I/II
16. Overture in the French Manner, partita for keyboard in B minor (Clavier-Übung II/2), BWV 831: 7. Gigue
17. Overture in the French Manner, partita for keyboard in B minor (Clavier-Übung II/2), BWV 831: 8. Echo

Exact Audio Copy V0.99 prebeta 5 from 4. May 2009

Отчёт EAC об извлечении, выполненном 24. октября 2011, 11:11

Trevor Pinnock / Bach: 6 Partitas · Goldberg Variations · French Overture · Italian Concerto [disc 2]

Дисковод: _NEC DVD_RW ND-3570A Adapter: 3 ID: 1

Режим чтения : Достоверность
Использование точного потока : Да
Отключение кэша аудио : Да
Использование указателей C2 : Нет

Коррекция смещения при чтении : 48
Способность читать области Lead-in и Lead-out : Нет
Заполнение пропущенных сэмплов тишиной : Да
Удаление блоков с тишиной в начале и конце : Нет
При вычислениях CRC использовались нулевые сэмплы : Да
Интерфейс : Установленный внешний ASPI-интерфейс

Выходной формат : Пользовательский кодировщик
Выбранный битрейт : 128 kBit/s
Качество : Высокий
Добавление ID3-тэга : Нет
Утилита сжатия : C:\Program Files\Exact Audio Copy\Flac\flac.exe
Дополнительные параметры : -8 -V -T "ARTIST=%a" -T "TITLE=%t" -T "ALBUM=%g" -T "DATE=%y" -T "TRACKNUMBER=%n" -T "GENRE=%m" -T "COMMENT=EAC FLAC -8" %s


TOC извлечённого CD

Трек | Старт | Длительность | Начальный сектор | Конечный сектор
––––––––––––––––––––––––––––––––––-
1 | 0:00.00 | 6:38.52 | 0 | 29901
2 | 6:38.52 | 5:38.29 | 29902 | 55280
3 | 12:17.06 | 2:29.30 | 55281 | 66485
4 | 14:46.36 | 1:33.15 | 66486 | 73475
5 | 16:19.51 | 4:32.02 | 73476 | 93877
6 | 20:51.53 | 1:27.72 | 93878 | 100474
7 | 22:19.50 | 4:04.50 | 100475 | 118824
8 | 26:24.25 | 7:46.36 | 118825 | 153810
9 | 34:10.61 | 3:05.44 | 153811 | 167729
10 | 37:16.30 | 3:12.51 | 167730 | 182180
11 | 40:29.06 | 1:43.07 | 182181 | 189912
12 | 42:12.13 | 4:18.71 | 189913 | 209333
13 | 46:31.09 | 1:24.11 | 209334 | 215644
14 | 47:55.20 | 5:09.36 | 215645 | 238855
15 | 53:04.56 | 7:31.71 | 238856 | 272751
16 | 60:36.52 | 1:46.53 | 272752 | 280754
17 | 62:23.30 | 2:57.74 | 280755 | 294103
18 | 65:21.29 | 2:33.67 | 294104 | 305645
19 | 67:55.21 | 5:02.23 | 305646 | 328318
20 | 72:57.44 | 2:41.70 | 328319 | 340463
21 | 75:39.39 | 2:04.11 | 340464 | 349774
22 | 77:43.50 | 3:00.65 | 349775 | 363339


Характеристики диапазона извлечения и сообщения об ошибках

Выбранный диапазон

Имя файла F:\Exact Audio Copy\Bach - Partitas ect. - Pinnock\CD2\Trevor Pinnock - Bach 6 Partitas · Goldberg Variations · French Overture · Italian Concerto [disc 2].wav

Пиковый уровень 89.1 %
Качество диапазона 100.0 %
CRC теста F4609747
CRC копии F4609747
Копирование… OK

Ошибок не произошло


AccurateRip: сводка

Трек 1 точность не определена (достоверность 6) [AE1CB5D6], AccurateRip вернул [97ADDC58]
Трек 2 точность не определена (достоверность 6) [AC878574], AccurateRip вернул [304AA7F7]
Трек 3 точность не определена (достоверность 5) [1DCDB1F4], AccurateRip вернул [129AB045]
Трек 4 точность не определена (достоверность 6) [C7AC8CD4], AccurateRip вернул [A9CEE00E]
Трек 5 точность не определена (достоверность 6) [286E0490], AccurateRip вернул [2C6AE10C]
Трек 6 точность не определена (достоверность 6) [4834C9E0], AccurateRip вернул [3C69D198]
Трек 7 точность не определена (достоверность 6) [BBEA3F55], AccurateRip вернул [B0E13041]
Трек 8 точность не определена (достоверность 6) [FE00D399], AccurateRip вернул [125F9365]
Трек 9 точность не определена (достоверность 6) [D9969087], AccurateRip вернул [0BCF1EFB]
Трек 10 точность не определена (достоверность 6) [2D07C60F], AccurateRip вернул [0B64F381]
Трек 11 точность не определена (достоверность 6) [6E37E7BF], AccurateRip вернул [9BAF30AE]
Трек 12 точность не определена (достоверность 6) [9BF1278D], AccurateRip вернул [9805EEB6]
Трек 13 точность не определена (достоверность 6) [B71092F4], AccurateRip вернул [141B7B4E]
Трек 14 точность не определена (достоверность 6) [2CC5EDEF], AccurateRip вернул [B14523BF]
Трек 15 точность не определена (достоверность 6) [D18D13F6], AccurateRip вернул [231305FD]
Трек 16 точность не определена (достоверность 6) [AEAC0BD8], AccurateRip вернул [53F16A73]
Трек 17 точность не определена (достоверность 6) [385BA991], AccurateRip вернул [C71EBE78]
Трек 18 точность не определена (достоверность 6) [E994C5CB], AccurateRip вернул [6530334C]
Трек 19 точность не определена (достоверность 6) [63DA2FF0], AccurateRip вернул [992A98E8]
Трек 20 точность не определена (достоверность 6) [49794A72], AccurateRip вернул [3AF5D6B3]
Трек 21 точность не определена (достоверность 6) [459D77AB], AccurateRip вернул [77744C5A]
Трек 22 точность не определена (достоверность 6) [56C0CBB2], AccurateRip вернул [4DB4E788]

Ни один трек не прошёл проверки на точность
В вашей базе может быть иной вариант штамповки диска

Конец отчёта


Disc: 3
1. Goldberg Variations, for keyboard (Clavier-Übung IV), BWV 988 (BC L9): Variatio 5
2. Goldberg Variations, for keyboard (Clavier-Übung IV), BWV 988 (BC L9): Variatio 6
3. Goldberg Variations, for keyboard (Clavier-Übung IV), BWV 988 (BC L9): Variatio 7
4. Goldberg Variations, for keyboard (Clavier-Übung IV), BWV 988 (BC L9): Variatio 8

Exact Audio Copy V0.99 prebeta 5 from 4. May 2009

Отчёт EAC об извлечении, выполненном 24. октября 2011, 11:47

Trevor Pinnock / Bach: 6 Partitas · Goldberg Variations · French Overture · Italian Concerto [disc 3]

Дисковод: _NEC DVD_RW ND-3570A Adapter: 3 ID: 1

Режим чтения : Достоверность
Использование точного потока : Да
Отключение кэша аудио : Да
Использование указателей C2 : Нет

Коррекция смещения при чтении : 48
Способность читать области Lead-in и Lead-out : Нет
Заполнение пропущенных сэмплов тишиной : Да
Удаление блоков с тишиной в начале и конце : Нет
При вычислениях CRC использовались нулевые сэмплы : Да
Интерфейс : Установленный внешний ASPI-интерфейс

Выходной формат : Пользовательский кодировщик
Выбранный битрейт : 128 kBit/s
Качество : Высокий
Добавление ID3-тэга : Нет
Утилита сжатия : C:\Program Files\Exact Audio Copy\Flac\flac.exe
Дополнительные параметры : -8 -V -T "ARTIST=%a" -T "TITLE=%t" -T "ALBUM=%g" -T "DATE=%y" -T "TRACKNUMBER=%n" -T "GENRE=%m" -T "COMMENT=EAC FLAC -8" %s


TOC извлечённого CD

Трек | Старт | Длительность | Начальный сектор | Конечный сектор
––––––––––––––––––––––––––––––––––-
1 | 0:00.00 | 3:51.31 | 0 | 17355
2 | 3:51.31 | 4:30.11 | 17356 | 37616
3 | 8:21.42 | 4:00.06 | 37617 | 55622
4 | 12:21.48 | 2:32.49 | 55623 | 67071
5 | 14:54.22 | 2:12.05 | 67072 | 76976
6 | 17:06.27 | 1:35.37 | 76977 | 84138
7 | 18:41.64 | 0:56.36 | 84139 | 88374
8 | 19:38.25 | 1:05.27 | 88375 | 93276
9 | 20:43.52 | 1:42.50 | 93277 | 100976
10 | 22:26.27 | 1:38.42 | 100977 | 108368
11 | 24:04.69 | 0:51.70 | 108369 | 112263
12 | 24:56.64 | 1:50.03 | 112264 | 120516
13 | 26:46.67 | 1:32.45 | 120517 | 127461
14 | 28:19.37 | 1:40.52 | 127462 | 135013
15 | 30:00.14 | 2:08.10 | 135014 | 144623
16 | 32:08.24 | 2:28.28 | 144624 | 155751
17 | 34:36.52 | 2:39.02 | 155752 | 167678
18 | 37:15.54 | 1:59.00 | 167679 | 176603
19 | 39:14.54 | 2:32.53 | 176604 | 188056
20 | 41:47.32 | 2:40.67 | 188057 | 200123
21 | 44:28.24 | 0:57.10 | 200124 | 204408
22 | 45:25.34 | 1:31.43 | 204409 | 211276
23 | 46:57.02 | 1:33.30 | 211277 | 218281
24 | 48:30.32 | 1:58.60 | 218282 | 227191
25 | 50:29.17 | 2:21.20 | 227192 | 237786
26 | 52:50.37 | 1:30.32 | 237787 | 244568
27 | 54:20.69 | 2:11.21 | 244569 | 254414
28 | 56:32.15 | 1:36.62 | 254415 | 261676
29 | 58:09.02 | 4:26.50 | 261677 | 281676
30 | 62:35.52 | 2:16.40 | 281677 | 291916
31 | 64:52.17 | 0:53.52 | 291917 | 295943
32 | 65:45.69 | 1:09.35 | 295944 | 301153
33 | 66:55.29 | 1:11.08 | 301154 | 306486
34 | 68:06.37 | 2:17.00 | 306487 | 316761
35 | 70:23.37 | 2:42.66 | 316762 | 328977


Характеристики диапазона извлечения и сообщения об ошибках

Выбранный диапазон

Имя файла F:\Exact Audio Copy\Bach - Partitas ect. - Pinnock\CD3\Trevor Pinnock - Bach 6 Partitas · Goldberg Variations · French Overture · Italian Concerto [disc 3].wav

Пиковый уровень 96.8 %
Качество диапазона 100.0 %
CRC теста 4764DD28
CRC копии 4764DD28
Копирование… OK

Ошибок не произошло


AccurateRip: сводка

Трек 1 точное извлечение (доверие 7) [7C02174A]
Трек 2 точное извлечение (доверие 6) [58933452]
Трек 3 точное извлечение (доверие 7) [43601451]
Трек 4 точное извлечение (доверие 7) [B6D76CB3]
Трек 5 точное извлечение (доверие 7) [C2AC9A9B]
Трек 6 точное извлечение (доверие 7) [21CFFA3A]
Трек 7 точное извлечение (доверие 7) [8DCDD1A5]
Трек 8 точное извлечение (доверие 7) [6AA20EB7]
Трек 9 точное извлечение (доверие 7) [AA4DBAA4]
Трек 10 точное извлечение (доверие 7) [99F1314D]
Трек 11 точное извлечение (доверие 7) [1015E849]
Трек 12 точное извлечение (доверие 7) [BB4EF6D8]
Трек 13 точное извлечение (доверие 7) [2FC48B34]
Трек 14 точное извлечение (доверие 7) [DBBBA487]
Трек 15 точное извлечение (доверие 7) [3558EA62]
Трек 16 точное извлечение (доверие 7) [20404192]
Трек 17 точное извлечение (доверие 7) [A304B810]
Трек 18 точное извлечение (доверие 7) [2B9E3244]
Трек 19 точное извлечение (доверие 7) [DD2E4643]
Трек 20 точное извлечение (доверие 7) [2D1B0973]
Трек 21 точное извлечение (доверие 7) [3D80FAF9]
Трек 22 точное извлечение (доверие 7) [F39A7A08]
Трек 23 точное извлечение (доверие 7) [FD004F2A]
Трек 24 точное извлечение (доверие 7) [94024016]
Трек 25 точное извлечение (доверие 7) [BFE3DFD8]
Трек 26 точное извлечение (доверие 7) [725D5BFF]
Трек 27 точное извлечение (доверие 7) [F9607E70]
Трек 28 точное извлечение (доверие 7) [4EBA0206]
Трек 29 точное извлечение (доверие 7) [228E1A27]
Трек 30 точное извлечение (доверие 7) [284AF9C4]
Трек 31 точное извлечение (доверие 7) [BE0F07BB]
Трек 32 точное извлечение (доверие 7) [802C5946]
Трек 33 точное извлечение (доверие 7) [B722D6B5]
Трек 34 точное извлечение (доверие 7) [1AF3EB61]
Трек 35 точное извлечение (доверие 7) [52F4D74B]

Все треки извлечены точно

Конец отчёта


Trevor Pinnock - Bach: 6 Partitas; Goldberg Variations; French Overture; Italian Concerto (2003)


Thanks to original ripper.