Subcategories

Tricky - Angels With Dirty Faces (1998) [14 Tracks Edition]

Posted By: Designol
Tricky - Angels With Dirty Faces (1998) [14 Tracks Edition]

Tricky - Angels With Dirty Faces (1998) [14 Tracks]
EAC | APE | Image (Cue&Log) ~ 381 Mb (incl 5%) | Mp3 (CBR320/Stereo) ~ 151 Mb (incl 5%) | Scans included
Genre: Trip Hop, Alternative | Label: Island | # CID 8071, 524 536-2 | Time: 00:59:38

"Mellow" might have been recorded in a shipyard–augmenting Jack Hersca's nagging if fetching guitar and Gene Lake's steady if seething drums is a rhythm element that suggests a boat whistle heard across a moonless harbor. Next track the artist makes his pop bid with a catchy femme-chorus refrain and a guest star: Polly Jean Harvey, what a draw! For another three songs, a decent level of musical amenity is maintained: Martina's crooning tale of woe underpinned by low-register guitar/keyb riffs of unspecified origin and Calvin Weston's free drumming, three-note distorto hook beneath Tricky's speed-mumble, xylophonish tinkle countered by a keyb belch like an engine that won't catch. Thereafter the residues of grimy technologies settle into permanent low-level disorder: foghorns lowing, brakes complaining, clocks sounding across windswept nights, locomotives struggling uphill. He's a hater not a fighter, and the devil is in his details. So give that man a set of horns–he's earned them.

Review by Robert Christgau
Perhaps Maxinquaye was such a startling, focused, brilliant debut that Tricky's subsequent albums would have paled in comparison, regardless of their quality. Nevertheless, his desire to distance himself from the coffeehouse trip-hop that appeared after Maxinquaye forced him into a dark, paranoid corner. Determined to strip away all of his fair-weather fans, he delivered the claustrophobic Pre-Millennium Tension, a paranoid record that its follow-up, Angels With Dirty Faces, mirrors. Since it builds upon Pre-Millennium instead of breaking new ground, Angels may strike some listeners as merely a retread, but it gradually reveals new layers upon repeated listens. Tricky has been redefining his rhythms, adding skittering jungle loops and hardcore hip-hop beats to his trademark dub-warped trip-hop. On top of that, he's expanding his sonic palette, adding cheap synthesizers and avant-garde guitarists to create a nightmarish junk-pile of hip-hop, dub, electronica, rock, and gospel. Again, Martina is on board and her stylish croon adds moments of relief to the enveloping dread, as does Polly Harvey on the odd gospel-tinged "Broken Homes." Specific tracks work well individually – "Mellow," "Singing the Blues," "Angels With Dirty Faces," and the absurd, bile-ridden "Record Companies," in particular – but on the whole Angels With Dirty Faces is less than the sum of its parts. By being slightly different but essentially the same as Pre-Millennium Tension, Angels With Dirty Faces demands that listeners meet it on its own terms. Whether they'll want to is another matter entirely.

Review by Stephen Thomas Erlewine, Allmusic.com
Biography
Website
Wiki

Tracklist:


01. Money Greedy (05:30)
02. Mellow (03:33)
03. Singing The Blues (03:27)
04. Broken Homes (03:33)
05. 6 Minutes (04:46)
06. Analyze Me (04:00)
07. The Moment I Feared (04:03)
08. Talk To Me (Angels With Dirty Faces) (04:28)
09. Carriage For Two (04:44)
10. Demise (03:48)
11. Tear Out My Eyes (04:25)
12. Record Companies (04:22)
13. Peyote Sings (04:59)
14. Taxi (03:54)


Exact Audio Copy V0.99 prebeta 5 from 4. May 2009

Отчёт EAC об извлечении, выполненном 12. марта 2011, 21:01

Tricky / Angels With Dirty Faces

Дисковод: HL-DT-STDVDRAM GSA-T20N Adapter: 0 ID: 0

Режим чтения : Достоверность
Использование точного потока : Да
Отключение кэша аудио : Да
Использование указателей C2 : Нет

Коррекция смещения при чтении : 667
Способность читать области Lead-in и Lead-out : Нет
Заполнение пропущенных сэмплов тишиной : Да
Удаление блоков с тишиной в начале и конце : Нет
При вычислениях CRC использовались нулевые сэмплы : Да
Интерфейс : Встроенный Win32-интерфейс для Win NT/2000

Выходной формат : Внутренние WAV-операции
Формат сэмплов : 44.100 Гц; 16 бит; стерео


TOC извлечённого CD

Трек | Старт | Длительность | Начальный сектор | Конечный сектор
––––––––––––––––––––––––––––––––––-
1 | 0:00.00 | 5:30.07 | 0 | 24756
2 | 5:30.07 | 3:33.33 | 24757 | 40764
3 | 9:03.40 | 3:27.37 | 40765 | 56326
4 | 12:31.02 | 3:33.38 | 56327 | 72339
5 | 16:04.40 | 4:46.17 | 72340 | 93806
6 | 20:50.57 | 4:00.30 | 93807 | 111836
7 | 24:51.12 | 4:03.28 | 111837 | 130089
8 | 28:54.40 | 4:28.22 | 130090 | 150211
9 | 33:22.62 | 4:44.15 | 150212 | 171526
10 | 38:07.02 | 3:48.18 | 171527 | 188644
11 | 41:55.20 | 4:25.65 | 188645 | 208584
12 | 46:21.10 | 4:22.22 | 208585 | 228256
13 | 50:43.32 | 5:00.53 | 228257 | 250809
14 | 55:44.10 | 3:55.00 | 250810 | 268434


Характеристики диапазона извлечения и сообщения об ошибках

Выбранный диапазон

Имя файла F:\Torrent\Новая папка\Tricky - Angels With Dirty Faces\Tricky - Angels With Dirty Faces.wav

Пиковый уровень 99.9 %
Качество диапазона 100.0 %
CRC теста A173B134
CRC копии A173B134
Копирование… OK

Ошибок не произошло


AccurateRip: сводка

Трек 1 точное извлечение (доверие 3) [FA793B48]
Трек 2 точное извлечение (доверие 3) [75CB708D]
Трек 3 точное извлечение (доверие 3) [F2DF328B]
Трек 4 точное извлечение (доверие 3) [6DEB73F1]
Трек 5 точное извлечение (доверие 3) [F8CAC4D5]
Трек 6 точное извлечение (доверие 3) [E5603592]
Трек 7 точное извлечение (доверие 3) [F1ED77AD]
Трек 8 точное извлечение (доверие 3) [602FA598]
Трек 9 точное извлечение (доверие 3) [9643D1A5]
Трек 10 точное извлечение (доверие 3) [B41D192A]
Трек 11 точное извлечение (доверие 3) [0D76239C]
Трек 12 точное извлечение (доверие 3) [B70F00A0]
Трек 13 точное извлечение (доверие 3) [FB2BD5EC]
Трек 14 точное извлечение (доверие 3) [AF56458E]

Все треки извлечены точно

Конец отчёта

foobar2000 1.2 / Dynamic Range Meter 1.1.1
log date: 2013-09-12 01:06:31

––––––––––––––––––––––––––––––––––––––––
Analyzed: Tricky / Angels With Dirty Faces
––––––––––––––––––––––––––––––––––––––––

DR Peak RMS Duration Track
––––––––––––––––––––––––––––––––––––––––
DR8 -0.01 dB -9.55 dB 5:30 01-Money Greedy
DR8 -0.01 dB -9.93 dB 3:33 02-Mellow
DR8 -0.01 dB -9.34 dB 3:27 03-Singing The Blues
DR10 -0.01 dB -11.00 dB 3:34 04-Broken Homes
DR7 -0.01 dB -8.19 dB 4:46 05-6 Minutes
DR11 -0.01 dB -14.23 dB 4:00 06-Analyze Me
DR8 -0.01 dB -8.66 dB 4:03 07-The Moment I Feared
DR10 -0.01 dB -11.10 dB 4:28 08-Talk To Me (Angels With Dirty Faces)
DR7 -0.01 dB -8.97 dB 4:44 09-Carriage For Two
DR6 -0.01 dB -6.74 dB 3:48 10-Demise
DR7 -0.01 dB -9.05 dB 4:26 11-Tear Out My Eyes
DR5 -0.01 dB -5.50 dB 4:22 12-Record Companies
DR9 -0.01 dB -10.17 dB 5:01 13-Peyote Sings
DR9 -0.01 dB -9.85 dB 3:55 14-Taxi
––––––––––––––––––––––––––––––––––––––––

Number of tracks: 14
Official DR value: DR8

Samplerate: 44100 Hz
Channels: 2
Bits per sample: 16
Bitrate: 833 kbps
Codec: Monkey's Audio
================================================================================

Tricky - Angels With Dirty Faces (1998) [14 Tracks Edition]

Tricky - Angels With Dirty Faces (1998) [14 Tracks Edition]

All thanks to original releaser - boogiedown

More interesting music in My Blog