Subcategories

Trio DAG - Sećanja (1974) [Reissue 2013]

Posted By: gribovar
Trio DAG - Sećanja (1974) [Reissue 2013]

Trio DAG - Sećanja (1974) [Reissue 2013]
EAC Rip | FLAC (image+.cue+log) - 290 MB | MP3 CBR 320 kbps (LAME 3.93) - 112 MB | Covers - 80 MB
Genre: Progressive Folk Rock | RAR 3% Rec. | Label: Atlantide (Atlantide 07)

Acoustic trio DAG was formed in 1972 in Belgrade, Serbia. The name comes from initial letters of the members' given names: Dragan Popovic (guitar, vocals), Aleksandar Milanovic (guitar, vocals) and Grujica Milanovic (percussion, vocals). They were prominent representatives of the mid 1970s Belgrade acoustic music scene, but did not enjoy enough popularity in spite of their interesting work. Backed by a group of strong session players they recorded their only album under the name Trio DAG called "Secanja" in 1974. It is a recommended work combining acoustic and electric instruments (sitar, flute, Hammond…), progressive rock and acid folk with certain psychedelic touch. It can be compared with the sound of Californian psychedelic folk or British Canterbury scene. After its release DAG slowly disappeared from the scene, leaving behind also three 7" singles.

Tracklist:
01. Svitanje
02. Jutro jednog fauna
03. Ljubav
04. Cvet starog samuraja
05. Tragovi u pesku
06. Voz (Bonus track)
07. Smiljana (Bonus track)
08. I sad…
09. Na Drini ćuprija
10. I na kraju zvuk
11. Rastanak (Bonus track)

Total time: 47:39

Exact Audio Copy V1.0 beta 3 from 29. August 2011

Отчёт EAC об извлечении, выполненном 25. июня 2014, 19:56

TRIO DAG / Sećanja

Дисковод: TSSTcorpCDDVDW SH-224DB Adapter: 4 ID: 1

Режим чтения : Достоверность
Использование точного потока : Да
Отключение кэша аудио : Да
Использование указателей C2 : Нет

Коррекция смещения при чтении : 6
Способность читать области Lead-in и Lead-out : Нет
Заполнение пропущенных сэмплов тишиной : Да
Удаление блоков с тишиной в начале и конце : Нет
При вычислениях CRC использовались нулевые сэмплы : Да
Интерфейс : Встроенный Win32-интерфейс для Win NT/2000

Выходной формат : Внутренние WAV-операции
Формат сэмплов : 44.100 Гц; 16 бит; стерео


TOC извлечённого CD

Трек | Старт | Длительность | Начальный сектор | Конечный сектор
––––––––––––––––––––––––––––––––––-
1 | 0:00.00 | 3:10.17 | 0 | 14266
2 | 3:10.17 | 3:09.25 | 14267 | 28466
3 | 6:19.42 | 2:33.57 | 28467 | 39998
4 | 8:53.24 | 4:00.51 | 39999 | 58049
5 | 12:54.00 | 3:00.15 | 58050 | 71564
6 | 15:54.15 | 4:16.33 | 71565 | 90797
7 | 20:10.48 | 4:09.60 | 90798 | 109532
8 | 24:20.33 | 5:06.24 | 109533 | 132506
9 | 29:26.57 | 8:40.16 | 132507 | 171522
10 | 38:06.73 | 4:27.08 | 171523 | 191555
11 | 42:34.06 | 5:05.10 | 191556 | 214440


Характеристики диапазона извлечения и сообщения об ошибках

Выбранный диапазон

Имя файла D:\TEMP\TRIO DAG - 1974 - Secanja.wav

Пиковый уровень 95.5 %
Скорость извлечения 6.9 X
Качество диапазона 99.9 %
CRC теста 07E75185
CRC копии 07E75185
Копирование… OK

Ошибок не произошло


AccurateRip: сводка

Трек 1 отсутствует в базе данных
Трек 2 отсутствует в базе данных
Трек 3 отсутствует в базе данных
Трек 4 отсутствует в базе данных
Трек 5 отсутствует в базе данных
Трек 6 отсутствует в базе данных
Трек 7 отсутствует в базе данных
Трек 8 отсутствует в базе данных
Трек 9 отсутствует в базе данных
Трек 10 отсутствует в базе данных
Трек 11 отсутствует в базе данных

Ни одного трека нет в базе AccurateRip

Конец отчёта

==== Контрольная сумма отчёта CBBC3D8818DDE73BAD980A4529BE749A52E1080B54F7AF3663C0CF0FFF8B7494 ====

[CUETools log; Date: 16.06.2016 1:26:33; Version: 2.1.4]
[CTDB TOCID: 7uw3JhQC2xLaGCLls5k5EWltwXs-] found.
Track | CTDB Status
1 | (1/1) Accurately ripped
2 | (1/1) Accurately ripped
3 | (1/1) Accurately ripped
4 | (1/1) Accurately ripped
5 | (1/1) Accurately ripped
6 | (1/1) Accurately ripped
7 | (1/1) Accurately ripped
8 | (1/1) Accurately ripped
9 | (1/1) Accurately ripped
10 | (1/1) Accurately ripped
11 | (1/1) Accurately ripped
[AccurateRip ID: 00112192-009a0437-9e0b2b0b] found.
Track [ CRC | V2 ] Status
01 [e74ee663|e35305f1] (0+1/1) Accurately ripped
02 [89b9b190|f6bdda83] (0+1/1) Accurately ripped
03 [3cf2af5b|69d3d0f3] (0+1/1) Accurately ripped
04 [4e1d6294|10065e94] (0+1/1) Accurately ripped
05 [dfd179e1|ad5b35e0] (0+1/1) Accurately ripped
06 [d5f3645f|a58e186d] (0+1/1) Accurately ripped
07 [77f06852|7d2c7346] (0+1/1) Accurately ripped
08 [72c8ce42|997b23d6] (0+1/1) Accurately ripped
09 [0dd8a1bd|138d9773] (0+1/1) Accurately ripped
10 [00010912|38525e51] (0+1/1) Accurately ripped
11 [44ef035c|d1dd6d01] (0+1/1) Accurately ripped

Track Peak [ CRC32 ] [W/O NULL] [ LOG ]
– 95,5 [07E75185] [1FECDA9B] CRC32
01 95,5 [038EA901] [F68A4389]
02 95,5 [16988DC9] [4EAE958C]
03 95,5 [02266AAA] [3AC582F3]
04 95,5 [37468841] [548EDD4C]
05 95,5 [094687F9] [D73F401F]
06 81,8 [AD62B183] [DEE0053D]
07 90,2 [F2D3F548] [67CEFFD6]
08 95,5 [B53D481B] [595F746C]
09 95,5 [D39920C2] [C73BE071]
10 95,5 [BCDE8435] [AC78E60D]
11 86,8 [5BDDA4AE] [FD2CCA87]

Thanks to spAceLover

LOSSLESS:
Nitroflare.com
_______________

MP3 320 kbps:
Nitroflare.com
_______________

Covers:
Nitroflare.com

LOSSLESS:
Depositfiles.com
_______________

MP3 320 kbps:
Depositfiles.com
_______________

Covers:
Depositfiles.com