Subcategories

Sunflower Bean - Twentytwo In Blue (2018)

Posted By: SERTiL
Sunflower Bean - Twentytwo In Blue (2018)

Sunflower Bean - Twentytwo In Blue (2018)
EAC Rip | FLAC (tracks)+cue, log, m3u, front cover | 269 MB
Label: Mom+Pop – MP333 | Tracks: 11 | Time: 40:32 min
Indie Rock, Psychedelic Rock, Female Vocal

New York trio Sunflower Bean announce their second record Twentytwo in Blue. The album will be released on March 23rd when all members of the band – Julia Cumming, Jacob Faber and Nick Kivlen - will be 22 years old. The album comes almost two years and two months after the release of their critically acclaimed 2016 debut album Human Ceremony.

Co-produced by Unknown Mortal Orchestra’s Jacob Portrait (who also mixed the record) and HC-producer Matt Molnar of Friends, Twentytwo in Blue shows Sunflower Bean stay true to their guitar band core and classic rock-inspired roots, while exploring new sonic textures with more direct and progressive themes. Unlike their debut, which was essentially a compilation of songs Sunflower Bean wrote while still in their teens, Twentytwo in Blue was made in the year between December 2016 and December 2017 and showcases how far the band has come since playing together in their high school days.



Tracklist:
1. Burn It (04:19)
2. I Was a Fool (03:33)
3. Twentytwo (04:32)
4. Crisis Fest (03:31)
5. Memoria (03:42)
6. Puppet Strings (04:00)
7. Only a Moment (04:15)
8. Human For (02:23)
9. Any Way You Like (03:43)
10. Sinking Sands (02:32)
11. Oh No, Bye Bye (04:02)

Exact Audio Copy V1.0 beta 4 from 7. December 2014

EAC extraction logfile from 26. March 2018, 15:27

Sunflower Bean / Twentytwo in Blue

Used drive : ATAPI iHAS124 W Adapter: 1 ID: 1

Read mode : Secure
Utilize accurate stream : Yes
Defeat audio cache : Yes
Make use of C2 pointers : No

Read offset correction : 48
Overread into Lead-In and Lead-Out : No
Fill up missing offset samples with silence : Yes
Delete leading and trailing silent blocks : No
Null samples used in CRC calculations : Yes
Used interface : Native Win32 interface for Win NT & 2000
Gap handling : Appended to previous track

Used output format : User Defined Encoder
Selected bitrate : 1024 kBit/s
Quality : High
Add ID3 tag : No
Command line compressor : C:\Program Files (x86)\Exact Audio Copy\Flac\flac.exe
Additional command line options : -8 -V -T "ARTIST=%artist%" -T "TITLE=%title%" -T "ALBUM=%albumtitle%" -T "DATE=%year%" -T "TRACKNUMBER=%tracknr%" -T "GENRE=%genre%" -T "PERFORMER=%albuminterpret%" -T "COMPOSER=%composer%" %haslyrics%–tag-from-file=LYRICS="%lyricsfile%"%haslyrics% -T "ALBUMARTIST=%albumartist%" -T "DISCNUMBER=%cdnumber%" -T "TOTALDISCS=%totalcds%" -T "TOTALTRACKS=%numtracks%" -T "COMMENT=%comment%" %source% -o %dest%


TOC of the extracted CD

Track | Start | Length | Start sector | End sector
––––––––––––––––––––––––––––-
1 | 0:00.00 | 4:19.00 | 0 | 19424
2 | 4:19.00 | 3:33.14 | 19425 | 35413
3 | 7:52.14 | 4:32.61 | 35414 | 55874
4 | 12:25.00 | 3:31.29 | 55875 | 71728
5 | 15:56.29 | 3:42.13 | 71729 | 88391
6 | 19:38.42 | 4:00.73 | 88392 | 106464
7 | 23:39.40 | 4:15.00 | 106465 | 125589
8 | 27:54.40 | 2:23.10 | 125590 | 136324
9 | 30:17.50 | 3:43.43 | 136325 | 153092
10 | 34:01.18 | 2:32.09 | 153093 | 164501
11 | 36:33.27 | 4:02.39 | 164502 | 182690


Track 1

Filename C:\new flac rips\Sunflower Bean - 2018 - Twentytwo in Blue (MP333)\01 Burn It.wav

Pre-gap length 0:00:02.00

Peak level 100.0 %
Extraction speed 4.3 X
Track quality 100.0 %
Test CRC A5674156
Copy CRC A5674156
Track not present in AccurateRip database
Copy OK

Track 2

Filename C:\new flac rips\Sunflower Bean - 2018 - Twentytwo in Blue (MP333)\02 I Was a Fool.wav

Peak level 100.0 %
Extraction speed 4.7 X
Track quality 100.0 %
Test CRC 3544A215
Copy CRC 3544A215
Track not present in AccurateRip database
Copy OK

Track 3

Filename C:\new flac rips\Sunflower Bean - 2018 - Twentytwo in Blue (MP333)\03 Twentytwo.wav

Peak level 99.7 %
Extraction speed 5.3 X
Track quality 100.0 %
Test CRC 10809142
Copy CRC 10809142
Track not present in AccurateRip database
Copy OK

Track 4

Filename C:\new flac rips\Sunflower Bean - 2018 - Twentytwo in Blue (MP333)\04 Crisis Fest.wav

Peak level 100.0 %
Extraction speed 5.5 X
Track quality 100.0 %
Test CRC 67A5B3B1
Copy CRC 67A5B3B1
Track not present in AccurateRip database
Copy OK

Track 5

Filename C:\new flac rips\Sunflower Bean - 2018 - Twentytwo in Blue (MP333)\05 Memoria.wav

Peak level 100.0 %
Extraction speed 5.8 X
Track quality 100.0 %
Test CRC 962C78D6
Copy CRC 962C78D6
Track not present in AccurateRip database
Copy OK

Track 6

Filename C:\new flac rips\Sunflower Bean - 2018 - Twentytwo in Blue (MP333)\06 Puppet Strings.wav

Peak level 100.0 %
Extraction speed 6.2 X
Track quality 100.0 %
Test CRC 1214381D
Copy CRC 1214381D
Track not present in AccurateRip database
Copy OK

Track 7

Filename C:\new flac rips\Sunflower Bean - 2018 - Twentytwo in Blue (MP333)\07 Only a Moment.wav

Peak level 100.0 %
Extraction speed 6.5 X
Track quality 100.0 %
Test CRC 2B29C547
Copy CRC 2B29C547
Track not present in AccurateRip database
Copy OK

Track 8

Filename C:\new flac rips\Sunflower Bean - 2018 - Twentytwo in Blue (MP333)\08 Human For.wav

Peak level 100.0 %
Extraction speed 6.2 X
Track quality 100.0 %
Test CRC C07FADC7
Copy CRC C07FADC7
Track not present in AccurateRip database
Copy OK

Track 9

Filename C:\new flac rips\Sunflower Bean - 2018 - Twentytwo in Blue (MP333)\09 Any Way You Like.wav

Peak level 100.0 %
Extraction speed 6.9 X
Track quality 100.0 %
Test CRC C9F24E0F
Copy CRC C9F24E0F
Track not present in AccurateRip database
Copy OK

Track 10

Filename C:\new flac rips\Sunflower Bean - 2018 - Twentytwo in Blue (MP333)\10 Sinking Sands.wav

Peak level 100.0 %
Extraction speed 6.7 X
Track quality 100.0 %
Test CRC ACE63E74
Copy CRC ACE63E74
Track not present in AccurateRip database
Copy OK

Track 11

Filename C:\new flac rips\Sunflower Bean - 2018 - Twentytwo in Blue (MP333)\11 Oh No, Bye Bye.wav

Peak level 100.0 %
Extraction speed 7.4 X
Track quality 100.0 %
Test CRC 66BE3425
Copy CRC 66BE3425
Track not present in AccurateRip database
Copy OK


None of the tracks are present in the AccurateRip database

No errors occurred

End of status report

–– CUETools DB Plugin V2.1.4

[CTDB TOCID: bGaIxYOK1iGoWwYExKLkM7Wj.p4-] found
Submit result: bGaIxYOK1iGoWwYExKLkM7Wj.p4- has been confirmed
Track | CTDB Status
1 | (2/2) Accurately ripped
2 | (2/2) Accurately ripped
3 | (2/2) Accurately ripped
4 | (2/2) Accurately ripped
5 | (2/2) Accurately ripped
6 | (2/2) Accurately ripped
7 | (2/2) Accurately ripped
8 | (2/2) Accurately ripped
9 | (2/2) Accurately ripped
10 | (2/2) Accurately ripped
11 | (2/2) Accurately ripped


==== Log checksum 11C21CCC936D56336B99EFF99DBB4D3D330D810E97ECB181FD21A2DA42CE002C ====


Sunflower Bean - Twentytwo In Blue (2018)


Thanks to the Original customer.