The Twins - Classics - Remixed (1991)

Posted By: Andi_Deris
The Twins - Classics - Remixed (1991)

The Twins - Classics - Remixed (1991)
EAC Rip | FLAC: Image+Cue+Log | 364 Mb | MP3 CBR 320 kbps | 141 Mb | Scans | Time: 46:45
Hansa | 262 158
Electronic, Synth-Pop, Eurodisco

In 1991 the TWINS had their "comeback" when they released a remix album of their greatest hits which was called "Classics • Remixed". Part Midge Ure/Ultravox, part Gary Numan, part John Foxx, part Erasure, all melodic synthpop perfection. The success of this CD was overwhelming and they thought that it's about time to put together a new album as well.

The Twins - Classics - Remixed (1991)




The Twins - Classics - Remixed (1991)


Track Listing

01. Desert Place ('91 Remix) (06:10)
02. Love In The Dark ('91 Remix) (04:26)
03. Ballet Dancer ('91 Remix) (03:24)
04. A Wild Romance ('91 Remix) (04:53)
05. Face To Face - Heart To Heart ('91 Remix) (04:42)
06. Not The Loving Kind ('91 Remix) (03:55)
07. Love System ('91 Remix) (04:16)
08. Heaven In Your Smile ('91 Remix) (04:57)
09. Facts Of Love ('91 Remix) (03:51)
10. Between The Woman And You ('91 Remix) (06:10)

Produced by The Twins

Exact Audio Copy V1.0 beta 1 from 15. November 2010

EAC extraction logfile from 7. February 2011, 0:49

Twins / 1991 Classics - Remixed

Used drive : PLEXTOR DVDR PX-716A Adapter: 0 ID: 0

Read mode : Secure
Utilize accurate stream : Yes
Defeat audio cache : Yes
Make use of C2 pointers : No

Read offset correction : 30
Overread into Lead-In and Lead-Out : Yes
Fill up missing offset samples with silence : Yes
Delete leading and trailing silent blocks : No
Null samples used in CRC calculations : Yes
Used interface : Native Win32 interface for Win NT & 2000

Used output format : User Defined Encoder
Selected bitrate : 1024 kBit/s
Quality : High
Add ID3 tag : No
Command line compressor : C:\Program Files (x86)\FLAC\flac.exe
Additional command line options : -8 -V -T "ARTIST=%a" -T "TITLE=%t" -T "ALBUM=%g" -T "DATE=%y" -T "TRACKNUMBER=%n" -T "GENRE=%m" -T "COMMENT=EAC FLAC -8" %s


TOC of the extracted CD

Track | Start | Length | Start sector | End sector
––––––––––––––––––––––––––––-
1 | 0:00.33 | 6:10.07 | 33 | 27789
2 | 6:10.40 | 4:26.15 | 27790 | 47754
3 | 10:36.55 | 3:23.38 | 47755 | 63017
4 | 14:00.18 | 4:52.65 | 63018 | 84982
5 | 18:53.08 | 4:42.32 | 84983 | 106164
6 | 23:35.40 | 3:54.60 | 106165 | 123774
7 | 27:30.25 | 4:16.00 | 123775 | 142974
8 | 31:46.25 | 4:57.00 | 142975 | 165249
9 | 36:43.25 | 3:50.63 | 165250 | 182562
10 | 40:34.13 | 6:10.20 | 182563 | 210332


Range status and errors

Selected range

Filename E:\The Twins\1991 The Twins - Classics Remixed\Twins - 1991 Classics - Remixed.wav

Peak level 100.0 %
Extraction speed 0.1 X
Range quality 100.0 %
Test CRC C10DBE5C
Copy CRC C10DBE5C
Copy OK

No errors occurred


AccurateRip summary

Track 1 accurately ripped (confidence 10) [66C09019]
Track 2 accurately ripped (confidence 10) [23DA91BB]
Track 3 accurately ripped (confidence 11) [B7E20873]
Track 4 accurately ripped (confidence 10) [063B7854]
Track 5 accurately ripped (confidence 10) [AE9AFE5C]
Track 6 accurately ripped (confidence 12) [E9135DE8]
Track 7 accurately ripped (confidence 11) [D6BD800B]
Track 8 accurately ripped (confidence 11) [E721A133]
Track 9 accurately ripped (confidence 11) [513A8F51]
Track 10 accurately ripped (confidence 11) [2F5FB510]

All tracks accurately ripped

End of status report


Many thanks to the original uploader: Konstantin_slash