Subcategories

Tyrannosaurus Rex - A Beard Of Stars (1970) [2CD, Deluxe Edition]

Posted By: v3122
Tyrannosaurus Rex - A Beard Of Stars (1970) [2CD, Deluxe Edition]

Tyrannosaurus Rex - A Beard Of Stars (1970)
EAC | Flac(Image) + Cue + Log & MP3 CBR 320Kbps
2014 | Polydor, 534 732-9 | ~ 548 or 261 Mb | Scans(png) -> 318 Mb
Rock / Glam / Folk Rock / Psychedelic Rock

Tyrannosaurus Rex's fourth album, A Beard of Stars, was the turning point where Marc Bolan began evolving from an unrepentant hippie into the full-on swaggering rock star he would be within a couple of years, though for those not familiar with his previous work, it still sounds like the work of a man with his mind plugged into the age of lysergic enchantment. "A Daye Laye," "Pavilions of Sun," and the title tune sure sound like the writings of an agreeably addled flower child, and Bolan's vocals are playfully mannered in a manner that suits his loopy poetry. However, after shunning the corrupting influences of electric guitars on Tyrannosaurus Rex's early recordings, A Beard of Stars finds Bolan plugging in as he turns on, and he sounds like he's clearly enjoying it; the wah-wah solo that closes "Pavilions of Sun" demonstrates how just a little electricity gave this music a new lease on life, as do the guitar and bass overdubs on "Fist Heart Mighty Dawn Dart," and the lo-fi raunch that dominates "Elemental Child" was the first manifestation of the amped-up proto-boogie that defined Electric Warrior and The Slider. A Beard of Stars was also the first Tyrannosaurus Rex album after Mickey Finn took over as percussionist from Steve Peregrine-Took, and his more straightforward approach (as well as his occasional basslines) gave this music a far more solid foundation than Peregrine-Took's expressive but frequently unpredictable rhythms, further setting the stage for the group's Grand Transformation. A Beard of Stars holds on to the charm of Tyrannosaurus Rex's early work while letting Bolan's natural charisma and rock moves finally take hold, and it's a unique and very pleasing entry in their catalog.

by Mark Deming, AMG
Tyrannosaurus Rex - A Beard Of Stars (1970):

Tyrannosaurus Rex - A Beard Of Stars (1970) [2CD, Deluxe Edition]

Tracklist CD1:

01. Prelude 01:05
02. A Daye Laye 01:56
03. Woodland Bop 01:39
04. Fist Heart Mighty Dawn Dart 02:45
05. Pavilions Of Sun 02:49
06. Organ Blues 02:48
07. By The Light Of A Magical Moon 02:51
08. Wind Cheetah 02:38
09. A Beard Of Stars 01:37
10. Great Horse 01:45
11. Dragon's Ear 02:37
12. Lofty Skies 02:54
13. Dove 02:05
14. Elemental Child 05:33

Bonus Tracks:
15. Find A Little Wood (Single B-Side) 02:04
16. Fist Heart Mighty Dawn Dart (BBC Radio One, Top Gear: 17th November 1969) 02:43
17. Pavilions Of Sun (BBC Radio One, Top Gear: 17th November 1969) 02:51
18. A Daye Laye (BBC Radio One, Top Gear: 17th November 1969) 02:01
19. By The Light Of A Magical Moon (BBC Radio One, Top Gear: 17th November 1969) 02:47
20. Wind Cheetah (BBC Radio One, Top Gear: 17th November 1969) 02:35

Exact Audio Copy V1.0 beta 4 from 7. December 2014

EAC extraction logfile from 21. March 2015, 12:21

Tyrannosaurus Rex / A Beard Of Stars Deluxe CD1

Used drive : PLEXTOR BD-R PX-B950SA Adapter: 1 ID: 1

Read mode : Secure
Utilize accurate stream : Yes
Defeat audio cache : Yes
Make use of C2 pointers : No

Read offset correction : 6
Overread into Lead-In and Lead-Out : No
Fill up missing offset samples with silence : Yes
Delete leading and trailing silent blocks : No
Null samples used in CRC calculations : Yes
Used interface : Native Win32 interface for Win NT & 2000

Used output format : Internal WAV Routines
Sample format : 44.100 Hz; 16 Bit; Stereo


TOC of the extracted CD

Track | Start | Length | Start sector | End sector
––––––––––––––––––––––––––––-
1 | 0:00.00 | 1:05.45 | 0 | 4919
2 | 1:05.45 | 1:56.45 | 4920 | 13664
3 | 3:02.15 | 1:39.00 | 13665 | 21089
4 | 4:41.15 | 2:45.50 | 21090 | 33514
5 | 7:26.65 | 2:49.10 | 33515 | 46199
6 | 10:16.00 | 2:48.27 | 46200 | 58826
7 | 13:04.27 | 2:51.43 | 58827 | 71694
8 | 15:55.70 | 2:38.62 | 71695 | 83606
9 | 18:34.57 | 1:37.03 | 83607 | 90884
10 | 20:11.60 | 1:45.67 | 90885 | 98826
11 | 21:57.52 | 2:37.70 | 98827 | 110671
12 | 24:35.47 | 2:54.33 | 110672 | 123754
13 | 27:30.05 | 2:05.70 | 123755 | 133199
14 | 29:36.00 | 5:33.27 | 133200 | 158201
15 | 35:09.27 | 2:04.38 | 158202 | 167539
16 | 37:13.65 | 2:43.04 | 167540 | 179768
17 | 39:56.69 | 2:51.49 | 179769 | 192642
18 | 42:48.43 | 2:01.13 | 192643 | 201730
19 | 44:49.56 | 2:47.04 | 201731 | 214259
20 | 47:36.60 | 2:35.20 | 214260 | 225904


Range status and errors

Selected range

Filename C:\Users\Meijin\Desktop\ALLexxess\T. Rex\1970 A Beard Of Stars (2CD Deluxe Edition Polydor Records 2015)\CD1\Tyrannosaurus Rex - A Beard Of Stars Deluxe CD1.wav

Peak level 99.9 %
Extraction speed 7.1 X
Range quality 100.0 %
Test CRC EEEC4016
Copy CRC EEEC4016
Copy OK

No errors occurred


AccurateRip summary

Track 1 accurately ripped (confidence 5) [80B875F0] (AR v2)
Track 2 accurately ripped (confidence 5) [3C4C1CC1] (AR v2)
Track 3 accurately ripped (confidence 5) [C53DA472] (AR v2)
Track 4 accurately ripped (confidence 5) [2D790FBD] (AR v2)
Track 5 accurately ripped (confidence 5) [6C6683F4] (AR v2)
Track 6 accurately ripped (confidence 5) [955E871A] (AR v2)
Track 7 accurately ripped (confidence 5) [0A665C1A] (AR v2)
Track 8 accurately ripped (confidence 5) [6D3DD960] (AR v2)
Track 9 accurately ripped (confidence 5) [55456954] (AR v2)
Track 10 accurately ripped (confidence 5) [E0643D5E] (AR v2)
Track 11 accurately ripped (confidence 5) [FCB8FA1D] (AR v2)
Track 12 accurately ripped (confidence 5) [6F2A9EBD] (AR v2)
Track 13 accurately ripped (confidence 5) [A56C76BC] (AR v2)
Track 14 accurately ripped (confidence 5) [7224D6F5] (AR v2)
Track 15 accurately ripped (confidence 5) [C1E98B28] (AR v2)
Track 16 accurately ripped (confidence 5) [9651321A] (AR v2)
Track 17 accurately ripped (confidence 5) [CF13C2B6] (AR v2)
Track 18 accurately ripped (confidence 5) [8FB4E45C] (AR v2)
Track 19 accurately ripped (confidence 5) [12D2FAA6] (AR v2)
Track 20 accurately ripped (confidence 5) [51474D56] (AR v2)

All tracks accurately ripped

End of status report

–– CUETools DB Plugin V2.1.4

[CTDB TOCID: YEHaVzalTKHDrrAW30YdcJH7jNk-] found
Submit result: YEHaVzalTKHDrrAW30YdcJH7jNk- has been confirmed
Track | CTDB Status
1 | (6/6) Accurately ripped
2 | (6/6) Accurately ripped
3 | (6/6) Accurately ripped
4 | (6/6) Accurately ripped
5 | (6/6) Accurately ripped
6 | (6/6) Accurately ripped
7 | (6/6) Accurately ripped
8 | (6/6) Accurately ripped
9 | (6/6) Accurately ripped
10 | (6/6) Accurately ripped
11 | (6/6) Accurately ripped
12 | (6/6) Accurately ripped
13 | (6/6) Accurately ripped
14 | (6/6) Accurately ripped
15 | (6/6) Accurately ripped
16 | (6/6) Accurately ripped
17 | (6/6) Accurately ripped
18 | (6/6) Accurately ripped
19 | (6/6) Accurately ripped
20 | (6/6) Accurately ripped


==== Log checksum 2156014651E4525B9D213876F74678EB04002A6B3F5A4F1054CD6031D88E0A67 ====

foobar2000 1.2.9 / Dynamic Range Meter 1.1.1
log date: 2015-03-31 11:24:59

––––––––––––––––––––––––––––––––––––––––
Analyzed: Tyrannosaurus Rex / A Beard Of Stars Deluxe CD1
––––––––––––––––––––––––––––––––––––––––

DR Peak RMS Duration Track
––––––––––––––––––––––––––––––––––––––––
DR10 -1.10 dB -13.74 dB 1:06 01-Prelude
DR10 -0.48 dB -13.33 dB 1:57 02-A Day Laye
DR11 -0.85 dB -15.21 dB 1:39 03-Woodland Bop
DR10 -0.01 dB -12.86 dB 2:46 04-Fist Heart Mighty Dawn Dart
DR11 -0.26 dB -13.04 dB 2:49 05-Pavillons Of Sun
DR11 -0.95 dB -14.00 dB 2:48 06-Organ Blues
DR11 -0.37 dB -14.70 dB 2:52 07-By The Light Of A Magical Moon
DR10 -0.77 dB -12.99 dB 2:39 08-Wind Cheetah
DR10 -0.01 dB -12.87 dB 1:37 09-A Beard Of Stars
DR9 -1.43 dB -12.73 dB 1:46 10-Great Horse
DR12 -0.25 dB -14.18 dB 2:38 11-Dragon's Ear
DR10 -0.72 dB -14.00 dB 2:54 12-Lofty Skies
DR10 -0.74 dB -14.18 dB 2:06 13-Dove
DR9 -1.53 dB -12.77 dB 5:33 14-Elemental Child
DR10 -0.59 dB -12.87 dB 2:05 15-Find A Little Wood (Single B-Side) / Bonus Track
DR10 -0.01 dB -12.46 dB 2:43 16-Fist Heart Mighty Dawn Dart (BBC Radio One, Top Gear: 17th November 1969) / B…
DR10 -0.21 dB -11.76 dB 2:52 17-Pavilions Of Sun (BBC Radio One, Top Gear: 17th November 1969) / Bonus Track
DR10 -0.26 dB -11.52 dB 2:01 18-A Daye Laye (BBC Radio One, Top Gear: 17th November 1969) / Bonus Track
DR11 -0.01 dB -13.54 dB 2:47 19-By The Light Of A Magical Moon (BBC Radio One, Top Gear: 17th November 1969) …
DR8 -0.01 dB -9.60 dB 2:35 20-Wind Cheetah (BBC Radio One, Top Gear: 17th November 1969) / Bonus Track
––––––––––––––––––––––––––––––––––––––––

Number of tracks: 20
Official DR value: DR10

Samplerate: 44100 Hz
Channels: 2
Bits per sample: 16
Bitrate: 705 kbps
Codec: FLAC

[CUETools log; Date: 31.03.2015 11:25:07; Version: 2.1.4]
[CTDB TOCID: YEHaVzalTKHDrrAW30YdcJH7jNk-] found.
Track | CTDB Status
1 | (7/7) Accurately ripped
2 | (7/7) Accurately ripped
3 | (7/7) Accurately ripped
4 | (7/7) Accurately ripped
5 | (7/7) Accurately ripped
6 | (7/7) Accurately ripped
7 | (7/7) Accurately ripped
8 | (7/7) Accurately ripped
9 | (7/7) Accurately ripped
10 | (7/7) Accurately ripped
11 | (7/7) Accurately ripped
12 | (7/7) Accurately ripped
13 | (7/7) Accurately ripped
14 | (7/7) Accurately ripped
15 | (7/7) Accurately ripped
16 | (7/7) Accurately ripped
17 | (7/7) Accurately ripped
18 | (7/7) Accurately ripped
19 | (7/7) Accurately ripped
20 | (7/7) Accurately ripped
[AccurateRip ID: 00220a7c-02000184-270bc414] found.
Track [ CRC | V2 ] Status
01 [094d1fcd|80b875f0] (0+5/5) Accurately ripped
02 [02f0faef|3c4c1cc1] (0+5/5) Accurately ripped
03 [ef899697|c53da472] (0+5/5) Accurately ripped
04 [c8e29fc9|2d790fbd] (0+5/5) Accurately ripped
05 [74cf5ee3|6c6683f4] (0+5/5) Accurately ripped
06 [e27f4084|955e871a] (0+5/5) Accurately ripped
07 [8f667e9f|0a665c1a] (0+5/5) Accurately ripped
08 [2bf4996f|6d3dd960] (0+5/5) Accurately ripped
09 [8d40f678|55456954] (0+5/5) Accurately ripped
10 [70c61d98|e0643d5e] (0+5/5) Accurately ripped
11 [483bead1|fcb8fa1d] (0+5/5) Accurately ripped
12 [3c7ec6bf|6f2a9ebd] (0+5/5) Accurately ripped
13 [68a29c78|a56c76bc] (0+5/5) Accurately ripped
14 [86aa0cdc|7224d6f5] (0+5/5) Accurately ripped
15 [05e50fbd|c1e98b28] (0+5/5) Accurately ripped
16 [96847c28|9651321a] (0+5/5) Accurately ripped
17 [c7a174ea|cf13c2b6] (0+5/5) Accurately ripped
18 [1bb3e9b5|8fb4e45c] (0+5/5) Accurately ripped
19 [68052b2e|12d2faa6] (0+5/5) Accurately ripped
20 [36c21a93|51474d56] (0+5/5) Accurately ripped

Track Peak [ CRC32 ] [W/O NULL] [ LOG ]
– 99,9 [EEEC4016] [C3A8F75D] CRC32
01 88,1 [B9B9CAC7] [8778547A]
02 94,6 [B086D17F] [FD3CE3A3]
03 90,6 [BC397211] [B0F10194]
04 99,9 [E170E20B] [5283130F]
05 97,0 [69EA0C3B] [6CED2CCA]
06 89,6 [F99AEF05] [A957F556]
07 95,7 [598626C2] [37934146]
08 91,4 [DA31E905] [A46B9AAF]
09 99,9 [8938E64A] [E49ADE50]
10 84,8 [F8161A98] [7EB21D1C]
11 97,2 [53E67DE7] [AFCD2E7A]
12 92,0 [66E22607] [EC079E71]
13 91,8 [484F3B1D] [9012FD45]
14 83,8 [3A118B4A] [E0CD4135]
15 93,4 [A31BC4AC] [A92EA792]
16 99,9 [3B518FB5] [E5A28224]
17 97,5 [7B96287C] [D31B7FBD]
18 97,0 [ACFC3FE7] [0265C2E8]
19 99,9 [B2B62CC1] [EB6DD6E3]
20 99,9 [944945FA] [0C588CE6]

Tyrannosaurus Rex - A Beard Of Stars (1970) [2CD, Deluxe Edition]

Tracklist CD2 - Home Demos & Alternate Takes:

01. Fist Heart Mighty Dawn Dart (Home Demo Take 1) 02:35
02. Organ Blues (Home Demo Take 1) 02:51
03. A Daye Laye (Home Demo Take 1) 02:00
04. Lofty Skies (Alternative Home Demo) 00:51
05. Organ Blues (Home Demo Take 2) 01:33
06. Black Cat Sittin' On My Shoulder (Home Demo Take 1) 01:28
07. Instrumental (Guitar And Organ Home Demo) 01:23
08. Pavilions Of Sun (Home Demo 1) 02:32
09. I Got The Blues So Bad (Home Demo) 01:15
10. By The Light Of A Magical Moon (Home Demo) 02:58
11. Find A Little Wood (Home Demo) 02:04
12. Great Horse (Home Demo) 02:04
13. Wind Cheetah (Home Demo) 01:39
14. Pavilions Of Sun (Home Demo Take 2) 02:31
15. Elemental Child (Home Demo) 02:51
16. Black Cat Sittin' On My Shoulder (Home Demo Take 2) 01:32
17. Fist Heart Mighty Dawn Dart (Home Demo 2) 02:09
18. Oh Baby (Home Demo) 02:42
19. Prelude (Alternative Take 1) 01:14
20. Dove (Alternative Take) 02:07
21. Dragon's Ear Parts One & Two (Take 2) 02:35
22. A Beard Of Stars (Alternative Take 1) 01:42
23. Organ Blues (Alternative Take) 03:34
24. Lofty Skies (Alternative Take) 03:01
25. By The Light Of A Magical Moon (Instrumental) 03:07
26. Elemental Child Part I (Alternative Take) 02:19
27. Elemental Child Part II (Alternative Take) 03:33

Exact Audio Copy V1.0 beta 4 from 7. December 2014

EAC extraction logfile from 21. March 2015, 11:53

Tyrannosaurus Rex / A Beard Of Stars Deluxe CD2

Used drive : PLEXTOR BD-R PX-B950SA Adapter: 1 ID: 1

Read mode : Secure
Utilize accurate stream : Yes
Defeat audio cache : Yes
Make use of C2 pointers : No

Read offset correction : 6
Overread into Lead-In and Lead-Out : No
Fill up missing offset samples with silence : Yes
Delete leading and trailing silent blocks : No
Null samples used in CRC calculations : Yes
Used interface : Native Win32 interface for Win NT & 2000

Used output format : Internal WAV Routines
Sample format : 44.100 Hz; 16 Bit; Stereo


TOC of the extracted CD

Track | Start | Length | Start sector | End sector
––––––––––––––––––––––––––––-
1 | 0:00.00 | 2:35.34 | 0 | 11658
2 | 2:35.34 | 2:51.47 | 11659 | 24530
3 | 5:27.06 | 2:00.14 | 24531 | 33544
4 | 7:27.20 | 0:51.05 | 33545 | 37374
5 | 8:18.25 | 1:33.07 | 37375 | 44356
6 | 9:51.32 | 1:28.27 | 44357 | 50983
7 | 11:19.59 | 1:23.12 | 50984 | 57220
8 | 12:42.71 | 2:32.54 | 57221 | 68674
9 | 15:15.50 | 1:15.11 | 68675 | 74310
10 | 16:30.61 | 2:58.48 | 74311 | 87708
11 | 19:29.34 | 2:04.09 | 87709 | 97017
12 | 21:33.43 | 2:04.41 | 97018 | 106358
13 | 23:38.09 | 1:39.05 | 106359 | 113788
14 | 25:17.14 | 2:31.71 | 113789 | 125184
15 | 27:49.10 | 2:51.39 | 125185 | 138048
16 | 30:40.49 | 1:32.21 | 138049 | 144969
17 | 32:12.70 | 2:09.71 | 144970 | 154715
18 | 34:22.66 | 2:42.15 | 154716 | 166880
19 | 37:05.06 | 1:14.45 | 166881 | 172475
20 | 38:19.51 | 2:07.12 | 172476 | 182012
21 | 40:26.63 | 2:35.73 | 182013 | 193710
22 | 43:02.61 | 1:42.54 | 193711 | 201414
23 | 44:45.40 | 3:34.49 | 201415 | 217513
24 | 48:20.14 | 3:01.59 | 217514 | 231147
25 | 51:21.73 | 3:07.57 | 231148 | 245229
26 | 54:29.55 | 2:19.09 | 245230 | 255663
27 | 56:48.64 | 3:33.04 | 255664 | 271642


Range status and errors

Selected range

Filename C:\Users\Meijin\Desktop\ALLexxess\T. Rex\1970 A Beard Of Stars (2CD Deluxe Edition Polydor Records 2015)\CD2\Tyrannosaurus Rex - A Beard Of Stars Deluxe CD2.wav

Peak level 100.0 %
Extraction speed 7.4 X
Range quality 100.0 %
Test CRC AF6D8B04
Copy CRC AF6D8B04
Copy OK

No errors occurred


AccurateRip summary

Track 1 accurately ripped (confidence 5) [6AA2A41D] (AR v2)
Track 2 accurately ripped (confidence 5) [F50C9195] (AR v2)
Track 3 accurately ripped (confidence 5) [99B72B51] (AR v2)
Track 4 accurately ripped (confidence 5) [5414E61A] (AR v2)
Track 5 accurately ripped (confidence 5) [ADD25396] (AR v2)
Track 6 accurately ripped (confidence 5) [DE2D9912] (AR v2)
Track 7 accurately ripped (confidence 5) [1F9E23C3] (AR v2)
Track 8 accurately ripped (confidence 5) [8885C44B] (AR v2)
Track 9 accurately ripped (confidence 5) [F9A07FFE] (AR v2)
Track 10 accurately ripped (confidence 5) [24AB0BA7] (AR v2)
Track 11 accurately ripped (confidence 5) [3B4B5442] (AR v2)
Track 12 accurately ripped (confidence 5) [88345EF6] (AR v2)
Track 13 accurately ripped (confidence 5) [904E8BEA] (AR v2)
Track 14 accurately ripped (confidence 5) [3400E6EC] (AR v2)
Track 15 accurately ripped (confidence 5) [61003493] (AR v2)
Track 16 accurately ripped (confidence 5) [F194B61D] (AR v2)
Track 17 accurately ripped (confidence 5) [DD3336C0] (AR v2)
Track 18 accurately ripped (confidence 5) [B544EF38] (AR v2)
Track 19 accurately ripped (confidence 5) [51978AF0] (AR v2)
Track 20 accurately ripped (confidence 5) [E63B7412] (AR v2)
Track 21 accurately ripped (confidence 5) [92265359] (AR v2)
Track 22 accurately ripped (confidence 5) [37E0BDF1] (AR v2)
Track 23 accurately ripped (confidence 5) [9E25548D] (AR v2)
Track 24 accurately ripped (confidence 5) [3CF771D5] (AR v2)
Track 25 accurately ripped (confidence 5) [E097C60C] (AR v2)
Track 26 accurately ripped (confidence 5) [60B868C6] (AR v2)
Track 27 accurately ripped (confidence 5) [56DFB02B] (AR v2)

All tracks accurately ripped

End of status report

–– CUETools DB Plugin V2.1.4

[CTDB TOCID: ismvtIvasJhL4kO.Mx_DPwe9kdg-] found
Submit result: ismvtIvasJhL4kO.Mx_DPwe9kdg- has been confirmed
Track | CTDB Status
1 | (7/7) Accurately ripped
2 | (7/7) Accurately ripped
3 | (7/7) Accurately ripped
4 | (7/7) Accurately ripped
5 | (7/7) Accurately ripped
6 | (7/7) Accurately ripped
7 | (7/7) Accurately ripped
8 | (7/7) Accurately ripped
9 | (7/7) Accurately ripped
10 | (7/7) Accurately ripped
11 | (7/7) Accurately ripped
12 | (7/7) Accurately ripped
13 | (7/7) Accurately ripped
14 | (7/7) Accurately ripped
15 | (7/7) Accurately ripped
16 | (7/7) Accurately ripped
17 | (7/7) Accurately ripped
18 | (7/7) Accurately ripped
19 | (7/7) Accurately ripped
20 | (7/7) Accurately ripped
21 | (7/7) Accurately ripped
22 | (7/7) Accurately ripped
23 | (7/7) Accurately ripped
24 | (7/7) Accurately ripped
25 | (7/7) Accurately ripped
26 | (7/7) Accurately ripped
27 | (7/7) Accurately ripped


==== Log checksum AEAD71B2C9C2B01EE80403E847177456CE1C315C63523FA556DD761956CB63BF ====

foobar2000 1.2.9 / Dynamic Range Meter 1.1.1
log date: 2015-03-31 11:25:21

––––––––––––––––––––––––––––––––––––––––
Analyzed: Tyrannosaurus Rex / A Beard Of Stars Deluxe CD2
––––––––––––––––––––––––––––––––––––––––

DR Peak RMS Duration Track
––––––––––––––––––––––––––––––––––––––––
DR11 0.00 dB -13.47 dB 2:35 01-Fist Heart Mighty Dawn Dart (Home Demo Take 1)
DR9 -2.00 dB -13.85 dB 2:52 02-Organ Blues (Home Demo Take 1)
DR10 0.00 dB -13.27 dB 2:00 03-A Day Laye (Home Demo Take 1)
DR8 -3.79 dB -15.64 dB 0:51 04-Lofty Skies (Alternative Home Demo)
DR9 -2.00 dB -10.73 dB 1:33 05-Organ Blues (Home Demo Take 2)
DR10 0.00 dB -14.01 dB 1:28 06-Black Cat Sittin' On My Shoulder (Home Demo Take 1)
DR6 -1.73 dB -11.55 dB 1:23 07-Instrumental (Guitar And Organ Home Demo)
DR9 -1.00 dB -12.53 dB 2:33 08-Pavillions Of Sun (Home Demo 1)
DR14 0.00 dB -16.57 dB 1:15 09-I Got The Blues So Bad (Home Demo)
DR12 0.00 dB -15.90 dB 2:59 10-By The Light Of A Magical Moon (Home Demo)
DR13 0.00 dB -16.08 dB 2:04 11-Find A Little Wood (Home Demo)
DR12 0.00 dB -15.26 dB 2:05 12-Great Horse (Home Demo)
DR8 -1.68 dB -12.85 dB 1:39 13-Wind Cheetah (Home Demo)
DR11 0.00 dB -13.46 dB 2:32 14-Pavillions Of Sun (Home Demo Take 2)
DR9 0.00 dB -14.24 dB 2:52 15-Elemental Child (Home Demo)
DR9 0.00 dB -12.43 dB 1:32 16-Black Cat Sittin' On My Shoulder (Home Demo Take 2)
DR10 -0.01 dB -14.64 dB 2:10 17-Fist Heart Mighty Dawn Dart (Home Demo 2)
DR10 -0.76 dB -11.61 dB 2:42 18-Oh Baby (Home Demo)
DR12 0.00 dB -14.98 dB 1:15 19-Prelude (Alternative Take 1)
DR10 0.00 dB -13.59 dB 2:07 20-Dove (Alternative Take)
DR12 0.00 dB -15.02 dB 2:36 21-Dragon's EarDragon's Ear Parts One & Two (Take 2)
DR13 0.00 dB -15.25 dB 1:43 22-A Beard Of StarsA Beard Of Stars (Alternative Take 1)
DR10 0.00 dB -15.16 dB 3:35 23-Organ Blues (Alternative Take)
DR10 -0.56 dB -13.33 dB 3:02 24-Lofty Skies (Alternative Take)
DR10 -0.94 dB -14.63 dB 3:08 25-By The Light Of A Magical Moon (Instrumental)
DR12 0.00 dB -15.00 dB 2:19 26-Elemental Child Part I (Alternative Take)
DR9 -1.70 dB -13.32 dB 3:33 27-Elemental Child Part II (Alternative Take)
––––––––––––––––––––––––––––––––––––––––

Number of tracks: 27
Official DR value: DR10

Samplerate: 44100 Hz
Channels: 2
Bits per sample: 16
Bitrate: 641 kbps
Codec: FLAC

[CUETools log; Date: 31.03.2015 11:25:23; Version: 2.1.4]
[CTDB TOCID: ismvtIvasJhL4kO.Mx_DPwe9kdg-] found.
Track | CTDB Status
1 | (8/8) Accurately ripped
2 | (8/8) Accurately ripped
3 | (8/8) Accurately ripped
4 | (8/8) Accurately ripped
5 | (8/8) Accurately ripped
6 | (8/8) Accurately ripped
7 | (8/8) Accurately ripped
8 | (8/8) Accurately ripped
9 | (8/8) Accurately ripped
10 | (8/8) Accurately ripped
11 | (8/8) Accurately ripped
12 | (8/8) Accurately ripped
13 | (8/8) Accurately ripped
14 | (8/8) Accurately ripped
15 | (8/8) Accurately ripped
16 | (8/8) Accurately ripped
17 | (8/8) Accurately ripped
18 | (8/8) Accurately ripped
19 | (8/8) Accurately ripped
20 | (8/8) Accurately ripped
21 | (8/8) Accurately ripped
22 | (8/8) Accurately ripped
23 | (8/8) Accurately ripped
24 | (8/8) Accurately ripped
25 | (8/8) Accurately ripped
26 | (8/8) Accurately ripped
27 | (8/8) Accurately ripped
[AccurateRip ID: 003587b4-04158d42-740e251b] found.
Track [ CRC | V2 ] Status
01 [ffefcd8e|6aa2a41d] (0+5/5) Accurately ripped
02 [90e4b5c1|f50c9195] (0+5/5) Accurately ripped
03 [ae3df002|99b72b51] (0+5/5) Accurately ripped
04 [fd9c11da|5414e61a] (0+5/5) Accurately ripped
05 [1e27d27f|add25396] (0+5/5) Accurately ripped
06 [4990277d|de2d9912] (0+5/5) Accurately ripped
07 [70351c1b|1f9e23c3] (0+5/5) Accurately ripped
08 [af1505ea|8885c44b] (0+5/5) Accurately ripped
09 [0a787c33|f9a07ffe] (0+5/5) Accurately ripped
10 [7d8fc5c9|24ab0ba7] (0+5/5) Accurately ripped
11 [b196e5e7|3b4b5442] (0+5/5) Accurately ripped
12 [d4e728b9|88345ef6] (0+5/5) Accurately ripped
13 [1ca1ac51|904e8bea] (0+5/5) Accurately ripped
14 [c8cafd89|3400e6ec] (0+5/5) Accurately ripped
15 [63cb620b|61003493] (0+5/5) Accurately ripped
16 [d127e1e5|f194b61d] (0+5/5) Accurately ripped
17 [0090c449|dd3336c0] (0+5/5) Accurately ripped
18 [c4b9fde2|b544ef38] (0+5/5) Accurately ripped
19 [94ae860c|51978af0] (0+5/5) Accurately ripped
20 [ef0a670a|e63b7412] (0+5/5) Accurately ripped
21 [7dee2616|92265359] (0+5/5) Accurately ripped
22 [c7546252|37e0bdf1] (0+5/5) Accurately ripped
23 [6297325d|9e25548d] (0+5/5) Accurately ripped
24 [6592b537|3cf771d5] (0+5/5) Accurately ripped
25 [1eda0313|e097c60c] (0+5/5) Accurately ripped
26 [c4fc7094|60b868c6] (0+5/5) Accurately ripped
27 [e02dfe20|56dfb02b] (0+5/5) Accurately ripped

Track Peak [ CRC32 ] [W/O NULL] [ LOG ]
– 100,0 [AF6D8B04] [28194CB6] CRC32
01 100,0 [E5CC2856] [55FBDF8A]
02 79,4 [F9539708] [EC402213]
03 100,0 [666868B9] [DC0C5E19]
04 64,6 [02704685] [BFC8CD0D]
05 79,4 [777AD3CF] [1F70C56B]
06 100,0 [5BC1F7DE] [3CCBD348]
07 81,9 [27D19096] [D53BB3F2]
08 89,1 [277A30DB] [256EE85A]
09 100,0 [C8A2B2FB] [E14134FE]
10 100,0 [C336C301] [32ED164E]
11 100,0 [BBF468B9] [1CE787C1]
12 100,0 [AF354549] [3A184AC5]
13 82,3 [0D458041] [56007FF7]
14 100,0 [DDCB9E82] [2B376353]
15 100,0 [42B2B7DC] [86C3ACCD]
16 100,0 [0DB6B6F0] [1AF1F7EE]
17 99,8 [1B4A4D67] [A205994A]
18 91,6 [09D446A0] [8BA33D9D]
19 100,0 [BA8412DB] [76A506F8]
20 100,0 [1AD34C42] [ABB718EC]
21 100,0 [FF81ED61] [60D65B80]
22 100,0 [6D762776] [A1BBC696]
23 100,0 [ACDE890D] [4C2091E5]
24 93,7 [046009DE] [F0F8E051]
25 89,7 [979E3660] [F31AB91D]
26 100,0 [043BBA8B] [8F86B4F0]
27 82,1 [217AF2A0] [7AAF1F17]

Tyrannosaurus Rex - A Beard Of Stars (1970) [2CD, Deluxe Edition]

All thanks go to ALLexxess