Subcategories

U2 - Boy (1980) [2CD, Deluxe Edition]

Posted By: v3122
U2 - Boy (1980) [2CD, Deluxe Edition]

U2 - Boy (1980)
EAC | Flac(Image) + Cue + Log & MP3 CBR 320Kbps
2008 | Universal-Island, B0010946-02 | ~ 657 or 285 Mb | Artwork(jpg) -> 66 Mb
Pop Rock, Alternative Rock, New wave

From the outset, U2 went for the big message – every song on their debut album Boy sounds huge, with oceans of processed guitars cascading around Bono's impassioned wail. It was an inspired combination of large, stadium-rock beats and post-punk textures. Without the Edge's echoed, ringing guitar, U2 would have sounded like a traditional hard rock band, since the rhythm section and Bono treat each song as an anthem. Of course, that's the charm of Boy: all of its emotions are on the surface, delivered with optimistic, youthful self-belief, yet the unusual, distinctive guitar textures give it an unexpected tension that makes it an exhilarating debut. The songs may occasionally show some weakness – the driving "I Will Follow," the dark "An Cat Dubh," and the shimmering "The Ocean" stand out among the sonic textures – yet the band's musical and lyrical vision keep Boy compelling until the finish.

by Stephen Thomas Erlewine, allmusic
U2 - Boy (1980):

U2 - Boy (1980) [2CD, Deluxe Edition]

Tracklist CD1:

01.I Will Follow (3:37)
02.Twilight (4:22)
03.An Cat Dubh (4:46)
04.Into The Heart (3:28)
05.Out Of Control (4:14)
06.Stories For Boys (3:02)
07.The Ocean (1:35)
08.A Day Without Me (3:13)
09.Another Time, Another Place (4:33)
10.The Electric Co. (4:47)
11.Shadows And Tall Trees (4:40)
12.Fire (Short Instrumental Hidden Track) (0:34)

EAC extraction logfile from 23. July 2008, 4:18 for CD
U2 / Boy (2008 Remaster)

Used drive : DVDRW IDE 16X Adapter: 1 ID: 1
Read mode : Secure with NO C2, accurate stream, disable cache
Read offset correction : 12
Overread into Lead-In and Lead-Out : No

Used output format : C:\Program Files\FLAC\flac.exe (User Defined Encoder)
320 kBit/s
Additional command line options : -8 -V -T "ARTIST=%a" -T "TITLE=%t" -T "ALBUM=%g" -T "DATE=%y" -T "TRACKNUMBER=%n" -T "GENRE=%m" -T "COMMENT=EAC FLAC 1.2.1 -8" %s

Other options :
Fill up missing offset samples with silence : Yes
Delete leading and trailing silent blocks : No
Native Win32 interface for Win NT & 2000


Track 1
Filename E:\My Shared Files\U2 - Boy (1980) [FLAC] (2-CD) {2008 Remaster, Deluxe Edition}\01 - I Will Follow.wav

Pre-gap length 0:00:02.00

Peak level 100.0 %
Track quality 100.0 %
Test CRC EBFC4055
Copy CRC EBFC4055
Copy OK

Track 2
Filename E:\My Shared Files\U2 - Boy (1980) [FLAC] (2-CD) {2008 Remaster, Deluxe Edition}\02 - Twilight.wav

Peak level 100.0 %
Track quality 100.0 %
Test CRC 28DD1CD4
Copy CRC 28DD1CD4
Copy OK

Track 3
Filename E:\My Shared Files\U2 - Boy (1980) [FLAC] (2-CD) {2008 Remaster, Deluxe Edition}\03 - An Cat Dubh.wav

Peak level 100.0 %
Track quality 100.0 %
Test CRC 39156600
Copy CRC 39156600
Copy OK

Track 4
Filename E:\My Shared Files\U2 - Boy (1980) [FLAC] (2-CD) {2008 Remaster, Deluxe Edition}\04 - Into The Heart.wav

Peak level 100.0 %
Track quality 100.0 %
Test CRC 7F479F24
Copy CRC 7F479F24
Copy OK

Track 5
Filename E:\My Shared Files\U2 - Boy (1980) [FLAC] (2-CD) {2008 Remaster, Deluxe Edition}\05 - Out Of Control.wav

Peak level 100.0 %
Track quality 99.9 %
Test CRC D62DD96D
Copy CRC D62DD96D
Copy OK

Track 6
Filename E:\My Shared Files\U2 - Boy (1980) [FLAC] (2-CD) {2008 Remaster, Deluxe Edition}\06 - Stories For Boys.wav

Pre-gap length 0:00:00.23

Peak level 100.0 %
Track quality 100.0 %
Test CRC A819FA1C
Copy CRC A819FA1C
Copy OK

Track 7
Filename E:\My Shared Files\U2 - Boy (1980) [FLAC] (2-CD) {2008 Remaster, Deluxe Edition}\07 - The Ocean.wav

Peak level 96.4 %
Track quality 100.0 %
Test CRC 14648FFF
Copy CRC 14648FFF
Copy OK

Track 8
Filename E:\My Shared Files\U2 - Boy (1980) [FLAC] (2-CD) {2008 Remaster, Deluxe Edition}\08 - A Day Without Me.wav

Peak level 100.0 %
Track quality 100.0 %
Test CRC 640CA290
Copy CRC 640CA290
Copy OK

Track 9
Filename E:\My Shared Files\U2 - Boy (1980) [FLAC] (2-CD) {2008 Remaster, Deluxe Edition}\09 - Another Time, Another Place.wav

Peak level 100.0 %
Track quality 99.9 %
Test CRC 60530701
Copy CRC 60530701
Copy OK

Track 10
Filename E:\My Shared Files\U2 - Boy (1980) [FLAC] (2-CD) {2008 Remaster, Deluxe Edition}\10 - The Electric Co..wav

Peak level 100.0 %
Track quality 100.0 %
Test CRC B7836837
Copy CRC B7836837
Copy OK

Track 11
Filename E:\My Shared Files\U2 - Boy (1980) [FLAC] (2-CD) {2008 Remaster, Deluxe Edition}\11 - Shadows And Tall Trees.wav

Peak level 100.0 %
Track quality 100.0 %
Test CRC 03A9A4DB
Copy CRC 03A9A4DB
Copy OK

Track 12
Filename E:\My Shared Files\U2 - Boy (1980) [FLAC] (2-CD) {2008 Remaster, Deluxe Edition}\12 - Fire (Short Instrumental Hidden Track).wav

Pre-gap length 0:00:03.62

Peak level 20.4 %
Track quality 100.0 %
Test CRC 75CC5E52
Copy CRC 75CC5E52
Copy OK

No errors occured


End of status report


[CUETools log; Date: 13.01.2019 8:16:44; Version: 2.1.4]
[AccurateRip ID: 00142a85-00ba5e6e-990a0d0c] found.
Track [ CRC | V2 ] Status
01 [5fe68112|5557c32c] (200+200/442) Accurately ripped
02 [dd1984e1|f93eaed0] (200+200/447) Accurately ripped
03 [601ce65d|ddb8ceb3] (200+200/441) Accurately ripped
04 [5e9295fd|7f2fc522] (200+200/441) Accurately ripped
05 [8a61cd53|d1cacf9e] (200+200/442) Accurately ripped
06 [f15c6f51|c02f90da] (200+200/441) Accurately ripped
07 [af0133bf|428c2148] (200+200/441) Accurately ripped
08 [d6b96874|1ee5e690] (200+200/441) Accurately ripped
09 [2bc223b4|6bd470a9] (200+200/441) Accurately ripped
10 [024fec41|f645de5c] (200+200/441) Accurately ripped
11 [298aa511|05085320] (200+200/441) Accurately ripped
12 [3419c975|b4e3a84a] (200+200/439) Accurately ripped
Offsetted by 6:
01 [7ceccf4a] (003/442) Accurately ripped
02 [1c12ded2] (003/447) Accurately ripped
03 [d9d17b9a] (003/441) Accurately ripped
04 [14d1cfc7] (003/441) Accurately ripped
05 [b5320301] (003/442) Accurately ripped
06 [e602f2cd] (003/441) Accurately ripped
07 [b9f699a7] (003/441) Accurately ripped
08 [b7c94770] (003/441) Accurately ripped
09 [01df7abd] (003/441) Accurately ripped
10 [921dc1bf] (003/441) Accurately ripped
11 [b21d2308] (003/441) Accurately ripped
12 [c625f26f] (003/439) Accurately ripped
Offsetted by 10:
01 [e59bae1a] (002/442) Accurately ripped
02 [c76b6f22] (002/447) Accurately ripped
03 [a03447b7] (002/441) Accurately ripped
04 [cc1d4e49] (002/441) Accurately ripped
05 [5035cce6] (002/442) Accurately ripped
06 [33c74a75] (002/441) Accurately ripped
07 [c144dd97] (002/441) Accurately ripped
08 [4dd3dc18] (002/441) Accurately ripped
09 [f8a9ba91] (002/441) Accurately ripped
10 [b0d52e51] (002/441) Accurately ripped
11 [ff926182] (002/441) Accurately ripped
12 [7cd8b86b] (002/439) Accurately ripped
Offsetted by -658:
01 [9b88546a] (000/442) No match (V2 was not tested)
02 [11f65547] (000/447) No match (V2 was not tested)
03 [2ad97ddd] (000/441) No match (V2 was not tested)
04 [485c47a4] (000/441) No match (V2 was not tested)
05 [cbf179ac] (000/442) No match (V2 was not tested)
06 [78b21bdd] (000/441) No match (V2 was not tested)
07 [fd368c07] (000/441) No match (V2 was not tested)
08 [6cece280] (000/441) No match (V2 was not tested)
09 [f50bdb24] (000/441) No match (V2 was not tested)
10 [4d4209a1] (000/441) No match (V2 was not tested)
11 [7775f96b] (000/441) No match (V2 was not tested)
12 [4e399107] (000/439) No match (V2 was not tested)
Offsetted by -18:
01 [08d3966a] (000/442) No match (V2 was not tested)
02 [149ac74a] (000/447) No match (V2 was not tested)
03 [83428fbd] (000/441) No match (V2 was not tested)
04 [593711d8] (000/441) No match (V2 was not tested)
05 [61f5b011] (000/442) No match (V2 was not tested)
06 [1368e4dd] (000/441) No match (V2 was not tested)
07 [8e210207] (000/441) No match (V2 was not tested)
08 [3389cb80] (000/441) No match (V2 was not tested)
09 [1dfdb826] (000/441) No match (V2 was not tested)
10 [ace5033b] (000/441) No match (V2 was not tested)
11 [770481f7] (000/441) No match (V2 was not tested)
12 [7df54e87] (000/439) No match (V2 was not tested)
Offsetted by -6:
01 [42e032da] (000/442) No match (V2 was not tested)
02 [c3057d34] (000/447) No match (V2 was not tested)
03 [bd050991] (000/441) No match (V2 was not tested)
04 [48d439f2] (000/441) No match (V2 was not tested)
05 [07f28fcd] (000/442) No match (V2 was not tested)
06 [fcb5ebd5] (000/441) No match (V2 was not tested)
07 [a40bcdd7] (000/441) No match (V2 was not tested)
08 [f5a98978] (000/441) No match (V2 was not tested)
09 [dcb7346e] (000/441) No match (V2 was not tested)
10 [f579ba87] (000/441) No match (V2 was not tested)
11 [f4d56213] (000/441) No match (V2 was not tested)
12 [a20da07b] (000/439) No match (V2 was not tested)

Track Peak [ CRC32 ] [W/O NULL] [ LOG ]
– 100,0 [0345DA03] [113409B7]
01 100,0 [EBFC4055] [DC96E1AF] CRC32
02 100,0 [28DD1CD4] [87B62E24] CRC32
03 100,0 [39156600] [4B6C581F] CRC32
04 100,0 [7F479F24] [87A3AD52] CRC32
05 100,0 [D62DD96D] [5C6A8080] CRC32
06 100,0 [A819FA1C] [D806A261] CRC32
07 96,4 [14648FFF] [FC119C06] CRC32
08 100,0 [640CA290] [00CDB236] CRC32
09 100,0 [60530701] [966A17B7] CRC32
10 100,0 [B7836837] [E13ED80C] CRC32
11 100,0 [03A9A4DB] [8E801E95] CRC32
12 20,4 [75CC5E52] [52BC2D42] CRC32


U2 - Boy (1980) [2CD, Deluxe Edition]

Tracklist CD2:

01.I Will Follow (Previously Unreleased Mix) (3:38)
02.11 O'Clock Tick Tock (3:47)
03.Touch (3:26)
04.Speed Of Life (Previously Unreleased Track) (3:19)
05.Saturday Night (Previously Unreleased Track) (5:13)
06.Things To Make And Do (2:17)
07.Out Of Control (3:53)
08.Boy-Girl (3:23)
09.Stories For Boys (2:42)
10.Another Day (3:28)
11.Twilight (4:35)
12.Boy-Girl (Live At The Marquee, London) (3:26)
13.11 O' Clock Tick Tock (Live At The Marquee, London, Previously Unreleased Version) (4:59)
14.Cartoon World (Live At The National Stadium, Dublin, Previously Unreleased Track) (4:22)

EAC extraction logfile from 23. July 2008, 10:52 for CD
U2 / Boy (2008 Bonus CD)

Used drive : DVDRW IDE 16X Adapter: 1 ID: 1
Read mode : Secure with NO C2, accurate stream, disable cache
Read offset correction : 12
Overread into Lead-In and Lead-Out : No

Used output format : C:\Program Files\FLAC\flac.exe (User Defined Encoder)
320 kBit/s
Additional command line options : -8 -V -T "ARTIST=%a" -T "TITLE=%t" -T "ALBUM=%g" -T "DATE=%y" -T "TRACKNUMBER=%n" -T "GENRE=%m" -T "COMMENT=EAC FLAC 1.2.1 -8" %s

Other options :
Fill up missing offset samples with silence : Yes
Delete leading and trailing silent blocks : No
Native Win32 interface for Win NT & 2000


Track 1
Filename E:\My Shared Files\U2 - Boy (1980) [FLAC] (2-CD) {2008 Remaster, Deluxe Edition}\Bonus CD\01 - I Will Follow (Previously Unreleased Mix).wav

Pre-gap length 0:00:02.00

Peak level 100.0 %
Track quality 99.9 %
Test CRC 5E3E4C32
Copy CRC 5E3E4C32
Copy OK

Track 2
Filename E:\My Shared Files\U2 - Boy (1980) [FLAC] (2-CD) {2008 Remaster, Deluxe Edition}\Bonus CD\02 - 11 O'Clock Tick Tock.wav

Peak level 100.0 %
Track quality 100.0 %
Test CRC 5B0774A1
Copy CRC 5B0774A1
Copy OK

Track 3
Filename E:\My Shared Files\U2 - Boy (1980) [FLAC] (2-CD) {2008 Remaster, Deluxe Edition}\Bonus CD\03 - Touch.wav

Pre-gap length 0:00:01.48

Peak level 100.0 %
Track quality 100.0 %
Test CRC 64722074
Copy CRC 64722074
Copy OK

Track 4
Filename E:\My Shared Files\U2 - Boy (1980) [FLAC] (2-CD) {2008 Remaster, Deluxe Edition}\Bonus CD\04 - Speed Of Life (Previously Unreleased Track).wav

Pre-gap length 0:00:02.09

Peak level 100.0 %
Track quality 99.9 %
Test CRC 8AAD38AD
Copy CRC 8AAD38AD
Copy OK

Track 5
Filename E:\My Shared Files\U2 - Boy (1980) [FLAC] (2-CD) {2008 Remaster, Deluxe Edition}\Bonus CD\05 - Saturday Night (Previously Unreleased Track).wav

Pre-gap length 0:00:01.21

Peak level 100.0 %
Track quality 100.0 %
Test CRC DBD81886
Copy CRC DBD81886
Copy OK

Track 6
Filename E:\My Shared Files\U2 - Boy (1980) [FLAC] (2-CD) {2008 Remaster, Deluxe Edition}\Bonus CD\06 - Things To Make And Do.wav

Pre-gap length 0:00:01.31

Peak level 95.0 %
Track quality 100.0 %
Test CRC 01A65FB9
Copy CRC 01A65FB9
Copy OK

Track 7
Filename E:\My Shared Files\U2 - Boy (1980) [FLAC] (2-CD) {2008 Remaster, Deluxe Edition}\Bonus CD\07 - Out Of Control.wav

Pre-gap length 0:00:01.51

Peak level 100.0 %
Track quality 100.0 %
Test CRC CF5B7307
Copy CRC CF5B7307
Copy OK

Track 8
Filename E:\My Shared Files\U2 - Boy (1980) [FLAC] (2-CD) {2008 Remaster, Deluxe Edition}\Bonus CD\08 - Boy-Girl.wav

Pre-gap length 0:00:02.06

Peak level 100.0 %
Track quality 100.0 %
Test CRC 2103460C
Copy CRC 2103460C
Copy OK

Track 9
Filename E:\My Shared Files\U2 - Boy (1980) [FLAC] (2-CD) {2008 Remaster, Deluxe Edition}\Bonus CD\09 - Stories For Boys.wav

Pre-gap length 0:00:01.53

Peak level 100.0 %
Track quality 100.0 %
Test CRC 0BD239DC
Copy CRC 0BD239DC
Copy OK

Track 10
Filename E:\My Shared Files\U2 - Boy (1980) [FLAC] (2-CD) {2008 Remaster, Deluxe Edition}\Bonus CD\10 - Another Day.wav

Pre-gap length 0:00:01.73

Peak level 100.0 %
Track quality 100.0 %
Test CRC 23736F27
Copy CRC 23736F27
Copy OK

Track 11
Filename E:\My Shared Files\U2 - Boy (1980) [FLAC] (2-CD) {2008 Remaster, Deluxe Edition}\Bonus CD\11 - Twilight.wav

Pre-gap length 0:00:03.26

Peak level 91.5 %
Track quality 100.0 %
Test CRC DD4202FF
Copy CRC DD4202FF
Copy OK

Track 12
Filename E:\My Shared Files\U2 - Boy (1980) [FLAC] (2-CD) {2008 Remaster, Deluxe Edition}\Bonus CD\12 - Boy-Girl (Live At The Marquee, London).wav

Pre-gap length 0:00:02.16

Peak level 100.0 %
Track quality 100.0 %
Test CRC 0FF08193
Copy CRC 0FF08193
Copy OK

Track 13
Filename E:\My Shared Files\U2 - Boy (1980) [FLAC] (2-CD) {2008 Remaster, Deluxe Edition}\Bonus CD\13 - 11 O' Clock Tick Tock (Live At The Marquee, London, Previously Unreleased Version).wav

Pre-gap length 0:00:01.63

Peak level 100.0 %
Track quality 100.0 %
Test CRC 04798A42
Copy CRC 04798A42
Copy OK

Track 14
Filename E:\My Shared Files\U2 - Boy (1980) [FLAC] (2-CD) {2008 Remaster, Deluxe Edition}\Bonus CD\14 - Cartoon World (Live At The National Stadium, Dublin, Previously Unreleased Track).wav

Pre-gap length 0:00:02.44

Peak level 99.9 %
Track quality 100.0 %
Test CRC 5A6C77A6
Copy CRC 5A6C77A6
Copy OK

No errors occured


End of status report


[CUETools log; Date: 13.01.2019 8:19:21; Version: 2.1.4]
[AccurateRip ID: 001a3358-0117cf60-c90c4c0e] found.
Track [ CRC | V2 ] Status
01 [9973f799|4635ab6f] (072+073/145) Accurately ripped
02 [b5796cf5|7fbe833a] (071+074/145) Accurately ripped
03 [95cca608|64197632] (072+074/146) Accurately ripped
04 [bd7e1f45|a29f11ff] (072+074/146) Accurately ripped
05 [42f3dac7|997cd691] (072+074/146) Accurately ripped
06 [fb46d487|b81a074c] (071+075/146) Accurately ripped
07 [7e4cb93f|789f7cc8] (071+075/146) Accurately ripped
08 [9391ebbf|3fe0dffd] (071+075/146) Accurately ripped
09 [163eb35c|cbfd2cf7] (071+075/146) Accurately ripped
10 [9ccbbd0d|0e523c33] (070+074/144) Accurately ripped
11 [a2188da6|7d0fd8b9] (071+075/146) Accurately ripped
12 [39319928|185ff503] (071+074/145) Accurately ripped
13 [e6f905ac|5737c238] (071+073/144) Accurately ripped
14 [00701646|c07c2b80] (071+074/145) Accurately ripped

Track Peak [ CRC32 ] [W/O NULL] [ LOG ]
– 100,0 [01334C74] [4237B52A]
01 100,0 [5E3E4C32] [55EC309F] CRC32
02 100,0 [5B0774A1] [5ED70F83] CRC32
03 100,0 [64722074] [39021CAB] CRC32
04 100,0 [8AAD38AD] [F3A8B1DE] CRC32
05 100,0 [DBD81886] [87D1C60B] CRC32
06 95,0 [01A65FB9] [AE7A8C87] CRC32
07 100,0 [CF5B7307] [505AAEDE] CRC32
08 100,0 [2103460C] [4A3BF4A2] CRC32
09 100,0 [0BD239DC] [074A7B3F] CRC32
10 100,0 [23736F27] [33E3741A] CRC32
11 91,5 [DD4202FF] [6C2FA582] CRC32
12 100,0 [0FF08193] [A28B9F89] CRC32
13 100,0 [04798A42] [6F1E0092] CRC32
14 99,9 [5A6C77A6] [5EE96C26] CRC32


U2 - Boy (1980) [2CD, Deluxe Edition]

All thanks go to the original releaser

U2 in my Blog

Download U2 - Boy (1980):