Subcategories

U2: Singles Collection. Part 05 (2002-2009)

Posted By: v3122
U2: Singles Collection. Part 05 (2002-2009)

U2: Singles Collection. Part 05 (2002-2009)
EAC | Flac(Image) + Cue + Log & MP3 CBR 320Kbps
12CD | Label: Various | ~ 1337 or 592 Mb | Artwork(png) -> 137 Mb
Post Punk, New Wave, Rock

U2 are an Irish rock band from Dublin formed in 1976. The group consists of Bono (lead vocals and rhythm guitar), the Edge (lead guitar, keyboards, and backing vocals), Adam Clayton (bass guitar), and Larry Mullen Jr. (drums and percussion). Initially rooted in post-punk, U2's musical style has evolved throughout their career, yet has maintained an anthemic sound built on Bono's expressive vocals and the Edge's effects-based guitar textures. Their lyrics, often embellished with spiritual imagery, focus on personal and sociopolitical themes. Popular for their live performances, the group have staged several ambitious and elaborate tours over their career.

The band formed as teenagers while attending Mount Temple Comprehensive School, when they had limited musical proficiency. Within four years, they signed with Island Records and released their debut album, Boy (1980). Subsequent work such as their first UK number-one album, War (1983), and the singles "Sunday Bloody Sunday" and "Pride (In the Name of Love)" helped establish U2's reputation as a politically and socially conscious group. By the mid-1980s, they had become renowned globally for their live act, highlighted by their performance at Live Aid in 1985. The group's fifth album, The Joshua Tree (1987), made them international superstars and was their greatest critical and commercial success. Topping music charts around the world, it produced their only number-one singles in the US, "With or Without You" and "I Still Haven't Found What I'm Looking For".

Facing creative stagnation and a backlash following their documentary/double album, Rattle and Hum (1988), U2 reinvented themselves in the 1990s through a new musical direction and public image. Beginning with their acclaimed seventh album, Achtung Baby (1991), and the multimedia-intensive Zoo TV Tour, the band integrated influences from alternative rock, electronic dance music, and industrial music into their sound, and embraced a more ironic, flippant image. This experimentation continued through their ninth album, Pop (1997), and the PopMart Tour, which were mixed successes. U2 regained critical and commercial favour with the records All That You Can't Leave Behind (2000) and How to Dismantle an Atomic Bomb (2004), which established a more conventional, mainstream sound for the group. Their U2 360° Tour of 2009–2011 is the highest-attended and highest-grossing concert tour in history. The group most recently released the companion albums Songs of Innocence (2014) and Songs of Experience (2017), the former of which received criticism for its pervasive, no-cost release through the iTunes Store.

U2 have released 14 studio albums and are one of the world's best-selling music artists in history, having sold more than 170 million records worldwide. They have won 22 Grammy Awards, more than any other band, and in 2005, they were inducted into the Rock and Roll Hall of Fame in their first year of eligibility. Rolling Stone ranked U2 at number 22 on its list of the "100 Greatest Artists of All Time". Throughout their career, as a band and as individuals, they have campaigned for human rights and social justice causes, including Amnesty International, Jubilee 2000, the ONE/DATA campaigns, Product Red, War Child, and Music Rising…

~ wiki
U2: Singles Collection. Part 05 (2002-2009)

U2: Singles Collection. Part 05 (2002-2009):

U2: Singles Collection. Part 05 (2002-2009)

Tracklist CD01 - 2002 - Electrical Storm [EU, Island CID 808, 063 909-2]:

01.Electrical Storm (William Orbit Mix) (4:42)
02.New York (Nice Mix) (5:47)
03.New York (Nasty Mix) (5:00)

Exact Audio Copy V0.99 prebeta 5 from 4. May 2009

EAC extraction logfile from 3. February 2010, 9:59

U2 / Electrical Storm

Used drive : PLDS DVD+-RW DH-24AAS Adapter: 0 ID: 1

Read mode : Secure
Utilize accurate stream : Yes
Defeat audio cache : Yes
Make use of C2 pointers : No

Read offset correction : 6
Overread into Lead-In and Lead-Out : No
Fill up missing offset samples with silence : Yes
Delete leading and trailing silent blocks : No
Null samples used in CRC calculations : Yes
Used interface : Native Win32 interface for Win NT & 2000
Gap handling : Appended to previous track

Used output format : User Defined Encoder
Selected bitrate : 768 kBit/s
Quality : High
Add ID3 tag : No
Command line compressor : C:\Program Files (x86)\FLAC\flac.exe
Additional command line options : -8 -V -T "ARTIST=%a" -T "TITLE=%t" -T "ALBUM=%g" -T "DATE=%y" -T "TRACKNUMBER=%n" -T "GENRE=%m" -T "COMMENT=EAC FLAC -8" %s


TOC of the extracted CD

Track | Start | Length | Start sector | End sector
––––––––––––––––––––––––––––-
1 | 0:00.00 | 4:41.72 | 0 | 21146
2 | 4:41.72 | 5:46.38 | 21147 | 47134
3 | 10:28.35 | 5:00.25 | 47135 | 69659


Track 1

Filename C:\New Rip\01 - Electrical Storm (William Orbit Mix).wav

Pre-gap length 0:00:02.00

Peak level 100.0 %
Track quality 100.0 %
Test CRC 98EF083B
Copy CRC 98EF083B
Accurately ripped (confidence 6) [DF9E282E]
Copy OK

Track 2

Filename C:\New Rip\02 - New York (Nice Mix).wav

Pre-gap length 0:00:03.69

Peak level 100.0 %
Track quality 100.0 %
Test CRC 213054A4
Copy CRC 213054A4
Accurately ripped (confidence 7) [A2A3A31A]
Copy OK

Track 3

Filename C:\New Rip\03 - New York (Nasty Mix).wav

Pre-gap length 0:00:03.20

Peak level 100.0 %
Track quality 100.0 %
Test CRC E59FF47C
Copy CRC E59FF47C
Accurately ripped (confidence 6) [5ED87ED4]
Copy OK


All tracks accurately ripped

No errors occurred

End of status report


U2: Singles Collection. Part 05 (2002-2009)

Tracklist CD02 - 2002 - Electrical Storm [EU, Island CIDX 808, 063 910-2]:

01.Electrical Storm (4:29)
02.Bad, 40, Where The Streets Have No Name (Live From Boston) (12:28)

Exact Audio Copy V0.99 prebeta 5 from 4. May 2009

EAC extraction logfile from 3. February 2010, 15:07

U2 / Electrical Storm

Used drive : PLDS DVD+-RW DH-24AAS Adapter: 0 ID: 1

Read mode : Secure
Utilize accurate stream : Yes
Defeat audio cache : Yes
Make use of C2 pointers : No

Read offset correction : 6
Overread into Lead-In and Lead-Out : No
Fill up missing offset samples with silence : Yes
Delete leading and trailing silent blocks : No
Null samples used in CRC calculations : Yes
Used interface : Native Win32 interface for Win NT & 2000
Gap handling : Appended to previous track

Used output format : User Defined Encoder
Selected bitrate : 768 kBit/s
Quality : High
Add ID3 tag : No
Command line compressor : C:\Program Files (x86)\FLAC\flac.exe
Additional command line options : -8 -V -T "ARTIST=%a" -T "TITLE=%t" -T "ALBUM=%g" -T "DATE=%y" -T "TRACKNUMBER=%n" -T "GENRE=%m" -T "COMMENT=EAC FLAC -8" %s


TOC of the extracted CD

Track | Start | Length | Start sector | End sector
––––––––––––––––––––––––––––-
1 | 0:00.00 | 4:28.45 | 0 | 20144
2 | 4:28.45 | 12:27.47 | 20145 | 76216


Track 1

Filename C:\New Rip\01 - Electrical Storm.wav

Pre-gap length 0:00:02.00

Peak level 100.0 %
Track quality 100.0 %
Test CRC FEE180A3
Copy CRC FEE180A3
Accurately ripped (confidence 4) [7ED05B28]
Copy OK

Track 2

Filename C:\New Rip\02 - Bad, 40, Where The Streets Have No Name (Live From Boston).wav

Pre-gap length 0:00:03.73

Peak level 100.0 %
Track quality 100.0 %
Test CRC 578D0B9A
Copy CRC 578D0B9A
Accurately ripped (confidence 5) [6D252C1E]
Copy OK


All tracks accurately ripped

No errors occurred

End of status report


U2: Singles Collection. Part 05 (2002-2009)

Tracklist CD03 - 2004 - Vertigo [Canada, Island 0249868183]:

01.Vertigo (3:14)
02.Vertigo (Jacknife Lee 10'') (4:16)
03.Neon Lights (4:07)

Exact Audio Copy V0.99 prebeta 4 from 23. January 2008

EAC extraction logfile from 7. September 2008, 15:37

U2 / Vertigo

Used drive : HL-DT-STDVDRAM GH20NS10 Adapter: 3 ID: 0

Read mode : Secure
Utilize accurate stream : Yes
Defeat audio cache : Yes
Make use of C2 pointers : No

Read offset correction : 667
Overread into Lead-In and Lead-Out : No
Fill up missing offset samples with silence : Yes
Delete leading and trailing silent blocks : No
Null samples used in CRC calculations : Yes
Used interface : Native Win32 interface for Win NT & 2000
Gap handling : Appended to previous track

Used output format : User Defined Encoder
Selected bitrate : 768 kBit/s
Quality : High
Add ID3 tag : No
Command line compressor : C:\Program Files\FLAC\flac.exe
Additional command line options : -V -8 -T "artist=%a" -T "title=%t" -T "album=%g" -T "date=%y" -T "tracknumber=%n" %s


TOC of the extracted CD

Track | Start | Length | Start sector | End sector
––––––––––––––––––––––––––––-
1 | 0:00.00 | 3:13.67 | 0 | 14541
2 | 3:13.67 | 4:16.08 | 14542 | 33749
3 | 7:30.00 | 4:07.17 | 33750 | 52291


Track 1

Filename C:\Hi there RIAA, What's up IFPI\U2 - Vertigo (CDS)\01 - Vertigo.wav

Pre-gap length 0:00:02.00

Peak level 98.8 %
Track quality 100.0 %
Test CRC 1922D306
Copy CRC 1922D306
Accurately ripped (confidence 1) [CA80F1DC]
Copy OK

Track 2

Filename C:\Hi there RIAA, What's up IFPI\U2 - Vertigo (CDS)\02 - Vertigo (Jacknife Lee 10').wav

Pre-gap length 0:00:02.42

Peak level 98.8 %
Track quality 100.0 %
Test CRC B55AE842
Copy CRC B55AE842
Accurately ripped (confidence 1) [E778A93B]
Copy OK

Track 3

Filename C:\Hi there RIAA, What's up IFPI\U2 - Vertigo (CDS)\03 - Neon Lights.wav

Pre-gap length 0:00:02.93

Peak level 98.8 %
Track quality 100.0 %
Test CRC 6DB5708D
Copy CRC 6DB5708D
Accurately ripped (confidence 1) [937316D1]
Copy OK


All tracks accurately ripped

No errors occurred

End of status report


U2: Singles Collection. Part 05 (2002-2009)

Tracklist CD04 - 2004 - Vertigo [Canada, Island 0249868184]:

01.Vertigo (3:14)
02.Are You Gonna Wait Forever? (3:49)

Exact Audio Copy V0.99 prebeta 4 from 23. January 2008

EAC extraction logfile from 12. September 2008, 16:08

U2 / Vertigo (CD1)

Used drive : HL-DT-STDVDRAM GH20NS10 Adapter: 3 ID: 0

Read mode : Secure
Utilize accurate stream : Yes
Defeat audio cache : Yes
Make use of C2 pointers : No

Read offset correction : 667
Overread into Lead-In and Lead-Out : No
Fill up missing offset samples with silence : Yes
Delete leading and trailing silent blocks : No
Null samples used in CRC calculations : Yes
Used interface : Native Win32 interface for Win NT & 2000
Gap handling : Appended to previous track

Used output format : User Defined Encoder
Selected bitrate : 768 kBit/s
Quality : High
Add ID3 tag : No
Command line compressor : C:\Program Files\FLAC\flac.exe
Additional command line options : -V -8 -T "artist=%a" -T "title=%t" -T "album=%g" -T "date=%y" -T "tracknumber=%n" %s


TOC of the extracted CD

Track | Start | Length | Start sector | End sector
––––––––––––––––––––––––––––-
1 | 0:00.00 | 3:13.65 | 0 | 14539
2 | 3:13.65 | 3:48.42 | 14540 | 31681


Track 1

Filename C:\Hi there RIAA, What's up IFPI\U2 - Vertigo (CD1) (CDS)\01 - Vertigo.wav

Pre-gap length 0:00:02.00

Peak level 98.8 %
Track quality 100.0 %
Test CRC F8A16CA7
Copy CRC F8A16CA7
Track not present in AccurateRip database
Copy OK

Track 2

Filename C:\Hi there RIAA, What's up IFPI\U2 - Vertigo (CD1) (CDS)\02 - Are You Gonna Wait Forever .wav

Pre-gap length 0:00:02.37

Peak level 98.8 %
Track quality 100.0 %
Test CRC 0AF256D1
Copy CRC 0AF256D1
Track not present in AccurateRip database
Copy OK


None of the tracks are present in the AccurateRip database

No errors occurred

End of status report


U2: Singles Collection. Part 05 (2002-2009)

Tracklist CD05 - 2005 - All Because Of You [Canada, Island 0249870322]:

01.All Because of You (3:36)
02.Fast Cars [Jacknife Lee Mix] (3:28)

Exact Audio Copy V0.99 prebeta 4 from 23. January 2008

EAC extraction logfile from 15. October 2008, 3:44

U2 / All Because of You [Canada]

Used drive : HL-DT-STDVDRAM GSA-4167B Adapter: 1 ID: 1

Read mode : Secure
Utilize accurate stream : Yes
Defeat audio cache : Yes
Make use of C2 pointers : No

Read offset correction : 667
Overread into Lead-In and Lead-Out : No
Fill up missing offset samples with silence : Yes
Delete leading and trailing silent blocks : No
Null samples used in CRC calculations : Yes
Used interface : Native Win32 interface for Win NT & 2000
Gap handling : Appended to previous track

Used output format : User Defined Encoder
Selected bitrate : 320 kBit/s
Quality : High
Add ID3 tag : No
Command line compressor : C:\Program Files\Exact Audio Copy\FLAC\flac.exe
Additional command line options : -8 -e -m -A tukey(0.25) -A bartlett -A blackman_harris_4term_92db -A gauss(0.1875) -A bartlett_hann -A kaiser_bessel -b 4096 -V -T "artist=%a" -T "title=%t" -T "album=%g" -T "date=%y" -T "tracknumber=%n" -T "genre=%m" %s –


TOC of the extracted CD

Track | Start | Length | Start sector | End sector
––––––––––––––––––––––––––––-
1 | 0:00.00 | 3:36.30 | 0 | 16229
2 | 3:36.30 | 3:27.40 | 16230 | 31794


Track 1

Filename C:\Documents and Settings\Paulo\Paulo's Documents\My Music\Torrents\U2 [2005] All Because of You [CD Singles]\U2 [2005] All Because of You [Canada]\01. All Because of You.wav

Pre-gap length 0:00:02.00

Peak level 98.8 %
Track quality 100.0 %
Test CRC 491354FA
Copy CRC 491354FA
Accurately ripped (confidence 1) [FECF1569]
Copy OK

Track 2

Filename C:\Documents and Settings\Paulo\Paulo's Documents\My Music\Torrents\U2 [2005] All Because of You [CD Singles]\U2 [2005] All Because of You [Canada]\02. Fast Cars [Jacknife Lee Mix].wav

Pre-gap length 0:00:02.00

Peak level 98.8 %
Track quality 100.0 %
Test CRC C83B8E2C
Copy CRC C83B8E2C
Accurately ripped (confidence 1) [96CE086B]
Copy OK


All tracks accurately ripped

No errors occurred

End of status report


U2: Singles Collection. Part 05 (2002-2009)

Tracklist CD06 - 2005 - All Because Of You [UK, Island CID 906, 9874410]:

01.All Because Of You [Single Mix] (3:22)
02.She's A Mystery To Me [Live From Brooklyn] (2:42)

Exact Audio Copy V0.99 prebeta 5 from 4. May 2009

EAC extraction logfile from 1. April 2010, 19:42

U2 / All Because Of You

Used drive : PLDS DVD+-RW DH-24AAS Adapter: 0 ID: 1

Read mode : Secure
Utilize accurate stream : Yes
Defeat audio cache : Yes
Make use of C2 pointers : No

Read offset correction : 6
Overread into Lead-In and Lead-Out : No
Fill up missing offset samples with silence : Yes
Delete leading and trailing silent blocks : No
Null samples used in CRC calculations : Yes
Used interface : Native Win32 interface for Win NT & 2000
Gap handling : Appended to previous track

Used output format : User Defined Encoder
Selected bitrate : 768 kBit/s
Quality : High
Add ID3 tag : No
Command line compressor : C:\Program Files (x86)\FLAC\flac.exe
Additional command line options : -8 -V -T "ARTIST=%a" -T "TITLE=%t" -T "ALBUM=%g" -T "DATE=%y" -T "TRACKNUMBER=%n" -T "GENRE=%m" -T "COMMENT=EAC FLAC -8" %s


TOC of the extracted CD

Track | Start | Length | Start sector | End sector
––––––––––––––––––––––––––––-
1 | 0:00.00 | 3:21.65 | 0 | 15139
2 | 3:21.65 | 2:42.11 | 15140 | 27300


Track 1

Filename C:\2.Temp\Pedro Upload\U2 - All Because Of You (2005) [FLAC] {EU CD Single CID 906-9874410}\01 - All Because Of You [Single Mix].wav

Pre-gap length 0:00:02.00

Peak level 98.8 %
Track quality 100.0 %
Test CRC 15D7480C
Copy CRC 15D7480C
Accurately ripped (confidence 10) [91E3809C]
Copy OK

Track 2

Filename C:\2.Temp\Pedro Upload\U2 - All Because Of You (2005) [FLAC] {EU CD Single CID 906-9874410}\02 - She's A Mystery To Me [Live From Brooklyn].wav

Pre-gap length 0:00:01.89

Peak level 98.8 %
Track quality 100.0 %
Test CRC 44679CFC
Copy CRC 44679CFC
Accurately ripped (confidence 10) [EF6E946E]
Copy OK


All tracks accurately ripped

No errors occurred

End of status report


U2: Singles Collection. Part 05 (2002-2009)

Tracklist CD07 - 2005 - All Because Of You [UK, Island CIDX 906, 9874411]:

01.All Because Of You [Single Mix] (3:20)
02.Miss Sarajevo [Live From Milan] (5:15)
03.A Man And A Woman [Acoustic] (4:27)

Exact Audio Copy V0.99 prebeta 5 from 4. May 2009

EAC extraction logfile from 1. April 2010, 16:47

U2 / All Because Of You

Used drive : PLDS DVD+-RW DH-24AAS Adapter: 0 ID: 1

Read mode : Secure
Utilize accurate stream : Yes
Defeat audio cache : Yes
Make use of C2 pointers : No

Read offset correction : 6
Overread into Lead-In and Lead-Out : No
Fill up missing offset samples with silence : Yes
Delete leading and trailing silent blocks : No
Null samples used in CRC calculations : Yes
Used interface : Native Win32 interface for Win NT & 2000
Gap handling : Appended to previous track

Used output format : User Defined Encoder
Selected bitrate : 768 kBit/s
Quality : High
Add ID3 tag : No
Command line compressor : C:\Program Files (x86)\FLAC\flac.exe
Additional command line options : -8 -V -T "ARTIST=%a" -T "TITLE=%t" -T "ALBUM=%g" -T "DATE=%y" -T "TRACKNUMBER=%n" -T "GENRE=%m" -T "COMMENT=EAC FLAC -8" %s


TOC of the extracted CD

Track | Start | Length | Start sector | End sector
––––––––––––––––––––––––––––-
1 | 0:00.00 | 3:20.33 | 0 | 15032
2 | 3:20.33 | 5:15.34 | 15033 | 38691
3 | 8:35.67 | 4:27.24 | 38692 | 58740


Track 1

Filename C:\2.Temp\Pedro Upload\U2 - All Because Of You (2005) [FLAC] {EU CD Single CIDX 906-9874411}\01 - All Because Of You [Single Mix].wav

Pre-gap length 0:00:02.00

Peak level 98.8 %
Track quality 100.0 %
Test CRC B32ED624
Copy CRC B32ED624
Accurately ripped (confidence 14) [91E3809C]
Copy OK

Track 2

Filename C:\2.Temp\Pedro Upload\U2 - All Because Of You (2005) [FLAC] {EU CD Single CIDX 906-9874411}\02 - Miss Sarajevo [Live From Milan].wav

Pre-gap length 0:00:00.56

Peak level 98.8 %
Track quality 99.9 %
Test CRC B41DF1F8
Copy CRC B41DF1F8
Accurately ripped (confidence 16) [6026EBD2]
Copy OK

Track 3

Filename C:\2.Temp\Pedro Upload\U2 - All Because Of You (2005) [FLAC] {EU CD Single CIDX 906-9874411}\03 - A Man And A Woman [Acoustic].wav

Pre-gap length 0:00:01.90

Peak level 98.8 %
Track quality 99.9 %
Test CRC 6117FAC7
Copy CRC 6117FAC7
Accurately ripped (confidence 16) [A5EA6768]
Copy OK


All tracks accurately ripped

No errors occurred

End of status report


U2: Singles Collection. Part 05 (2002-2009)

Tracklist CD08 - 2006 - U2 and Green Day - The Saints Are Coming [New Zealand, Island Reprise 1713137]:

01.U2 & Green Day - The Saints Are Coming (3:24)
02.U2 & Green Day - The Saints Are Coming (Live From New Orleans) (3:27)

Exact Audio Copy V1.0 beta 1 from 15. November 2010

EAC extraction logfile from 22. May 2011, 22:01

U2 & Green Day / The Saints Are Coming

Used drive : TEAC DV-W28S-RT Adapter: 1 ID: 0

Read mode : Secure
Utilize accurate stream : Yes
Defeat audio cache : Yes
Make use of C2 pointers : No

Read offset correction : 48
Overread into Lead-In and Lead-Out : No
Fill up missing offset samples with silence : Yes
Delete leading and trailing silent blocks : No
Null samples used in CRC calculations : Yes
Used interface : Native Win32 interface for Win NT & 2000
Gap handling : Appended to previous track

Used output format : User Defined Encoder
Selected bitrate : 768 kBit/s
Quality : High
Add ID3 tag : No
Command line compressor : C:\Program Files\Exact Audio Copy\FLAC\FLAC.EXE
Additional command line options : -8 -V -T "ARTIST=%a" -T "TITLE=%t" -T "ALBUM=%g" -T "DATE=%y" -T "TRACKNUMBER=%n" -T "TOTALTRACKS=%x" -T "GENRE=%m" -T "ALBUM ARTIST=%v" -T "ALBUMARTIST=%v" -T "COMMENT=EAC V1.0 Beta 1, Secure Mode, Test & Copy, AccurateRip


TOC of the extracted CD

Track | Start | Length | Start sector | End sector
––––––––––––––––––––––––––––-
1 | 0:00.00 | 3:24.19 | 0 | 15318
2 | 3:24.19 | 3:27.28 | 15319 | 30871


Track 1

Filename C:\EAC\01 - The Saints Are Coming.wav

Pre-gap length 0:00:02.00

Peak level 98.8 %
Extraction speed 1.0 X
Track quality 100.0 %
Test CRC 25F02973
Copy CRC 25F02973
Accurately ripped (confidence 28) [3304C074]
Copy OK

Track 2

Filename C:\EAC\02 - The Saints Are Coming (Live From New Orleans).wav

Pre-gap length 0:00:01.63

Peak level 98.8 %
Extraction speed 1.1 X
Track quality 100.0 %
Test CRC 9EF788F6
Copy CRC 9EF788F6
Accurately ripped (confidence 28) [33E5D017]
Copy OK


All tracks accurately ripped

No errors occurred

End of status report

==== Log checksum 1FF12B71C3F2C74FC5BC6CCD8C9F6ACD4479B69A332FF8B6EC83AE13A3BCED42 ====


U2: Singles Collection. Part 05 (2002-2009)

Tracklist CD09 - 2006 - Window In The Skies [EU, Mercury 1718122]:

01.Window In The Skies (4:01)
02.Tower Of Song (U2 and Leonard Cohen) (5:43)

EAC extraction logfile from 16. January 2007, 23:01 for CD
U2 / Window In The Skies - CD 1 (CD-Single)

Used drive : PLEXTOR DVDR PX-712A Adapter: 6 ID: 0
Read mode : Secure with NO C2, accurate stream, disable cache
Read offset correction : 30
Overread into Lead-In and Lead-Out : No

Used output format : E:\Program Files\FLAC\flac.exe (User Defined Encoder)
320 kBit/s
Additional command line options : -6 -V -T "ARTIST=%a" -T "TITLE=%t" -T "ALBUM=%g" -T "DATE=%y" -T "TRACKNUMBER=%n" -T "GENRE=%m" -T "COMMENT=EAC 0.95 beta 4, FLAC 1.1.2 -6" %s

Other options :
Fill up missing offset samples with silence : Yes
Delete leading and trailing silent blocks : No
Installed external ASPI interface


Track 1
Filename N:\02_Music\U2 - Window In The Skies (2006)\U2 - Window In The Skies - CD 1 (2006) [FLAC] (CD-Single)\01 - Window In The Skies.wav

Pre-gap length 0:00:02.00

Peak level 98.8 %
Track quality 100.0 %
Test CRC 69DF0839
Copy CRC 69DF0839
Copy OK

Track 2
Filename N:\02_Music\U2 - Window In The Skies (2006)\U2 - Window In The Skies - CD 1 (2006) [FLAC] (CD-Single)\02 - Tower Of Song (U2 and Leonard Cohen).wav

Pre-gap length 0:00:01.92

Peak level 98.8 %
Track quality 100.0 %
Test CRC B776714D
Copy CRC B776714D
Copy OK

No errors occured


End of status report


U2: Singles Collection. Part 05 (2002-2009)

Tracklist CD10 - 2006 - Window In The Skies [EU, Mercury 1718124]:

01.Window In The Skies (4:01)
02.Zoo Station (Live From River Plate Stadium, Buenos Aires) (4:35)
03.Kite (Live From Telstra Stadium, Sydney) (8:05)

EAC extraction logfile from 31. January 2007, 11:12 for CD
U2 / Window In The Skies - CD 2 (CD-Single)

Used drive : PLEXTOR DVDR PX-712A Adapter: 6 ID: 0
Read mode : Secure with NO C2, accurate stream, disable cache
Read offset correction : 30
Overread into Lead-In and Lead-Out : No

Used output format : E:\Program Files\FLAC\flac.exe (User Defined Encoder)
320 kBit/s
Additional command line options : -6 -V -T "ARTIST=%a" -T "TITLE=%t" -T "ALBUM=%g" -T "DATE=%y" -T "TRACKNUMBER=%n" -T "GENRE=%m" -T "COMMENT=EAC 0.95 beta 4, FLAC 1.1.2 -6" %s

Other options :
Fill up missing offset samples with silence : Yes
Delete leading and trailing silent blocks : No
Installed external ASPI interface


Track 1
Filename N:\02_Music\U2 - Window In The Skies (2006)\U2 - Window In The Skies - CD 2 (2006) [FLAC] (CD-Single)\01 - Window In The Skies.wav

Pre-gap length 0:00:02.00

Peak level 98.8 %
Track quality 100.0 %
Test CRC 4901EB8F
Copy CRC 4901EB8F
Copy OK

Track 2
Filename N:\02_Music\U2 - Window In The Skies (2006)\U2 - Window In The Skies - CD 2 (2006) [FLAC] (CD-Single)\02 - Zoo Station (live from River Plate Stadium, Buenos Aires).wav

Pre-gap length 0:00:01.98

Peak level 98.8 %
Track quality 100.0 %
Test CRC 71241B0A
Copy CRC 71241B0A
Copy OK

Track 3
Filename N:\02_Music\U2 - Window In The Skies (2006)\U2 - Window In The Skies - CD 2 (2006) [FLAC] (CD-Single)\03 - Kite (live from Telstra Stadium, Sydney).wav

Pre-gap length 0:00:01.36

Peak level 98.8 %
Track quality 100.0 %
Test CRC DEDBB30A
Copy CRC DEDBB30A
Copy OK

No errors occured


End of status report


U2: Singles Collection. Part 05 (2002-2009)

Tracklist CD11 - 2009 - Get On Your Boots [EU, Universal-Island 1798675]:

01.Get On Your Boots (3:27)
02.No Line On The Horizon 2 (4:08)

Exact Audio Copy V0.99 prebeta 4 from 23. January 2008

EAC extraction logfile from 28. February 2009, 16:34

U2 / Get On Your Boots

Used drive : Optiarc DVD RW AD-7173S Adapter: 2 ID: 0

Read mode : Secure
Utilize accurate stream : Yes
Defeat audio cache : Yes
Make use of C2 pointers : No

Read offset correction : 48
Overread into Lead-In and Lead-Out : No
Fill up missing offset samples with silence : Yes
Delete leading and trailing silent blocks : No
Null samples used in CRC calculations : Yes
Used interface : Native Win32 interface for Win NT & 2000
Gap handling : Appended to previous track

Used output format : Internal WAV Routines
Sample format : 44.100 Hz; 16 Bit; Stereo


TOC of the extracted CD

Track | Start | Length | Start sector | End sector
––––––––––––––––––––––––––––-
1 | 0:00.00 | 3:27.00 | 0 | 15524
2 | 3:27.00 | 4:08.21 | 15525 | 34145


Track 1

Filename D:\EAC\01 – Get On Your Boots.wav

Pre-gap length 0:00:02.00

Peak level 88.1 %
Track quality 100.0 %
Test CRC EEA119FA
Copy CRC EEA119FA
Track not present in AccurateRip database
Copy OK

Track 2

Filename D:\EAC\02 – No Line On The Horizon 2.wav

Pre-gap length 0:00:02.73

Peak level 99.9 %
Track quality 100.0 %
Test CRC B12B959D
Copy CRC B12B959D
Track not present in AccurateRip database
Copy OK


None of the tracks are present in the AccurateRip database

No errors occurred

End of status report


U2: Singles Collection. Part 05 (2002-2009)

Tracklist CD12 - 2009 - I'll Go Crazy If I Don't Go Crazy Tonight [EU, Universal-Island 2717700]:

01.I'll Go Crazy If I Don't Go Crazy Tonight (Single Version) (4:16)
02.Magnificent (Live From Somerville Theatre) (5:08)

Exact Audio Copy V0.99 prebeta 5 from 4. May 2009

EAC extraction logfile from 7. October 2009, 21:22

U2 / I'll Go Crazy If I Don't Go Crazy Tonight

Used drive : Optiarc DVD RW AD-7173S Adapter: 2 ID: 0

Read mode : Secure
Utilize accurate stream : Yes
Defeat audio cache : Yes
Make use of C2 pointers : No

Read offset correction : 48
Overread into Lead-In and Lead-Out : No
Fill up missing offset samples with silence : Yes
Delete leading and trailing silent blocks : No
Null samples used in CRC calculations : Yes
Used interface : Native Win32 interface for Win NT & 2000
Gap handling : Appended to previous track

Used output format : User Defined Encoder
Selected bitrate : 128 kBit/s
Quality : High
Add ID3 tag : No
Command line compressor : C:\Program Files (x86)\Exact Audio Copy\Flac\flac.exe
Additional command line options : -8 -V -T "ARTIST=%a" -T "TITLE=%t" -T "ALBUM=%g" -T "DATE=%y" -T "TRACKNUMBER=%n" -T "GENRE=%m" -T "COMMENT=EAC FLAC -8" %s


TOC of the extracted CD

Track | Start | Length | Start sector | End sector
––––––––––––––––––––––––––––-
1 | 0:00.00 | 4:15.54 | 0 | 19178
2 | 4:15.54 | 5:07.43 | 19179 | 42246


Track 1

Filename E:\EAC\01. U2 – I'll Go Crazy If I Don't Go Crazy Tonight (Single Version).wav

Pre-gap length 0:00:02.00

Peak level 100.0 %
Track quality 100.0 %
Test CRC 9438860D
Copy CRC 9438860D
Track not present in AccurateRip database
Copy OK

Track 2

Filename E:\EAC\02. U2 – Magnificent (Live From Somerville Theatre).wav

Pre-gap length 0:00:01.86

Peak level 98.9 %
Track quality 100.0 %
Test CRC 6160047F
Copy CRC 6160047F
Track not present in AccurateRip database
Copy OK


None of the tracks are present in the AccurateRip database

No errors occurred

End of status report


All thanks go to the original releaser

U2 or U2 in my Blog

Download U2: Singles Collection. Part 05 (2002-2009):