Subcategories

Ulf Wallin - Reger Violin Sonatas, Op. 42 (2016)

Posted By: SERTiL
Ulf Wallin - Reger Violin Sonatas, Op. 42 (2016)

Ulf Wallin - Reger Violin Sonatas, Op. 42
Classical | WEB FLAC (tracks) & d. booklet | 57:12 min | 341 MB
Label: CPO | Tracks: 14 | Rls.date: 2016

This release completes CPO's complete recordings of Max Reger's violin oeuvre. This extensive oeuvre includes all of Reger's compositional periods, from Op. 1 to his last, unfinished Op. 147. Op. 42 revealed itself as a supreme challenge for violinist Ulf Wallin, both technically and musicially. Wallin quickly realized why Reger, is with no doubt, a master of chromatic polyphony. Reger obviously took cues from J.S. Bach in his compositions as well as lyrical and harmonic design from Brahms and Liszt.

TRACKLIST
01. Violin Sonata in D Minor, Op. 42 No. 1: I. Allegro energico
02. Violin Sonata in D Minor, Op. 42 No. 1: II. Adagio con gran espressione
03. Violin Sonata in D Minor, Op. 42 No. 1: III. Prestissimo assai
04. Violin Sonata in D Minor, Op. 42 No. 1: IV. Allegro energico
05. Violin Sonata in A Major, Op. 42 No. 2: I. Allegro con grazia
06. Violin Sonata in A Major, Op. 42 No. 2: II. Andantino
07. Violin Sonata in A Major, Op. 42 No. 2: III. Prestissimo
08. Violin Sonata in B Minor, Op. 42 No. 3: I. Pesante-Allegro con brio
09. Violin Sonata in B Minor, Op. 42 No. 3: II. Andante semplice
10. Violin Sonata in B Minor, Op. 42 No. 3: III. Prestissimo
11. Violin Sonata in B Minor, Op. 42 No. 3: IV. Vivacissimo
12. Violin Sonata in G Minor, Op. 42 No. 4: I. Sostenuto-Allegro energico
13. Violin Sonata in G Minor, Op. 42 No. 4: II. Allegretto con grazia
14. Violin Sonata in G Minor, Op. 42 No. 4: III. Andante con moto

PERFORMER: auCDtect Task Manager, ver. 1.6.0 RC1 build 1.6.0.1
Copyright © 2008-2010 y-soft. All rights reserved

ANALYZER: auCDtect: CD records authenticity detector, version 0.8.2
Copyright © 2004 Oleg Berngardt. All rights reserved.
Copyright © 2004 Alexander Djourik. All rights reserved.


FILE: 14. Violin Sonata in G Minor, Op. 42 No. 4 III. Andante con moto.flac
Size: 57129529 Hash: 316159A7CA944998A6F97F13653E05B7 Accuracy: -m0
Conclusion: CDDA 100%
Signature: ACCE1798F35DFA0A7CA355EC721F850F68702129
FILE: 13. Violin Sonata in G Minor, Op. 42 No. 4 II. Allegretto con grazia.flac
Size: 11912576 Hash: 6FF1373093BD5AF92478C97286EC4A16 Accuracy: -m0
Conclusion: CDDA 86%
Signature: 321518E66BB307822E182A480D7D275F7BEC2E0A
FILE: 12. Violin Sonata in G Minor, Op. 42 No. 4 I. Sostenuto-Allegro energico.flac
Size: 23074358 Hash: F053CDCD2164F0B8E701F0A4E7DADCCB Accuracy: -m0
Conclusion: CDDA 85%
Signature: E0680619CE7DB36F802ADC481959D95023DDD2FA
FILE: 11. Violin Sonata in B Minor, Op. 42 No. 3 IV. Vivacissimo.flac
Size: 17480182 Hash: 51ACB754549A4F80B0B472191A432292 Accuracy: -m0
Conclusion: CDDA 92%
Signature: 95B34057B37244EE763B176F2ADBD9B4F269DFF4
FILE: 10. Violin Sonata in B Minor, Op. 42 No. 3 III. Prestissimo.flac
Size: 4533070 Hash: 7FC4C5C20B605B9DC0F5079C5FC66CEF Accuracy: -m0
Conclusion: CDDA 100%
Signature: 371DC26878CC4658001A0D20D4D94ABC22C82F65
FILE: 09. Violin Sonata in B Minor, Op. 42 No. 3 II. Andante semplice.flac
Size: 10033624 Hash: CDCA8B2CFC5D5BD3DF1601134A6E1C9D Accuracy: -m0
Conclusion: CDDA 42%
Signature: 89FD854CC5AF1F16B88388CACB732183FDFDDD1A
FILE: 08. Violin Sonata in B Minor, Op. 42 No. 3 I. Pesante-Allegro con brio.flac
Size: 27585526 Hash: 2F15D7F4C954490E349366FA059964F4 Accuracy: -m0
Conclusion: CDDA 92%
Signature: FAB8DB1404366396352C846BD717794557F4CFEB
FILE: 07. Violin Sonata in A Major, Op. 42 No. 2 III. Prestissimo.flac
Size: 19656189 Hash: E8016812DDBAF3E8409F74BC73A0B342 Accuracy: -m0
Conclusion: CDDA 92%
Signature: 95EC19871836A3549C7F8E49CB64948F5817DED2
FILE: 06. Violin Sonata in A Major, Op. 42 No. 2 II. Andantino.flac
Size: 9826666 Hash: FDDBC252E4AF3B6F0F87CCF933E161D4 Accuracy: -m0
Conclusion: CDDA 42%
Signature: 1B7AF0B41EC3F9C9B2E569C6B8FC49CB55BAFF51
FILE: 05. Violin Sonata in A Major, Op. 42 No. 2 I. Allegro con grazia.flac
Size: 20778557 Hash: D0F0BB8AE792007C7073AB84442CE4FF Accuracy: -m0
Conclusion: CDDA 43%
Signature: D120313F8BC05F80BBCC4D1D66346DCDBE201C9C
FILE: 04. Violin Sonata in D Minor, Op. 42 No. 1 IV. Allegro energico.flac
Size: 13239686 Hash: 2DFA8E8145763924835064C7DFA5786C Accuracy: -m0
Conclusion: CDDA 100%
Signature: D77E61747E78643038E5625A6E5DCEA29288B81C
FILE: 03. Violin Sonata in D Minor, Op. 42 No. 1 III. Prestissimo assai.flac
Size: 14202668 Hash: 032437718298B5BACA8FAA69B0228395 Accuracy: -m0
Conclusion: CDDA 87%
Signature: B9E86E5C4E0D4DFDFFE52AF70BCD649C982BB082
FILE: 02. Violin Sonata in D Minor, Op. 42 No. 1 II. Adagio con gran espressione.flac
Size: 32542177 Hash: D6B7FC21510A973AB261C20FEEBB1BBB Accuracy: -m0
Conclusion: CDDA 87%
Signature: 320E3EA8001B84C80408560E9733A09C76FCC329
FILE: 01. Violin Sonata in D Minor, Op. 42 No. 1 I. Allegro energico.flac
Size: 40276977 Hash: 657734E18BB3A2CCF4C8EE4E0B05BFAD Accuracy: -m0
Conclusion: CDDA 94%
Signature: 001A16475A0D573FE52CDC4F8E93E6CEC704FCBC

foobar2000 1.3.7 / Dynamic Range Meter 1.1.1
log date: 2017-10-18 14:32:13

––––––––––––––––––––––––––––––––––––––––
Analyzed: Ulf Wallin / Reger: Violin Sonatas, Op. 42
––––––––––––––––––––––––––––––––––––––––

DR Peak RMS Duration Track
––––––––––––––––––––––––––––––––––––––––
DR14 -3.16 dB -21.90 dB 7:19 01-Violin Sonata in D Minor, Op. 42 No. 1: I. Allegro energico
DR13 -4.59 dB -22.80 dB 6:13 02-Violin Sonata in D Minor, Op. 42 No. 1: II. Adagio con gran espressione
DR14 -4.00 dB -22.90 dB 2:43 03-Violin Sonata in D Minor, Op. 42 No. 1: III. Prestissimo assai
DR15 -0.67 dB -22.40 dB 2:31 04-Violin Sonata in D Minor, Op. 42 No. 1: IV. Allegro energico
DR15 -3.60 dB -24.81 dB 4:10 05-Violin Sonata in A Major, Op. 42 No. 2: I. Allegro con grazia
DR13 -8.32 dB -26.59 dB 2:06 06-Violin Sonata in A Major, Op. 42 No. 2: II. Andantino
DR15 -4.05 dB -22.83 dB 3:38 07-Violin Sonata in A Major, Op. 42 No. 2: III. Prestissimo
DR15 -3.19 dB -22.14 dB 5:00 08-Violin Sonata in B Minor, Op. 42 No. 3: I. Pesante-Allegro con brio
DR13 -8.04 dB -27.65 dB 2:06 09-Violin Sonata in B Minor, Op. 42 No. 3: II. Andante semplice
DR14 -6.01 dB -24.13 dB 0:51 10-Violin Sonata in B Minor, Op. 42 No. 3: III. Prestissimo
DR13 -4.73 dB -22.49 dB 3:21 11-Violin Sonata in B Minor, Op. 42 No. 3: IV. Vivacissimo
DR15 -3.31 dB -22.68 dB 4:23 12-Violin Sonata in G Minor, Op. 42 No. 4: I. Sostenuto-Allegro energico
DR15 -3.72 dB -23.87 dB 2:24 13-Violin Sonata in G Minor, Op. 42 No. 4: II. Allegretto con grazia
DR16 -1.76 dB -21.53 dB 10:29 14-Violin Sonata in G Minor, Op. 42 No. 4: III. Andante con moto
––––––––––––––––––––––––––––––––––––––––

Number of tracks: 14
Official DR value: DR14

Samplerate: 44100 Hz
Channels: 2
Bits per sample: 16
Bitrate: 725 kbps
Codec: FLAC
================================================================================


Ulf Wallin - Reger Violin Sonatas, Op. 42 (2016)


Thanks to the Original customer.