Subcategories

Ulrich Schmid, Dominique Roggen - Villa-Lobos - Concertos for Violoncello and orchestra (1989)

Posted By: tirexiss
Ulrich Schmid, Dominique Roggen - Villa-Lobos - Concertos for Violoncello and orchestra (1989)

Ulrich Schmid, Dominique Roggen - Villa-Lobos - Concertos for Violoncello and orchestra (1989)
EAC | FLAC (image+.cue, log, scans) | 42:49 | 213 MB
Genre: Classical, Orchestral, Cello | Label: MDG | Catalog: 3210339

Heitor Villa-Lobos' two numbered cello concerti come from the opposite ends of his output; the first Grande Concerto dates from 1915 and the second from 1953. In between there is another concertante work, the Fantasia for cello and orchestra, which is contemporaneous with the Bachianas Brasileiras No. 5 for soprano and eight cellos that remains Villa-Lobos' most popular work. In this MD&G issue, Heitor Villa-Lobos: Concertos for Violoncello and Orchestra, cellist Ulrich Schmid is heard with the Nordwestdeutsche Philharmonie under conductor Dominique Roggen in the numbered concertos only, although there easily would have been enough room on the 42-minute-long disc to accommodate the Fantasia as well. A short-lived release from 1996 including all three cello concertante works, and featuring famed virtuoso Antonio Menenses, was once available on Valois, but it hasn't been seen since that company was sucked up into the Naïve combine.
This MD&G Gold edition is a high-end audio version of a release originally recorded in 1989, and other than being a Gold CD, it is in every way the same as it was on first issue, down to the dated haircuts and suits worn by the principal artists in the booklet's photo. MD&G's sound wasn't nearly as crisp and sonically spectacular in 1989 as it is two decades hence – while on "Gold" this recording is still fairly distant, quiet, and a little heavy on the room sound. Yet these are not your ordinary cello concerti; the Grande Concerto, not very "grand" at just 20 minutes, is equal parts French and Brazilian, given to long lyric lines for the cello derived from Brazilian folk melodies while the orchestration reflects the influence of Debussy, still living when Villa-Lobos put the final touches on this concerto. The second concerto retains something of a similar folk flavor, mainly in the solo part, but the harmonic underpinning and orchestral sound recalls the more rigorous, no-nonsense approach of Hindemith, an attribute that is most certainly not found with frequency in Villa-Lobos.
Perhaps at some juncture Naïve will bring the Menenses back, or another enterprising cellist will undertake the concertante works of Villa-Lobos anew. While Ulrich Schmid works hard at playing the solo parts, the recording really doesn't present his contribution in a perspective that suits it, and the orchestral accompaniment is flaccid, amorphous, and disinterested.

Ulrich Schmid, Dominique Roggen - Villa-Lobos - Concertos for Violoncello and orchestra (1989)

Track List:

Concerto No.2 for cello and orchestra
01 I. Allegro non troppo
02 II. Molto andante cantabile
03 III. Scherzo. Vivace
04 IV. Allegro energico

Grande Concerto Op.50 for cello and orchestra
05 I. Allegro con brio
06 II. Assai moderato
07 III. Allegro moderato

Performers:
Ulrich Schmid, cello
Nordwestdeutsche Philarmonie
Dominique Roggen, conductor

Ulrich Schmid, Dominique Roggen - Villa-Lobos - Concertos for Violoncello and orchestra (1989)

Exact Audio Copy V0.99 prebeta 5 from 4. May 2009

EAC extraction logfile from 25. April 2010, 13:59

Ulrich Schmid (violoncello), Nordwestdeutsche Philharmonie & Dominique Roggen / Heitor Villa-LobosЎEConcertos for Violoncello

Used drive : Optiarc DVD RW AD-5200S Adapter: 1 ID: 0

Read mode : Secure
Utilize accurate stream : Yes
Defeat audio cache : Yes
Make use of C2 pointers : No

Read offset correction : 48
Overread into Lead-In and Lead-Out : No
Fill up missing offset samples with silence : Yes
Delete leading and trailing silent blocks : No
Null samples used in CRC calculations : Yes
Used interface : Installed external ASPI interface

Used output format : User Defined Encoder
Selected bitrate : 192 kBit/s
Quality : High
Add ID3 tag : No
Command line compressor : C:\Program Files\Burrrn\flac.exe
Additional command line options : -T "DATE=%y" -T "GENRE=%m" -8 -V %s


TOC of the extracted CD

Track | Start | Length | Start sector | End sector
––––––––––––––––––––––––––––-
1 | 0:00.00 | 8:05.62 | 0 | 36436
2 | 8:05.62 | 6:25.65 | 36437 | 65376
3 | 14:31.52 | 4:42.50 | 65377 | 86576
4 | 19:14.27 | 3:50.68 | 86577 | 103894
5 | 23:05.20 | 7:19.37 | 103895 | 136856
6 | 30:24.57 | 6:06.25 | 136857 | 164331
7 | 36:31.07 | 6:18.28 | 164332 | 192709


Range status and errors

Selected range

Filename F:\EAC\Новая папка\Ulrich Schmid (violoncello), Nordwestdeutsche Philharmonie & Dominique Roggen - Heitor Villa-LobosЎEConcertos for Violoncello.wav

Peak level 100.0 %
Range quality 100.0 %
Copy CRC 3D51B73E
Copy OK

No errors occurred


AccurateRip summary

Track 1 cannot be verified as accurate (confidence 1) [6C07D8F8], AccurateRip returned [0E6E6375]
Track 2 cannot be verified as accurate (confidence 1) [F5D78B8B], AccurateRip returned [CDAD5511]
Track 3 cannot be verified as accurate (confidence 1) [13E7AD48], AccurateRip returned [BE26C6B7]
Track 4 cannot be verified as accurate (confidence 1) [CDB60C1D], AccurateRip returned [CA588B4E]
Track 5 cannot be verified as accurate (confidence 1) [99BFD56E], AccurateRip returned [51A54D06]
Track 6 cannot be verified as accurate (confidence 1) [CBC01370], AccurateRip returned [A8C4E215]
Track 7 cannot be verified as accurate (confidence 1) [5CC8E18F], AccurateRip returned [F8ECBE92]

No tracks could be verified as accurate
You may have a different pressing from the one(s) in the database

End of status report

[CUETools log; Date: 20.10.2016 13:03:19; Version: 2.1.5]
[CTDB TOCID: OherU156oyP4P0Fy8QDhgsiZSLc-] found.
Track | CTDB Status
1 | (2/2) Accurately ripped
2 | (2/2) Accurately ripped
3 | (2/2) Accurately ripped
4 | (2/2) Accurately ripped
5 | (2/2) Accurately ripped
6 | (2/2) Accurately ripped
7 | (2/2) Accurately ripped
[AccurateRip ID: 000bff09-0046ebff-670a0907] found.
Track [ CRC | V2 ] Status
01 [6c07d8f8|f1624fae] (0+0/2) No match
02 [f5d78b8b|0f20efe3] (0+0/2) No match
03 [13e7ad48|5eccb840] (0+0/2) No match
04 [cdb60c1d|28125961] (0+0/2) No match
05 [99bfd56e|d71f567b] (0+0/2) No match
06 [cbc01370|bf2d8366] (0+0/2) No match
07 [5cc8e18f|35806436] (0+0/2) No match
Offsetted by 30:
01 [026f3724] (2/2) Accurately ripped
02 [9f82ff11] (2/2) Accurately ripped
03 [a53788a9] (2/2) Accurately ripped
04 [af748bfe] (2/2) Accurately ripped
05 [f7962515] (2/2) Accurately ripped
06 [79a392c4] (2/2) Accurately ripped
07 [46fcbdaa] (2/2) Accurately ripped

Track Peak [ CRC32 ] [W/O NULL] [ LOG ]
– 100,0 [3D51B73E] [1E0BD438] CRC32
01 99,5 [A3CEBF8D] [D928D962]
02 80,2 [67797BC2] [762C63FF]
03 94,2 [80478702] [6CFBC518]
04 99,9 [64AA919A] [C7E4DB21]
05 91,4 [1A986B9A] [578BE258]
06 100,0 [932D6029] [80F69519]
07 99,3 [A3B94241] [307CA795]

AUDIOCHECKER v2.0 beta (build 457)
~~~~~~~~~~~~~~~~~~~~~~~~~~~~~~~~~~

Started at: четверг, 20. 10. 2016. - 13:43.43
1 file found

1 -===- C:\Users\tirex\Desktop\Villa-Lobos Concertos for Violoncello\Ulrich Schmid (violoncello), Nordwestdeutsche Philharmonie & Dominique Roggen - Heitor Villa-LobosЎEConcertos for Violoncello.flac
Extracted successfully
Conclusion: this track is CDDA with probability 100%
Tempfile successfully deleted.


Finished at: четверг, 20. 10. 2016. - 13:46.04 (operation time: 0:02.20)

Thanks to the Original ripper bumsteel!

Download: