Subcategories

Ultranite - I Want My Own Planet (1989)

Posted By: BlondStyle
Ultranite - I Want My Own Planet (1989)

Ultranite - I Want My Own Planet (1989)
Rock, Melodic Hard Rock, AOR | EAC Rip | FLAC, Img+CUE+LOG+Full Scans-600dpi (JPEG) | 39:41 Min | 284,56 Mb
Label: Koch international (Austria) | Released: 1989
Ultranite - I Want My Own Planet (1989)

1989 was the best year ever for the Melodic Rock / AOR genre. The most precious records appeared at that time and unfortunately many bands without a major label support promoting their releases get sunken into oblivion. One of these was Swiss ULTRANITE only album "I Want My Own Planet". All members from Ultranite worked previously in central Europe on different bands and writing songs for others, as Andy Boulton's Tokyo Blade or Andy Marc. The type of Melodic Rock crafted by Ultranite has many points in common with the Scandinavian scene, especially in the AOR keyboard infusions into the music. We have some great, melodic fist-pumping anthems like "Hot As The Summer", "Thank You" and " Long Live The Nite" (featuring Krokus' Marc Storace guesting on vocals) akin Zinatra, Aidean or Fate. There's diversity as well, as on the little Hi-Tech "Little Angel" recalling Germans Craaft, and nice Swedish power ballads in "Streets Of Rome" and "Lost For Ever".
Ultranite - I Want My Own Planet (1989)


Release of this album: 1989 [LP Koch International, Cat.# 122 319, Austria]
Release of this CD: 1989 [CD Koch international (Austria), Cat.# 322 319 / UPC: 9002723223194]
©℗ 1989 Koch international
Made and Printed in Austria

Credits:
Guitar, Lead Vocals - Peter Prestel
Keyboards, Vocals - Martin Machwitz
Drums, Vocals - Arne Flick
Bass, Vocals - Mike Sullivan
Produced by Glenn Miller, Erdal Kizilcay, Marcus Wassmer and Ultranite


Special Guests:
Erdal Kizilcay - Producement And Bass on "Summerworld" & "Lost For Ever"
Mark Storace (Krokus) - Lead Vocals on "Long Live The Nite"
Dave Sale - Bass on "Time Will Tell" & "Thank You"

Tracklist:

01. Summerworld (03:38)
02. Time Will Tell (03:53)
03. Tender Love (03:47)
04. Hot As The Summer (03:46)
05. Little Angel (03:14)
06. Long Live The Nite (04:30)
07. Streets Of Rome (04:28)
08. Thank You (03:42)
09. Lost For Ever (03:51)
10. Cathedral (04:52)

Exact Audio Copy V1.1 from 23. June 2015

Отчёт EAC об извлечении, выполненном 22. ноября 2016, 20:43

Ultranite / I Want My Own Planet (KOCH Int. 322 319)

Дисковод: PLEXTOR BD-R PX-B950SA Adapter: 1 ID: 0

Режим чтения : Достоверность
Использование точного потока : Да
Отключение кэша аудио : Да
Использование указателей C2 : Нет

Коррекция смещения при чтении : 6
Способность читать области Lead-in и Lead-out : Нет
Заполнение пропущенных сэмплов тишиной : Да
Удаление блоков с тишиной в начале и конце : Нет
При вычислениях CRC использовались нулевые сэмплы : Да
Интерфейс : Встроенный Win32-интерфейс для Win NT/2000

Выходной формат : Пользовательский кодировщик
Выбранный битрейт : 1024 kBit/s
Качество : Высокий
Добавление ID3-тега : Нет
Утилита сжатия : C:\Program Files (x86)\Exact Audio Copy\FLAC\FLAC.EXE
Дополнительные параметры : -6 -V -T "ARTIST=%artist%" -T "TITLE=%title%" -T "ALBUM=%albumtitle%" -T "DATE=%year%" -T "TRACKNUMBER=%tracknr%" -T "GENRE=%genre%" -T "COMMENT=%comment%" -T "BAND=%albuminterpret%" -T "ALBUMARTIST=%albuminterpret%" -T "COMPOSER=%composer%" %haslyrics%–tag-from-file=LYRICS="%lyricsfile%"%haslyrics% -T "DISCNUMBER=%cdnumber%" -T "TOTALDISCS=%totalcds%" -T "TOTALTRACKS=%numtracks%" %hascover%–picture="%coverfile%"%hascover% %source% -o %dest%


TOC извлечённого CD

Трек | Старт | Длительность | Начальный сектор | Конечный сектор
––––––––––––––––––––––––––––––––––-
1 | 0:00.00 | 3:37.67 | 0 | 16341
2 | 3:37.67 | 3:53.25 | 16342 | 33841
3 | 7:31.17 | 3:47.20 | 33842 | 50886
4 | 11:18.37 | 3:46.13 | 50887 | 67849
5 | 15:04.50 | 3:13.42 | 67850 | 82366
6 | 18:18.17 | 4:29.53 | 82367 | 102594
7 | 22:47.70 | 4:28.35 | 102595 | 122729
8 | 27:16.30 | 3:42.27 | 122730 | 139406
9 | 30:58.57 | 3:50.50 | 139407 | 156706
10 | 34:49.32 | 4:52.28 | 156707 | 178634


Характеристики диапазона извлечения и сообщения об ошибках

Выбранный диапазон

Имя файла G:\RIP\Ultranite 1989 FLAC by alzal\Ultranite - I Want My Own Planet (KOCH Int. 322 319).wav

Пиковый уровень 100.0 %
Скорость извлечения 2.9 X
Качество диапазона 99.9 %
CRC теста B6A74374
CRC копии B6A74374
Копирование… OK

Ошибок не произошло


AccurateRip: сводка

Трек 1 : извлечено точно (доверие 3) [3DF3CE9D] (AR v1)
Трек 2 : извлечено точно (доверие 3) [3A8E85E5] (AR v1)
Трек 3 : извлечено точно (доверие 3) [AA6F3FA8] (AR v1)
Трек 4 : извлечено точно (доверие 3) [F1526310] (AR v1)
Трек 5 : извлечено точно (доверие 3) [038A1FAC] (AR v1)
Трек 6 : извлечено точно (доверие 3) [4549CFFB] (AR v1)
Трек 7 : извлечено точно (доверие 3) [7AA4150B] (AR v1)
Трек 8 : извлечено точно (доверие 3) [1140A443] (AR v1)
Трек 9 : извлечено точно (доверие 3) [35658CDB] (AR v1)
Трек 10 : извлечено точно (доверие 3) [C0AEC1C6] (AR v1)

Все треки извлечены точно

Конец отчёта

–– CUETools DB Plugin V2.1.6

[CTDB TOCID: cAVC2Fl6syk_YBzBcHNFR7Jc9to-] disk not present in database
Submit result: cAVC2Fl6syk_YBzBcHNFR7Jc9to- has been uploaded


==== Контрольная сумма отчёта 6EB5DB872949B363D85BB69D5D9F6C53C192A851211085586078472E8AF4E1B9 ====

foobar2000 1.3.14 beta 1 / Dynamic Range Meter 1.1.1
log date: 2016-11-26 21:36:23

––––––––––––––––––––––––––––––––––––––––
Analyzed: Ultranite / I Want My Own Planet (KOCH Int. 322 319)
––––––––––––––––––––––––––––––––––––––––

DR Peak RMS Duration Track
––––––––––––––––––––––––––––––––––––––––
DR15 -0.64 dB -17.42 dB 3:38 01-Summerworld
DR12 0.00 dB -13.36 dB 3:53 02-Time Will Tell
DR14 -0.01 dB -16.30 dB 3:47 03-Tenderlove
DR13 0.00 dB -14.70 dB 3:46 04-Hot As The Summer
DR13 -0.39 dB -15.33 dB 3:14 05-Little Angel
DR13 -0.04 dB -14.73 dB 4:30 06-Long Live The Nite
DR13 0.00 dB -16.37 dB 4:28 07-Streets Of Rome
DR13 -0.14 dB -14.79 dB 3:42 08-Thank You
DR15 0.00 dB -17.91 dB 3:51 09-Lost For Ever
DR14 0.00 dB -15.48 dB 4:52 10-Cathedral
––––––––––––––––––––––––––––––––––––––––

Number of tracks: 10
Official DR value: DR14

Samplerate: 44100 Hz
Channels: 2
Bits per sample: 16
Bitrate: 914 kbps
Codec: FLAC
================================================================================

All thanks to alzal
Nitroflare
password: BlondStyle