Subcategories

Unlimited Touch - Searching To Find The One (1993)

Posted By: BlondStyle
Unlimited Touch - Searching To Find The One (1993)

Unlimited Touch - Searching To Find The One (1993)
R&B, Soul/Funk, Electronic, Urban | EAC Rip | FLAC, Img+CUE+LOG+Scans (JPEG) | 01:13:57 | 561,49 Mb
Label: Prelude Records/Unidisc Music Inc. (Canada) | Cat.# SPLK-7083 | Released: 1993
Unlimited Touch - Searching To Find The One (1993)

Serving up most of the tracks from Unlimited Touch's two Prelude albums, plus a single-only release, this collection is a worthy investment for fans of the group who can't locate the original LPs. The invigorating rhythm arrangement and fun vocal melodies of 1980's "I Hear Music in the Streets" (the core of which was later reworked into rapper Rampage's 1997 hit "Take It to the Streets") and the slower, but just as groovy "Searching to Find the One," blending heavy keyboards with a fine electric guitar solo, are the outfit's most successful kinetic endeavors. Both numbers are from the self-titled 1981 album and find vocalists Audrey Wheeler and Stephanie James in top form. Cuts like "Love Explosion" and "Yes I'm Ready" from 1983's Yes We're Ready LP are not as convincing, as a lot of the live instrumentation had become drenched by synths at this point. The group had downsized from six to three, meaning that session musicians substituted for the initial group chemistry. Still, the overall selection is consistent and it's a definite party-pleaser for fans of the early-'80s "post-disco" dance scene.
~Review by Justin Kantor

Unlimited Touch - Searching To Find The One (1993)

Unlimited Touch - Searching To Find The One (1993)


Release of this CD: 1993 [CD Prelude Records/Unidisc Music Inc. (Canada), Cat.# SPLK-7083 / UPC: 068381708328]
Ⓟ© 1980, 1981, 1983, 1984 Unidisc Music Inc.
Made in Canada



Credits:

Arranged By [Percussion] – Carol Steele
Arranged By [Strings] – Bert DeCoteaux
Arranged By [Vocals] – Phil Thomas, Ray Reid, William Anderson
Art Direction, Photography – Trudy Schlachter
Backing Vocals – Alyson Williams, Carol Rice, Sandy Anderson
Bass – Sandy Anderson
Drums – Raymond "Sugar Ray" Rock, Ray "Johnny" Reid, Tony Cintron, William "Budda" Anderson
Engineer – Frank Filipetti
Guitar – Clarence "Binky" Brice, Philip Hamilton, Ron "Head" Drayton, Steve Horton, William Anderson
Handclaps – José Guadalupe, LaToya Anderson, Mark Virgo, Raymond Rainey, Skip Boardley, Wayne Garfield
Horns – Larry Smith, Ray "Johnny" Reid, Tyrone Cox, Jeff Smith
Keyboards – Clifford Branch, Fred McFarlane, Keith Slattery, Galen Underwood, Terry Burris
Lead Vocals – Audrey Wheeler, Stephanie James
Mixed By – François Kevorkian (tracks: 1, 2, 6, 9, 10, 12)
Percussion – Ray Rock, Ray "Johnny" Reid, Sammy Figueroa, William "Budda" Anderson
Producer, Arranged By – Bert Reid (tracks: 1, 2, 12), Raymond Reid (tracks: 1 to 10, 12), William Anderson (tracks: 1 to 10, 12)


Tracklist:

01. Searching To Find The One (05:12)
02. I Hear Music In The Streets (06:56)
03. Private Party (04:56)
04. Love To Share (04:09)
05. In The Middle (05:19)
06. Yes I'm Ready (07:49)
07. Your Love Is Serious (06:24)
08. Love Explosion (06:26)
09. No One Can Love Me (Quite The Way You Do) (06:46)
10. Good Loving (06:46)
11. Reach Out (Everlasting Lover) (05:50)
12. Searching To Find The One (Remix) (07:24)

Exact Audio Copy V1.3 from 2. September 2016

EAC extraction logfile from 24. May 2019, 9:54

Unlimited Touch / Searching To Find The One

Used drive : ASUS DRW-24B1ST a Adapter: 1 ID: 0

Read mode : Secure
Utilize accurate stream : Yes
Defeat audio cache : No
Make use of C2 pointers : No

Read offset correction : 6
Overread into Lead-In and Lead-Out : No
Fill up missing offset samples with silence : Yes
Delete leading and trailing silent blocks : No
Null samples used in CRC calculations : Yes
Used interface : Native Win32 interface for Win NT & 2000

Used output format : User Defined Encoder
Selected bitrate : 896 kBit/s
Quality : Low
Add ID3 tag : Yes
Command line compressor : C:\Program Files (x86)\Exact Audio Copy\FLAC\FLAC.EXE
Additional command line options : %ishigh%-V -p -l 12 -b 4096 -m -e -r 8%ishigh%%islow%-5%islow% –replay-gain -T "ARTIST=%artist%" -T "ALBUM=%albumtitle%" -T "TITLE=%title%" -T "DATE=%year%" -T "TRACKNUMBER=%tracknr%" -T "GENRE=%genre%" -T "ENSEMBLE=%albuminterpret%" -T "ALBUMARTIST=%albumartist%" -T "COMPOSER=%albumcomposer%" -T "DISCNUMBER=%cdnumber%" -T "TOTALDISCS=%totalcds%" -T "TOTALTRACKS=%numtracks%" -T "SOURCEMEDIA=CD" -T "COMMENT=%comment%" %hascover%-T "PICTURE=%coverfile%"%hascover% %source%


TOC of the extracted CD

Track | Start | Length | Start sector | End sector
––––––––––––––––––––––––––––-
1 | 0:00.00 | 5:11.54 | 0 | 23378
2 | 5:11.54 | 6:55.43 | 23379 | 54546
3 | 12:07.22 | 4:56.24 | 54547 | 76770
4 | 17:03.46 | 4:09.26 | 76771 | 95471
5 | 21:12.72 | 5:19.29 | 95472 | 119425
6 | 26:32.26 | 7:49.12 | 119426 | 154612
7 | 34:21.38 | 6:23.56 | 154613 | 183393
8 | 40:45.19 | 6:25.74 | 183394 | 212342
9 | 47:11.18 | 6:46.16 | 212343 | 242808
10 | 53:57.34 | 6:45.62 | 242809 | 273245
11 | 60:43.21 | 5:49.45 | 273246 | 299465
12 | 66:32.66 | 7:24.08 | 299466 | 332773


Range status and errors

Selected range

Filename C:\Users\M@ce\Music\Archives\Rips\Unlimited Touch - Searching To Find The One.wav

Peak level 100.0 %
Extraction speed 9.6 X
Range quality 100.0 %
Test CRC D6460A74
Copy CRC D6460A74
Copy OK

No errors occurred


AccurateRip summary

Track 1 accurately ripped (confidence 3) [BC2DF5D2] (AR v2)
Track 2 accurately ripped (confidence 3) [FD58FC33] (AR v2)
Track 3 accurately ripped (confidence 2) [EB2117F0] (AR v2)
Track 4 accurately ripped (confidence 2) [2B5B5983] (AR v2)
Track 5 accurately ripped (confidence 2) [53BFFAD9] (AR v2)
Track 6 accurately ripped (confidence 2) [E76D95D5] (AR v2)
Track 7 accurately ripped (confidence 2) [BE1973C8] (AR v2)
Track 8 accurately ripped (confidence 2) [3408E84B] (AR v2)
Track 9 accurately ripped (confidence 2) [70188F61] (AR v2)
Track 10 accurately ripped (confidence 2) [4F4EC570] (AR v2)
Track 11 accurately ripped (confidence 2) [3F544E66] (AR v2)
Track 12 accurately ripped (confidence 2) [EDCF4A7B] (AR v2)

All tracks accurately ripped

End of status report

–– CUETools DB Plugin V2.1.6

[CTDB TOCID: QHooSho0T_Vv5Gr63fTXXNyPBQI-] found
Submit result: QHooSho0T_Vv5Gr63fTXXNyPBQI- has been confirmed
Track | CTDB Status
1 | (4/4) Accurately ripped
2 | (4/4) Accurately ripped
3 | (4/4) Accurately ripped
4 | (4/4) Accurately ripped
5 | (4/4) Accurately ripped
6 | (4/4) Accurately ripped
7 | (4/4) Accurately ripped
8 | (4/4) Accurately ripped
9 | (4/4) Accurately ripped
10 | (4/4) Accurately ripped
11 | (4/4) Accurately ripped
12 | (4/4) Accurately ripped


==== Log checksum F3827A0CBEDD73413DF7E7FB749DACCE13E336EB891C16DB7BA1836287679290 ====

––––––––––––––––––––––––––––––––––––––––
Analyzed: Unlimited Touch / Searching To Find The One
––––––––––––––––––––––––––––––––––––––––

DR Peak RMS Duration Track
––––––––––––––––––––––––––––––––––––––––
DR12 0.00 dB -13.41 dB 5:12 01-Searching To Find The One
DR13 0.00 dB -14.35 dB 6:56 02-I Hear Music In The Streets
DR13 0.00 dB -13.63 dB 4:56 03-Private Party
DR15 0.00 dB -17.06 dB 4:09 04-Love To Share
DR13 -0.15 dB -14.16 dB 5:19 05-In The Middle
DR12 0.00 dB -13.40 dB 7:49 06-Yes I'm Ready
DR12 0.00 dB -12.96 dB 6:24 07-Your Love Is Serious
DR12 -0.29 dB -13.67 dB 6:26 08-Love Explosion
DR12 -0.02 dB -12.84 dB 6:46 09-No One Can Love Me (Quite The Way You Do)
DR12 -0.06 dB -13.57 dB 6:46 10-Good Loving
DR9 -0.32 dB -10.82 dB 5:50 11-Reach Out (Everlasting Lover)
DR14 0.00 dB -15.02 dB 7:24 12-Searching To Find The One (Remix)
––––––––––––––––––––––––––––––––––––––––

Number of tracks: 12
Official DR value: DR12

Samplerate: 44100 Hz
Channels: 2
Bits per sample: 16
Bitrate: 996 kbps
Codec: FLAC
================================================================================

Thanks to my friend, M@ce

♫~Welcome To My Blog~♫

password: BlondStyle