Subcategories

Urban Knights - Urban Knights IV (2001) {Narada}

Posted By: tiburon
Urban Knights - Urban Knights IV (2001) {Narada}

Urban Knights - Urban Knights IV (2001) {Narada}
EAC 0.99pb4 | FLAC Image | Cue+Log | Full Scans 300dpi | 390MB + 5% Recovery
MP3 CBR 320 Kbps | 132MB + 5% Recovery
Genre: Jazz-Funk, Smooth Jazz

Due largely to the inclusion of trumpeter Ron Haynes – a one-time Donald Byrd protege – the fourth entry by Ramsey Lewis' smooth jazz supergroup is reminiscent of Byrd's seminal 1970s recordings. While merely hinting at Byrd's proto-disco inventions, Urban Knights IV is nonetheless a modern update of the trumpeter's work with the Blackbyrds. Although this album is nowhere near as funky as, say, Electric Byrd, it does come off grittier than many albums by Urban Knights' contemporaries.
Track List
01. The Message 5:01
02. Moving Pictures 4:02
03. Slick 4:52
04. Alright 4:40
05. Latin Flavor 5:04
06. Pretty 5:13
07. Sign Your Name 4:14
08. Thinking About Your Love 4:35
09. The One 3:54
10. Hi-Heel Sneakers 4:24
11. Clubland 4:59
12. Thinking About Your Love [instrumental] 4:26

musicians
Urban Knights
Ramsey Lewis - acoustic piano
Kevin Randolph - acoustic piano and keyboards
Calvin Rodgers - drums
Sharay Reed - bass
Lambert Waldrip - drum and keyboard programming

featuring
Norman Brown - guitar
Steve Cole - saxophone
Ron Haynes - trumpet
B - vocals
Opal - vocals
Keith Henderson - guitar
Alejo Poveda - percussion
Junell Davis - background vocals
Pari Mitchell - background vocals
Emoni Wilkins - background vocals
Denise Rutledge - background vocals
Richard Sledge - background vocals
Brian Sledge - background vocals

Produced by Frayne T. Lewis


Exact Audio Copy V0.99 prebeta 4 from 23. January 2008

Отчёт EAC об извлечении, выполненном 5. июля 2010, 0:01

Urban Knights / Urban Knights IV

Дисковод: ASUS DRW-20B1LT Adapter: 4 ID: 0

Режим чтения : Достоверность
Использование точного потока : Да
Отключение кэша аудио : Да
Использование указателей C2 : Нет

Коррекция смещения при чтении : 6
Способность читать области Lead-in и Lead-out : Нет
Заполнение пропущенных сэмплов тишиной : Да
Удаление блоков с тишиной в начале и конце : Нет
При вычислениях CRC использовались нулевые сэмплы : Да
Интерфейс : Встроенный Win32-интерфейс для Win NT/2000

Выходной формат : Пользовательский кодировщик
Выбранный битрейт : 768 kBit/s
Качество : Высокий
Добавление ID3-тэга : Нет
Утилита сжатия : D:\Program Files\Exact Audio Copy\Flac\Flac.exe
Дополнительные параметры : -8 –delete-input-file -o "D:\CDImage.flac" -V %s


TOC извлечённого CD

Трек | Старт | Длительность | Начальный сектор | Конечный сектор
––––––––––––––––––––––––––––––––––-
1 | 0:00.00 | 5:03.37 | 0 | 22761
2 | 5:03.37 | 4:01.73 | 22762 | 40909
3 | 9:05.35 | 4:52.37 | 40910 | 62846
4 | 13:57.72 | 4:40.68 | 62847 | 83914
5 | 18:38.65 | 5:05.57 | 83915 | 106846
6 | 23:44.47 | 5:18.18 | 106847 | 130714
7 | 29:02.65 | 4:15.32 | 130715 | 149871
8 | 33:18.22 | 4:36.43 | 149872 | 170614
9 | 37:54.65 | 3:55.65 | 170615 | 188304
10 | 41:50.55 | 4:25.47 | 188305 | 208226
11 | 46:16.27 | 5:03.63 | 208227 | 231014
12 | 51:20.15 | 4:26.72 | 231015 | 251036


Характеристики диапазона извлечения и сообщения об ошибках

Выбранный диапазон

Имя файла D:\Urban Knights - Urban Knights IV.wav

Пиковый уровень 98.9 %
Качество диапазона 100.0 %
CRC теста DF919CA5
CRC копии DF919CA5
Копирование… OK

Ошибок не произошло


AccurateRip: сводка

Трек 1 точность не определена (достоверность 8) [AB06291C], AccurateRip вернул [A2D2AAC3]
Трек 2 точность не определена (достоверность 8) [1CCAB920], AccurateRip вернул [73AB13D9]
Трек 3 точность не определена (достоверность 9) [BAB131AD], AccurateRip вернул [BDD796B8]
Трек 4 точность не определена (достоверность 9) [7563D96E], AccurateRip вернул [E999BAAD]
Трек 5 точность не определена (достоверность 9) [2BE77382], AccurateRip вернул [A63526AE]
Трек 6 точность не определена (достоверность 9) [7A9766E9], AccurateRip вернул [2EC2B968]
Трек 7 точность не определена (достоверность 8) [2C33C97E], AccurateRip вернул [C0A38ED1]
Трек 8 точность не определена (достоверность 9) [EA3F31B0], AccurateRip вернул [58B2B2A1]
Трек 9 точность не определена (достоверность 9) [B6DF637F], AccurateRip вернул [8FB14879]
Трек 10 точность не определена (достоверность 9) [B9CFB5AE], AccurateRip вернул [B9EA321C]
Трек 11 точность не определена (достоверность 8) [0CDA3B39], AccurateRip вернул [3C54BE7D]
Трек 12 точность не определена (достоверность 9) [7D1F6EDB], AccurateRip вернул [CCDA061F]

Ни один трек не прошёл проверки на точность
В вашей базе может быть иной вариант штамповки диска

Конец отчёта


––––––––––––––––––––––––––––––––––––––––
Analyzed: Urban Knights / Urban Knights IV
––––––––––––––––––––––––––––––––––––––––

DR Peak RMS Duration Track
––––––––––––––––––––––––––––––––––––––––
DR7 -0.24 dB -8.34 dB 5:03 01-The Message
DR6 -0.09 dB -7.66 dB 4:02 02-Moving Pictures
DR7 -0.10 dB -8.82 dB 4:52 03-Slick
DR6 -0.10 dB -7.65 dB 4:41 04-Alright
DR8 -0.10 dB -8.93 dB 5:06 05-Latin Flavor
DR7 -0.10 dB -8.99 dB 5:18 06-Pretty
DR7 -0.24 dB -8.29 dB 4:15 07-Sign Your Name
DR8 -0.10 dB -9.99 dB 4:37 08-Thinking About Your Love
DR6 -0.10 dB -8.16 dB 3:56 09-The One
DR7 -0.10 dB -9.32 dB 4:26 10-Hi-Heel Sneakers
DR6 -0.10 dB -7.84 dB 5:04 11-Clubland
DR8 -0.10 dB -10.20 dB 4:27 12-Thinking About Your Love (Instrumental)
––––––––––––––––––––––––––––––––––––––––

Number of tracks: 12
Official DR value: DR7

Samplerate: 44100 Hz
Channels: 2
Bits per sample: 16
Bitrate: 967 kbps
Codec: FLAC
================================================================================

Urban Knights - Urban Knights IV (2001) {Narada}
Urban Knights - Urban Knights IV (2001) {Narada}
Urban Knights - Urban Knights IV (2001) {Narada}


Thanks to the original ripper