Subcategories

Uriah Heep - Chapter & Verse: The Uriah Heep Story (35th Anniversary Collection) (2005) [6-CD Box Set]

Posted By: Andi_Deris
Uriah Heep - Chapter & Verse: The Uriah Heep Story (35th Anniversary Collection) (2005) [6-CD Box Set]

Uriah Heep - Chapter & Verse: The Uriah Heep Story (35th Anniversary Collection) (2005) [6-CD Box Set]
EAC Rip | FLAC: Image+Cue+Log | 3.2 Gb | MP3 CBR 320 kbps | 1.2 Gb | Scans | 61 Mb | Time: 07:53:58
Sanctuary Midline | SMXBX233
Classic Rock, Hard Rock

Released to mark the band's 35th Anniversary, 'Chapter & Verse' is the definitive Uriah Heep collection, featuring all their classic material, as well as previously unreleased songs, demos, live tracks and extended versions. The set also includes pre-Uriah Heep material from The Gods, Spice, Toe Fat, Keef Hartley Band and National Head Band, making it a must have product for Heep fans everywhere.

Uriah Heep - Chapter & Verse: The Uriah Heep Story (35th Anniversary Collection) (2005) [6-CD Box Set]




Uriah Heep - Chapter & Verse: The Uriah Heep Story (35th Anniversary Collection) (2005) [6-CD Box Set]


CD1 (1968-1972)
01:19:12

01. The Gods - Towards The Skies (03:26)
02. The Gods - Looking Glass (04:15)
03. The Gods - Lovely Anita (03:30)
04. National Head Band - Too Much Country Water (Previously Unreleased on CD) (04:14)
05. Spice - In Love (Single) (03:16)
06. Spice - What About The Music (Single b-side) (02:53)
07. Spice - Astranaza (Previously Unreleased Version) (03:35)
08. Spice - Born In A Trunk (Previously Unreleased Version) (03:44)
09. Toe Fat - I Can't Believe (03:58)
10. Head Machine - The First Time (05:01)
11. Keef Hartley Band - Not Foolish, Not Wise (03:57)
12. Keef Hartley Band - You Say You're Together Now (03:44)
13. Uriah Heep - Gipsy (05:45)
14. Uriah Heep - Real Turned On (Previously Unreleased Version) (03:36)
15. Uriah Heep - Wake Up (Set Your Sights) (Previously Unreleased Version) (06:14)
16. Uriah Heep - Dreammare (BBC Session '70) (03:09)
17. Uriah Heep - I'll Keep On Trying (05:25)
18. Uriah Heep - Bird Of Prey (US Mix Version) (04:06)
19. Uriah Heep - What's Within My Heart (Previously Unreleased Version) (05:24)

Uriah Heep - Chapter & Verse: The Uriah Heep Story (35th Anniversary Collection) (2005) [6-CD Box Set]


CD2 (1971-1972)
01:19:26

01. Lady In Black (Edit Version - Previously Unreleased) (03:38)
02. Time To Live (04:01)
03. Tears In My Eyes (Extended Version - Previously Unreleased) (05:04)
04. Look At Yourself (05:09)
05. July Morning (10:32)
06. Shadows Of Grief (08:38)
07. Easy Livin' (02:36)
08. Why (Previously Unreleased Version) (07:52)
09. The Wizard (02:59)
10. Circle Of Hands (06:25)
11. Rain (04:00)
12. Sunrise (04:04)
13. Tales (04:07)
14. The Magician's Birthday (10:21)

Uriah Heep - Chapter & Verse: The Uriah Heep Story (35th Anniversary Collection) (2005) [6-CD Box Set]


CD3 (1973-1976)
01:19:01

01. Stealin' (04:50)
02. If I Had The Time (Previously Unreleased Version) (06:17)
03. Sweet Freedom (06:28)
04. Seven Stars (03:49)
05. Pilgrim (Extended Version - Previously Unreleased) (07:02)
06. Wonderworld (04:30)
07. Suicidal Man (03:35)
08. Something Or Nothing (02:55)
09. Return To Fantasy (05:46)
10. Devil's Daughter (04:48)
11. A Year Or A Day (04:21)
12. Shady Lady (04:48)
13. One Way Or Another (04:39)
14. Misty Eyes (Edit Version - Previously Unreleased) (04:16)
15. Weep In Silence (05:08)
16. Beautiful Dream (Demo Version - Previously Unreleased) (05:48)

Uriah Heep - Chapter & Verse: The Uriah Heep Story (35th Anniversary Collection) (2005) [6-CD Box Set]


CD4 (1977-1982)
01:19:59

01. Been Away Too Long (05:04)
02. Who Needs Me (03:38)
03. Sympathy (04:44)
04. Wise Man (04:41)
05. Free Me (03:33)
06. Free 'N' Easy (03:05)
07. Illusion (05:03)
08. Come Back To Me (04:20)
09. Fallen Angel (04:59)
10. Let It Ride (Previously Unreleased Version) (05:15)
11. I Won't Change (Previously Unreleased Version) (03:26)
12. La Woman (Previously Unreleased) (05:01)
13. Think It Over (Single) (03:32)
14. Carry On (03:56)
15. Fools (04:57)
16. It Ain't Easy (05:41)
17. I'm Alive Again (Ridge Farm Demo Version - Previously Unreleased) (03:37)
18. Sell Your Soul (05:27)

Uriah Heep - Chapter & Verse: The Uriah Heep Story (35th Anniversary Collection) (2005) [6-CD Box Set]


CD5 (1983-1998)
01:18:40

01. Too Scared To Run (Previously Unreleased Version - Live '83) (04:08)
02. That's The Way That It Is (Previously Unreleased Version - Live '83) (03:55)
03. Weekend Warriors (03:50)
04. The Other Side Of Midnight (03:57)
05. Straight Through The Heart (03:45)
06. Split Image (Previously Unreleased Version - Film Soundtrack) (02:18)
07. Angel (Live '85) (05:07)
08. Mr. Majestic (Live '87) (05:51)
09. Cry Freedom (04:31)
10. Blood Red Roses (04:08)
11. Different World (Acoustic Version - Live '00) (04:47)
12. Against The Odds (06:13)
13. Spirit Of Freedom (04:15)
14. Dream On (04:27)
15. Sail The Rivers (06:54)
16. Time Of Revelation (04:03)
17. Between Two Worlds (06:31)

Uriah Heep - Chapter & Verse: The Uriah Heep Story (35th Anniversary Collection) (2005) [6-CD Box Set]


CD6 (1973-2005)
01:17:45

01. Sweet Lorraine (Live '73) (04:36)
02. So Tired (Previously Unreleased Version - Live '74) (03:19)
03. Look At Yourself (Previously Unreleased - Live '79) (04:53)
04. Easy Livin' (Previously Unreleased - Live '79) (03:30)
05. Stealin' (Previously Unreleased - Live '79) (05:04)
06. Falling In Love (Previously Unreleased - Live '79) (03:07)
07. Woman Of The Night (Previously Unreleased - Live '79) (03:04)
08. Rockarama (Previously Unreleased on CD - Live '85) (05:55)
09. Bad Blood (Previously Unreleased on CD - Live '85) (03:24)
10. Sympathy (Live '01) (05:21)
11. Circus (Acoustic - Live '00) (04:33)
12. Interview (Previously Unreleased - German Promo. Circa 1976) (12:56)
13. Free Me (Previously Unreleased - Live At Johannesburg, S.A. '95) (05:32)
14. Gypsy (Previously Unreleased - Live At The Astoria, London '97) (12:32)

Produced by Mike Brown and Robert M. Corich

Uriah Heep - Chapter & Verse: The Uriah Heep Story (35th Anniversary Collection) (2005) [6-CD Box Set]


Exact Audio Copy V0.99 prebeta 4 from 23. January 2008

Отчёт EAC об извлечении, выполненном 24. апреля 2008, 21:15

Uriah Heep / Chapter & Verse - The Uriah Heep Story - 1968-1972 - CD 1

Дисковод: _NEC CD-RW NR-9100A Adapter: 4 ID: 0

Режим чтения : Достоверность
Использование точного потока : Да
Отключение кэша аудио : Да
Использование указателей C2 : Нет

Коррекция смещения при чтении : 685
Способность читать области Lead-in и Lead-out : Нет
Заполнение пропущенных сэмплов тишиной : Да
Удаление блоков с тишиной в начале и конце : Нет
При вычислениях CRC использовались нулевые сэмплы : Да
Интерфейс : Встроенный Win32-интерфейс для Win NT/2000

Выходной формат : Пользовательский кодировщик
Выбранный битрейт : 768 kBit/s
Качество : Высокий
Добавление ID3-тэга : Нет
Утилита сжатия : C:\Program Files\Exact Audio Copy\FLAC\FLAC.EXE
Дополнительные параметры : -6 -V -T "ARTIST=%a" -T "TITLE=%t" -T "ALBUM=%g" -T "DATE=%y" -T "TRACKNUMBER=%n" -T "GENRE=%m" -T "COMMENT=%e" %s -o %d


TOC извлечённого CD

Трек | Старт | Длительность | Начальный сектор | Конечный сектор
––––––––––––––––––––––––––––––––––-
1 | 0:00.00 | 3:26.31 | 0 | 15480
2 | 3:26.31 | 4:15.05 | 15481 | 34610
3 | 7:41.36 | 3:29.57 | 34611 | 50342
4 | 11:11.18 | 4:13.36 | 50343 | 69353
5 | 15:24.54 | 3:15.45 | 69354 | 84023
6 | 18:40.24 | 2:52.59 | 84024 | 96982
7 | 21:33.08 | 3:34.58 | 96983 | 113090
8 | 25:07.66 | 3:44.10 | 113091 | 129900
9 | 28:52.01 | 3:58.23 | 129901 | 147773
10 | 32:50.24 | 5:00.59 | 147774 | 170332
11 | 37:51.08 | 3:57.01 | 170333 | 188108
12 | 41:48.09 | 3:44.20 | 188109 | 204928
13 | 45:32.29 | 5:45.09 | 204929 | 230812
14 | 51:17.38 | 3:35.46 | 230813 | 246983
15 | 54:53.09 | 6:13.49 | 246984 | 275007
16 | 61:06.58 | 3:08.35 | 275008 | 289142
17 | 64:15.18 | 5:25.29 | 289143 | 313546
18 | 69:40.47 | 4:06.21 | 313547 | 332017
19 | 73:46.68 | 5:24.25 | 332018 | 356342


Характеристики диапазона извлечения и сообщения об ошибках

Выбранный диапазон

Имя файла F:\rip\UH\Story I\Disk One\Uriah Heep - Chapter & Verse - The Uriah Heep Story - 1968-1972 - CD 1.wav

Пиковый уровень 100.0 %
Качество диапазона 100.0 %
CRC теста BAB0D6DF
CRC копии BAB0D6DF
Копирование… OK

Ошибок не произошло


Конец отчёта

Exact Audio Copy V0.99 prebeta 4 from 23. January 2008

Отчёт EAC об извлечении, выполненном 24. апреля 2008, 23:12

Uriah Heep / Chapter & Verse The Uriah Heep Story [Disc 2]

Дисковод: _NEC CD-RW NR-9100A Adapter: 4 ID: 0

Режим чтения : Достоверность
Использование точного потока : Да
Отключение кэша аудио : Да
Использование указателей C2 : Нет

Коррекция смещения при чтении : 685
Способность читать области Lead-in и Lead-out : Нет
Заполнение пропущенных сэмплов тишиной : Да
Удаление блоков с тишиной в начале и конце : Нет
При вычислениях CRC использовались нулевые сэмплы : Да
Интерфейс : Встроенный Win32-интерфейс для Win NT/2000

Выходной формат : Пользовательский кодировщик
Выбранный битрейт : 768 kBit/s
Качество : Высокий
Добавление ID3-тэга : Нет
Утилита сжатия : C:\Program Files\Exact Audio Copy\FLAC\FLAC.EXE
Дополнительные параметры : -6 -V -T "ARTIST=%a" -T "TITLE=%t" -T "ALBUM=%g" -T "DATE=%y" -T "TRACKNUMBER=%n" -T "GENRE=%m" -T "COMMENT=%e" %s -o %d


TOC извлечённого CD

Трек | Старт | Длительность | Начальный сектор | Конечный сектор
––––––––––––––––––––––––––––––––––-
1 | 0:00.00 | 3:38.06 | 0 | 16355
2 | 3:38.06 | 4:00.73 | 16356 | 34428
3 | 7:39.04 | 5:04.26 | 34429 | 57254
4 | 12:43.30 | 5:08.59 | 57255 | 80413
5 | 17:52.14 | 10:31.53 | 80414 | 127791
6 | 28:23.67 | 8:38.10 | 127792 | 166651
7 | 37:02.02 | 2:35.51 | 166652 | 178327
8 | 39:37.53 | 7:52.28 | 178328 | 213755
9 | 47:30.06 | 2:58.51 | 213756 | 227156
10 | 50:28.57 | 6:24.53 | 227157 | 256009
11 | 56:53.35 | 3:59.52 | 256010 | 273986
12 | 60:53.12 | 4:03.64 | 273987 | 292275
13 | 64:57.01 | 4:07.10 | 292276 | 310810
14 | 69:04.11 | 10:21.15 | 310811 | 357400


Характеристики диапазона извлечения и сообщения об ошибках

Выбранный диапазон

Имя файла F:\rip\UH\Story I\Disk Two\Uriah Heep - Chapter & Verse The Uriah Heep Story [Disc 2].wav

Пиковый уровень 100.0 %
Качество диапазона 100.0 %
CRC теста F0E51636
CRC копии F0E51636
Копирование… OK

Ошибок не произошло


Конец отчёта

Exact Audio Copy V0.99 prebeta 4 from 23. January 2008

Отчёт EAC об извлечении, выполненном 24. апреля 2008, 23:39

Uriah Heep / Chapter & Verse - The Uriah Heep Story - 1973-1976 - CD 3

Дисковод: _NEC CD-RW NR-9100A Adapter: 4 ID: 0

Режим чтения : Достоверность
Использование точного потока : Да
Отключение кэша аудио : Да
Использование указателей C2 : Нет

Коррекция смещения при чтении : 685
Способность читать области Lead-in и Lead-out : Нет
Заполнение пропущенных сэмплов тишиной : Да
Удаление блоков с тишиной в начале и конце : Нет
При вычислениях CRC использовались нулевые сэмплы : Да
Интерфейс : Встроенный Win32-интерфейс для Win NT/2000

Выходной формат : Пользовательский кодировщик
Выбранный битрейт : 768 kBit/s
Качество : Высокий
Добавление ID3-тэга : Нет
Утилита сжатия : C:\Program Files\Exact Audio Copy\FLAC\FLAC.EXE
Дополнительные параметры : -6 -V -T "ARTIST=%a" -T "TITLE=%t" -T "ALBUM=%g" -T "DATE=%y" -T "TRACKNUMBER=%n" -T "GENRE=%m" -T "COMMENT=%e" %s -o %d


TOC извлечённого CD

Трек | Старт | Длительность | Начальный сектор | Конечный сектор
––––––––––––––––––––––––––––––––––-
1 | 0:00.00 | 4:50.20 | 0 | 21769
2 | 4:50.20 | 6:16.65 | 21770 | 50034
3 | 11:07.10 | 6:28.33 | 50035 | 79167
4 | 17:35.43 | 3:49.17 | 79168 | 96359
5 | 21:24.60 | 7:02.18 | 96360 | 128027
6 | 28:27.03 | 4:29.39 | 128028 | 148241
7 | 32:56.42 | 3:35.30 | 148242 | 164396
8 | 36:31.72 | 2:54.63 | 164397 | 177509
9 | 39:26.60 | 5:45.55 | 177510 | 203439
10 | 45:12.40 | 4:48.13 | 203440 | 225052
11 | 50:00.53 | 4:20.64 | 225053 | 244616
12 | 54:21.42 | 4:47.57 | 244617 | 266198
13 | 59:09.24 | 4:39.28 | 266199 | 287151
14 | 63:48.52 | 4:15.49 | 287152 | 306325
15 | 68:04.26 | 5:07.53 | 306326 | 329403
16 | 73:12.04 | 5:48.21 | 329404 | 355524


Характеристики диапазона извлечения и сообщения об ошибках

Выбранный диапазон

Имя файла F:\rip\UH\Story II\Disc Tree\Uriah Heep - Chapter & Verse - The Uriah Heep Story - 1973-1976 - CD 3.wav

Пиковый уровень 100.0 %
Качество диапазона 100.0 %
CRC теста 7FF2DBED
CRC копии 7FF2DBED
Копирование… OK

Ошибок не произошло


Конец отчёта

Exact Audio Copy V0.99 prebeta 4 from 23. January 2008

Отчёт EAC об извлечении, выполненном 25. апреля 2008, 0:05

Uriah Heep / Chapter & Verse - The Uriah Heep Story (1977-1982)

Дисковод: _NEC CD-RW NR-9100A Adapter: 4 ID: 0

Режим чтения : Достоверность
Использование точного потока : Да
Отключение кэша аудио : Да
Использование указателей C2 : Нет

Коррекция смещения при чтении : 685
Способность читать области Lead-in и Lead-out : Нет
Заполнение пропущенных сэмплов тишиной : Да
Удаление блоков с тишиной в начале и конце : Нет
При вычислениях CRC использовались нулевые сэмплы : Да
Интерфейс : Встроенный Win32-интерфейс для Win NT/2000

Выходной формат : Пользовательский кодировщик
Выбранный битрейт : 768 kBit/s
Качество : Высокий
Добавление ID3-тэга : Нет
Утилита сжатия : C:\Program Files\Exact Audio Copy\FLAC\FLAC.EXE
Дополнительные параметры : -6 -V -T "ARTIST=%a" -T "TITLE=%t" -T "ALBUM=%g" -T "DATE=%y" -T "TRACKNUMBER=%n" -T "GENRE=%m" -T "COMMENT=%e" %s -o %d


TOC извлечённого CD

Трек | Старт | Длительность | Начальный сектор | Конечный сектор
––––––––––––––––––––––––––––––––––-
1 | 0:00.00 | 5:04.10 | 0 | 22809
2 | 5:04.10 | 3:38.21 | 22810 | 39180
3 | 8:42.31 | 4:43.56 | 39181 | 60461
4 | 13:26.12 | 4:40.73 | 60462 | 81534
5 | 18:07.10 | 3:33.07 | 81535 | 97516
6 | 21:40.17 | 3:04.73 | 97517 | 111389
7 | 24:45.15 | 5:03.05 | 111390 | 134119
8 | 29:48.20 | 4:19.32 | 134120 | 153576
9 | 34:07.52 | 4:59.03 | 153577 | 176004
10 | 39:06.55 | 5:15.00 | 176005 | 199629
11 | 44:21.55 | 3:26.30 | 199630 | 215109
12 | 47:48.10 | 5:00.62 | 215110 | 237671
13 | 52:48.72 | 3:31.40 | 237672 | 253536
14 | 56:20.37 | 3:55.56 | 253537 | 271217
15 | 60:16.18 | 4:56.52 | 271218 | 293469
16 | 65:12.70 | 5:40.40 | 293470 | 319009
17 | 70:53.35 | 3:37.33 | 319010 | 335317
18 | 74:30.68 | 5:27.11 | 335318 | 359853


Характеристики диапазона извлечения и сообщения об ошибках

Выбранный диапазон

Имя файла F:\rip\UH\Story II\Disc Four\Uriah Heep - Chapter & Verse - The Uriah Heep Story (1977-1982).wav

Пиковый уровень 100.0 %
Качество диапазона 100.0 %
CRC теста 14030771
CRC копии 14030771
Копирование… OK

Ошибок не произошло


Конец отчёта

Exact Audio Copy V0.99 prebeta 4 from 23. January 2008

Отчёт EAC об извлечении, выполненном 25. апреля 2008, 0:27

Uriah heep / Chapter & verse - the Uriah heep story (1983-1998)

Дисковод: _NEC CD-RW NR-9100A Adapter: 4 ID: 0

Режим чтения : Достоверность
Использование точного потока : Да
Отключение кэша аудио : Да
Использование указателей C2 : Нет

Коррекция смещения при чтении : 685
Способность читать области Lead-in и Lead-out : Нет
Заполнение пропущенных сэмплов тишиной : Да
Удаление блоков с тишиной в начале и конце : Нет
При вычислениях CRC использовались нулевые сэмплы : Да
Интерфейс : Встроенный Win32-интерфейс для Win NT/2000

Выходной формат : Пользовательский кодировщик
Выбранный битрейт : 768 kBit/s
Качество : Высокий
Добавление ID3-тэга : Нет
Утилита сжатия : C:\Program Files\Exact Audio Copy\FLAC\FLAC.EXE
Дополнительные параметры : -6 -V -T "ARTIST=%a" -T "TITLE=%t" -T "ALBUM=%g" -T "DATE=%y" -T "TRACKNUMBER=%n" -T "GENRE=%m" -T "COMMENT=%e" %s -o %d


TOC извлечённого CD

Трек | Старт | Длительность | Начальный сектор | Конечный сектор
––––––––––––––––––––––––––––––––––-
1 | 0:00.00 | 4:07.33 | 0 | 18557
2 | 4:07.33 | 3:55.22 | 18558 | 36204
3 | 8:02.55 | 3:50.19 | 36205 | 53473
4 | 11:52.74 | 3:56.45 | 53474 | 71218
5 | 15:49.44 | 3:45.22 | 71219 | 88115
6 | 19:34.66 | 2:18.31 | 88116 | 98496
7 | 21:53.22 | 5:06.51 | 98497 | 121497
8 | 26:59.73 | 5:51.13 | 121498 | 147835
9 | 32:51.11 | 4:31.25 | 147836 | 168185
10 | 37:22.36 | 4:08.07 | 168186 | 186792
11 | 41:30.43 | 4:46.46 | 186793 | 208288
12 | 46:17.14 | 6:12.68 | 208289 | 236256
13 | 52:30.07 | 4:14.73 | 236257 | 255379
14 | 56:45.05 | 4:27.12 | 255380 | 275416
15 | 61:12.17 | 6:54.02 | 275417 | 306468
16 | 68:06.19 | 4:02.44 | 306469 | 324662
17 | 72:08.63 | 6:30.38 | 324663 | 353950


Характеристики диапазона извлечения и сообщения об ошибках

Выбранный диапазон

Имя файла F:\rip\UH\Story III\Disc Five\Uriah heep - Chapter & verse - the Uriah heep story (1983-1998).wav

Пиковый уровень 100.0 %
Качество диапазона 100.0 %
CRC теста E89DD103
CRC копии E89DD103
Копирование… OK

Ошибок не произошло


Конец отчёта

Exact Audio Copy V0.99 prebeta 4 from 23. January 2008

Отчёт EAC об извлечении, выполненном 25. апреля 2008, 0:56

Uriah heep / Chapter & verse - the Uriah heep story (1973-2005) cd 6

Дисковод: _NEC CD-RW NR-9100A Adapter: 4 ID: 0

Режим чтения : Достоверность
Использование точного потока : Да
Отключение кэша аудио : Да
Использование указателей C2 : Нет

Коррекция смещения при чтении : 685
Способность читать области Lead-in и Lead-out : Нет
Заполнение пропущенных сэмплов тишиной : Да
Удаление блоков с тишиной в начале и конце : Нет
При вычислениях CRC использовались нулевые сэмплы : Да
Интерфейс : Встроенный Win32-интерфейс для Win NT/2000

Выходной формат : Пользовательский кодировщик
Выбранный битрейт : 768 kBit/s
Качество : Высокий
Добавление ID3-тэга : Нет
Утилита сжатия : C:\Program Files\Exact Audio Copy\FLAC\FLAC.EXE
Дополнительные параметры : -6 -V -T "ARTIST=%a" -T "TITLE=%t" -T "ALBUM=%g" -T "DATE=%y" -T "TRACKNUMBER=%n" -T "GENRE=%m" -T "COMMENT=%e" %s -o %d


TOC извлечённого CD

Трек | Старт | Длительность | Начальный сектор | Конечный сектор
––––––––––––––––––––––––––––––––––-
1 | 0:00.00 | 4:36.02 | 0 | 20701
2 | 4:36.02 | 3:18.73 | 20702 | 35624
3 | 7:55.00 | 4:52.54 | 35625 | 57578
4 | 12:47.54 | 3:29.53 | 57579 | 73306
5 | 16:17.32 | 5:03.59 | 73307 | 96090
6 | 21:21.16 | 3:06.55 | 96091 | 110095
7 | 24:27.71 | 3:03.68 | 110096 | 123888
8 | 27:31.64 | 5:55.26 | 123889 | 150539
9 | 33:27.15 | 3:24.01 | 150540 | 165840
10 | 36:51.16 | 5:20.53 | 165841 | 189893
11 | 42:11.69 | 4:33.13 | 189894 | 210381
12 | 46:45.07 | 12:55.60 | 210382 | 268566
13 | 59:40.67 | 5:31.50 | 268567 | 293441
14 | 65:12.42 | 12:31.37 | 293442 | 349803


Характеристики диапазона извлечения и сообщения об ошибках

Выбранный диапазон

Имя файла F:\rip\UH\Story III\Disc Six\Uriah heep - Chapter & verse - the Uriah heep story (1973-2005) cd 6.wav

Пиковый уровень 100.0 %
Качество диапазона 100.0 %
CRC теста E67B3452
CRC копии E67B3452
Копирование… OK

Ошибок не произошло


Конец отчёта


Many thanks to the original uploader: mirgilip


Asterix 1970 Asterix [Reissue 1998]

The Fast Forward Music Project 1993 Excalibur

Gunhill 1997 Night Heat

The Hensley | Lawton Band 2001 The Return

Intelligent Music Project II 2014 My Kind O' Lovin'

John Lawton & Diana Express 2012 The Power Of Mind

John Wetton 2000 Welcome To Heaven [Japanese Ed.]

Ken Hensley and John Wetton 2002 More Than Conquerors [DVD]
Ken Hensley 2008 Blood On The Highway: The Exclusive Release Concert [DVD]
Ken Hensley & Live Fire 2013 Live!! [2CD]
Ken Hensley & Live Fire 2013 Trouble

The Lawton Dunning Project 2002 One More Night [DVD]

Lucifer's Friend 1970 Lucifer's Friend [Reissue 1990]
Lucifer's Friend 1970 Lucifer's Friend [Reissue 2008]
Lucifer's Friend 1974 I'm Just A Rock 'n' Roll Singer [Reissue 1997]
Lucifer's Friend 1974 Banquet [Reissue 1994]
Lucifer's Friend 1976 Mind Exploding [Reissue 1998]
Lucifer's Friend 1978 Good Time Warrior [Japanese Ed. 1997]
Lucifer's Friend 1980 Sneak Me In [Japanese Ed. 1997]
Lucifer's Friend 1981 Mean Machine [Japanese Ed. 1997]
Lucifer's Friend II 1994 Sumogrip
Lucifer's Friend 2016 Too Late To Hate

OTR (On The Rocks) 2008 Mamonama

Uriah Heep 1995 Sea Of Light [Japan 1st Press]
Uriah Heep 1998 Sonic Origami [Japanese Ed.]
Uriah Heep 2004 Classic Heep Live from the Byron Era [2xDVD]
Uriah Heep 2011 Into The Wild
Uriah Heep 2011 Into The Wild [Japan SHM-CD]
Uriah Heep 2014 Outsider [Digipak]

ZAR 1990 Live Your Life Forever [Japanese Ed. 1995]
ZAR 1991 Sorted Out
ZAR 1993 From Welcome…To Goodbye [Japanese Ed.]
ZAR 1995 The Holy Rhythm Of Nature [Japanese Ed.]
ZAR 2016 Don't Wait For Heroes