Subcategories

Ursula Duetschler - William Byrd: Pieces from the 'Fitzwilliam Virginal Book' (1990)

Posted By: Designol
Ursula Duetschler - William Byrd: Pieces from the 'Fitzwilliam Virginal Book' (1990)

Ursula Dütschler - William Byrd: Pieces from the 'Fitzwilliam Virginal Book' (1990)
EAC | FLAC | Image (Cue&Log) ~ 438 Mb | Mp3 (CBR320) ~ 179 Mb | Scans included
Classical | Label: Claves | # CD 50-9001 | Time: 01:09:30

The Swiss harpsichordist, Ursula Dütschler, studied with Jörg Ewald Dähler at the Konservatorium Bern with a soloist diploma. She continued her musical training with Kenneth Gilbert at the Mozarteum in Salzburg and with Malcolm Bilson (Hammerflügel) at the Cornell University in the USA. She won several prizes, including the 1989 International Cembalo Competition in Paris and the 1991 International Erwin Bodky Competition for Hammerflügel in Boston/USA.

Today Ursula Dütschler lives in Holland and appears as a soloist, chamber musician and Lieder accompanist. She has performed with various important orchestras. Together with Malcolm Bilson and some musician colleagues she participated in 1997 in perforamance of the 32 piano sonatas of L.v. Beethoven on historical instruments.

Ursula Dütschler has recorded several CD's, among which four CDs with works for solo harpsichord by Scarlatti, Byrd, Balbastre and Bach.

This is a simply magnificent keyboard recital played upon a seventeenth century, single-manual Italian harpsichord. The programme features a fine selection of some of the more famous pieces from William Byrd's "Fitzwilliam Virginal Book". The Fantasias, Pavans and Galliards, as well as Byrd's arrangements of popular tunes of his day, are all tremendously well played. The first-rate digital sound-reproduction is well recorded with an ideal spatial definition.

Review by Mrs Teresa Brown, Amazon.co.uk

Ursula Duetschler - William Byrd: Pieces from the 'Fitzwilliam Virginal Book' (1990)



Ursula Duetschler - William Byrd: Pieces from the 'Fitzwilliam Virginal Book' (1990)

Ursula Duetschler - Italian harpsichord, collection Kenneth Gilbert



Tracklist:

William Byrd (1543-1623)

01. Fantasia in C (5:38)
02. The Carman's Whistle (4:41)
03. Pavan and Galliard in F (6:08)
04. The Woods so Wild (4:13)
05. Fantasia in G (7:12)
06. The Queens's Alman (3:16)
07. Pavan and Galliard in G (4:08)
08. The Bells (7:18)
09. Walsingham (8:26)
10. All in a Garden Green (4:26)
11. Lavolta (2:22)
12. Pavan and Galliard in g (3:51)
13. Ut re mi fa sol la (7:51)


Exact Audio Copy V1.1 from 23. June 2015

EAC extraction logfile from 21. September 2016, 16:57

Ursula Duetschler, harpsichord / Pieces from the Fitzwilliam Virginal Book

Used drive : hp DVD A DH16ACSHR Adapter: 1 ID: 0

Read mode : Secure
Utilize accurate stream : Yes
Defeat audio cache : Yes
Make use of C2 pointers : No

Read offset correction : 6
Overread into Lead-In and Lead-Out : No
Fill up missing offset samples with silence : Yes
Delete leading and trailing silent blocks : No
Null samples used in CRC calculations : Yes
Used interface : Native Win32 interface for Win NT & 2000

Used output format : User Defined Encoder
Selected bitrate : 1024 kBit/s
Quality : High
Add ID3 tag : No
Command line compressor : C:\Program Files (x86)\Exact Audio Copy\FLAC\FLAC.EXE
Additional command line options : -6 -V -T "ARTIST=%artist%" -T "TITLE=%title%" -T "ALBUM=%albumtitle%" -T "DATE=%year%" -T "TRACKNUMBER=%tracknr%" -T "GENRE=%genre%" -T "COMMENT=%comment%" -T "BAND=%albuminterpret%" -T "ALBUMARTIST=%albuminterpret%" -T "COMPOSER=%composer%" %haslyrics%–tag-from-file=LYRICS="%lyricsfile%"%haslyrics% -T "DISCNUMBER=%cdnumber%" -T "TOTALDISCS=%totalcds%" -T "TOTALTRACKS=%numtracks%" %hascover%–picture="%coverfile%"%hascover% %source% -o %dest%


TOC of the extracted CD

Track | Start | Length | Start sector | End sector
––––––––––––––––––––––––––––-
1 | 0:00.00 | 5:37.70 | 0 | 25344
2 | 5:37.70 | 4:41.00 | 25345 | 46419
3 | 10:18.70 | 6:08.00 | 46420 | 74019
4 | 16:26.70 | 4:13.00 | 74020 | 92994
5 | 20:39.70 | 7:12.00 | 92995 | 125394
6 | 27:51.70 | 3:16.00 | 125395 | 140094
7 | 31:07.70 | 4:08.00 | 140095 | 158694
8 | 35:15.70 | 7:18.00 | 158695 | 191544
9 | 42:33.70 | 8:25.72 | 191545 | 229491
10 | 50:59.67 | 4:26.00 | 229492 | 249441
11 | 55:25.67 | 2:22.03 | 249442 | 260094
12 | 57:47.70 | 3:51.00 | 260095 | 277419
13 | 61:38.70 | 7:50.60 | 277420 | 312729


Range status and errors

Selected range

Filename C:\EAC\Ursula Duetschler, harpsichord - Pieces from the Fitzwilliam Virginal Book.wav

Peak level 54.1 %
Extraction speed 2.3 X
Range quality 99.9 %
Test CRC 2EA00677
Copy CRC 2EA00677
Copy OK

No errors occurred


AccurateRip summary

Track 1 accurately ripped (confidence 2) [AB54A318] (AR v1)
Track 2 accurately ripped (confidence 2) [AE45CF53] (AR v1)
Track 3 accurately ripped (confidence 2) [A1B89BB1] (AR v1)
Track 4 accurately ripped (confidence 2) [033DB409] (AR v1)
Track 5 accurately ripped (confidence 2) [5839EEF0] (AR v1)
Track 6 accurately ripped (confidence 2) [5D87C3B6] (AR v1)
Track 7 accurately ripped (confidence 2) [61F9DA83] (AR v1)
Track 8 accurately ripped (confidence 2) [43B34326] (AR v1)
Track 9 accurately ripped (confidence 1) [F541D5F0] (AR v2)
Track 10 accurately ripped (confidence 1) [6DEC0044] (AR v2)
Track 11 accurately ripped (confidence 1) [0B3F6AED] (AR v2)
Track 12 accurately ripped (confidence 1) [9C806D3F] (AR v2)
Track 13 accurately ripped (confidence 1) [0E293E77] (AR v2)

All tracks accurately ripped

End of status report

–– CUETools DB Plugin V2.1.6

[CTDB TOCID: yIPFp4m2CYl1ipXwH6.UPip5MaY-] found
Submit result: yIPFp4m2CYl1ipXwH6.UPip5MaY- has been confirmed
Track | CTDB Status
1 | (3/3) Accurately ripped
2 | (3/3) Accurately ripped
3 | (3/3) Accurately ripped
4 | (3/3) Accurately ripped
5 | (3/3) Accurately ripped
6 | (3/3) Accurately ripped
7 | (3/3) Accurately ripped
8 | (3/3) Accurately ripped
9 | (3/3) Accurately ripped
10 | (3/3) Accurately ripped
11 | (3/3) Accurately ripped
12 | (1/3) Accurately ripped, or (1/3) differs in 9 samples @03:03:67-03:03:68,03:17:68-03:17:69, or (1/3) differs in 7 samples @03:03:67-03:03:68,03:17:69
13 | (3/3) Accurately ripped


==== Log checksum E83E7406CD32BC96C8D7591C323CFF4B94DB2B5F55037A3C1FE011A431C29882 ====

foobar2000 1.2 / Dynamic Range Meter 1.1.1
log date: 2017-07-22 22:59:15

––––––––––––––––––––––––––––––––––––––––
Analyzed: Ursula Duetschler, harpsichord / Pieces from the Fitzwilliam Virginal Book
––––––––––––––––––––––––––––––––––––––––

DR Peak RMS Duration Track
––––––––––––––––––––––––––––––––––––––––
DR13 -5.33 dB -20.67 dB 5:38 01-Fantasia in C
DR13 -6.48 dB -21.93 dB 4:41 02-The Carman's Whistle
DR12 -7.46 dB -23.22 dB 6:08 03-Pavan and Galliard in F
DR12 -6.15 dB -20.53 dB 4:13 04-The Woods so Wild
DR13 -5.52 dB -21.10 dB 7:12 05-Fantasia in G
DR12 -9.17 dB -24.50 dB 3:16 06-The Queens's Alman
DR13 -5.96 dB -21.25 dB 4:08 07-Pavan and Galliard in G
DR13 -6.05 dB -22.04 dB 7:18 08-The Bells
DR13 -6.59 dB -21.61 dB 8:26 09-Walsingham
DR12 -10.06 dB -24.15 dB 4:26 10-All in a Garden Green
DR12 -6.94 dB -21.14 dB 2:22 11-Lavolta
DR12 -6.66 dB -22.69 dB 3:51 12-Pavan and Galliard in g
DR13 -6.13 dB -22.11 dB 7:51 13-Ut re mi fa sol la
––––––––––––––––––––––––––––––––––––––––

Number of tracks: 13
Official DR value: DR13

Samplerate: 44100 Hz
Channels: 2
Bits per sample: 16
Bitrate: 841 kbps
Codec: FLAC
================================================================================

Ursula Duetschler - William Byrd: Pieces from the 'Fitzwilliam Virginal Book' (1990)

Ursula Duetschler - William Byrd: Pieces from the 'Fitzwilliam Virginal Book' (1990)