Subcategories

Ute Lemper & Vogler Quartett - Paris Days, Berlin Nights (2012)

Posted By: tirexiss
Ute Lemper & Vogler Quartett - Paris Days, Berlin Nights (2012)

Ute Lemper & Vogler Quartett - Paris Days, Berlin Nights (2012)
EAC FLAC (tracks+.cue, log) | Covers Included | 01:13:07 | 401 MB
Genre: Vocal Jazz, Chanson, Cabaret | Label: Steinway & Sons | Catalog: 30009

The title Paris Days, Berlin Nights is a little misleading. One might expect French songs about morning-after regrets and German ones about living cynically hedonistically, but this collection goes way beyond that. It includes songs about war, abandonment, the indifference of time to human suffering, and gritty street life, with music by Piazzolla and Polish-Jewish composer Chava Alberstein in addition to the expected Kurt Weill, Hanns Eisler, and Jacques Brel. Uniting them all is Lemper's incredible voice and sense of drama, no matter what language. The energy she puts into songs such as Der Graben or Ballade vom Wasserrad is so great, it's hard to believe that no physical harm is done, but she comes right back every time, putting just as much into the next one. She is well supported by the Vogler Quartet and accordionist/clarinetist/pianist Stefan Malzew, all of whom come close to matching Lemper's intensity when needed. Malzew made all the arrangements, and they are very well done. They not only provide interesting, textural accompaniment to the voice, the gestures also support the character and theme of the texts. Malzew even sneaks in little details, such as quoting La Marseillaise in L'Accordéoniste or a sustained, high-pitched note (like what is heard when a grenade falls) in Der Graben. Although the album's title might not fit the contents, Lemper and colleagues do make these culturally diverse songs go together. The concentration of their passion keeps the set as a whole from becoming desperately bleak and gives the music a fascinating presence.

Ute Lemper & Vogler Quartett - Paris Days, Berlin Nights (2012)

Track List:

01. Elle Frequentait la Rue Pigalle [04:59]
02. L'Accordeoniste [06:11]
03. Surabaya Johnny & Die Moritat von Mackie Messer [09:54]
04. Der Graben [05:03]
05. Uber den Selbstmord [03:02]
06. Ballade vom Wasserad [04:30]
07. La ultima grela [07:12]
08. Oblivion [04:41]
09. Yo Soy Maria [03:23]
10. Temnaya Noch [05:59]
11. Ikh Shtey unter a Bokersboym [06:40]
12. Stiller Abend [06:05]
13. Ne me quitte pas [05:28]

Exact Audio Copy V1.0 beta 3 from 29. August 2011

EAC extraction logfile from 12. June 2012, 23:00

Ute Lemper / Paris Days, Berlin Nights

Used drive : TSSTcorpDVD+-RW TS-H653B Adapter: 2 ID: 0

Read mode : Secure
Utilize accurate stream : Yes
Defeat audio cache : Yes
Make use of C2 pointers : No

Read offset correction : 6
Overread into Lead-In and Lead-Out : No
Fill up missing offset samples with silence : Yes
Delete leading and trailing silent blocks : No
Null samples used in CRC calculations : Yes
Used interface : Installed external ASPI interface
Gap handling : Appended to previous track

Used output format : User Defined Encoder
Selected bitrate : 1024 kBit/s
Quality : High
Add ID3 tag : No
Command line compressor : C:\Program Files (x86)\Exact Audio Copy\Flac\flac.exe
Additional command line options : -8 -V -T "ARTIST=%artist%" -T "TITLE=%title%" -T "ALBUM=%albumtitle%" -T "DATE=%year%" -T "TRACKNUMBER=%tracknr%" -T "GENRE=%genre%" -T "PERFORMER=%albuminterpret%" -T "COMPOSER=%composer%" %haslyrics%–tag-from-file=LYRICS="%lyricsfile%"%haslyrics% -T "ALBUMARTIST=%albumartist%" -T "DISCNUMBER=%cdnumber%" -T "TOTALDISCS=%totalcds%" -T "TOTALTRACKS=%numtracks%" -T "COMMENT=%comment%" %source% -o %dest%


TOC of the extracted CD

Track | Start | Length | Start sector | End sector
––––––––––––––––––––––––––––-
1 | 0:00.00 | 4:59.33 | 0 | 22457
2 | 4:59.33 | 6:11.65 | 22458 | 50347
3 | 11:11.23 | 9:54.65 | 50348 | 94962
4 | 21:06.13 | 5:03.36 | 94963 | 117723
5 | 26:09.49 | 3:02.10 | 117724 | 131383
6 | 29:11.59 | 4:30.15 | 131384 | 151648
7 | 33:41.74 | 7:12.62 | 151649 | 184110
8 | 40:54.61 | 4:41.42 | 184111 | 205227
9 | 45:36.28 | 3:23.43 | 205228 | 220495
10 | 48:59.71 | 5:59.28 | 220496 | 247448
11 | 54:59.24 | 6:40.65 | 247449 | 277513
12 | 61:40.14 | 6:05.23 | 277514 | 304911
13 | 67:45.37 | 5:28.72 | 304912 | 329583


Track 1

Filename C:\Ute Lemper - 2012 - Paris Days, Berlin Nights\01 - Elle Frequentait la Rue Pigalle.wav

Pre-gap length 0:00:02.00

Peak level 80.1 %
Extraction speed 3.9 X
Track quality 99.9 %
Test CRC 10281518
Copy CRC 10281518
Track not present in AccurateRip database
Copy OK

Track 2

Filename C:\Ute Lemper - 2012 - Paris Days, Berlin Nights\02 - L'Accordeoniste.wav

Pre-gap length 0:00:03.30

Peak level 98.8 %
Extraction speed 5.4 X
Track quality 100.0 %
Test CRC CB815073
Copy CRC CB815073
Track not present in AccurateRip database
Copy OK

Track 3

Filename C:\Ute Lemper - 2012 - Paris Days, Berlin Nights\03 - Surabaya Johnny & Die Moritat von Mackie Messer.wav

Pre-gap length 0:00:02.56

Peak level 98.8 %
Extraction speed 6.4 X
Track quality 100.0 %
Test CRC 0EAAB705
Copy CRC 0EAAB705
Track not present in AccurateRip database
Copy OK

Track 4

Filename C:\Ute Lemper - 2012 - Paris Days, Berlin Nights\04 - Der Graben.wav

Pre-gap length 0:00:04.10

Peak level 98.8 %
Extraction speed 6.7 X
Track quality 100.0 %
Test CRC 9B6C5C27
Copy CRC 9B6C5C27
Track not present in AccurateRip database
Copy OK

Track 5

Filename C:\Ute Lemper - 2012 - Paris Days, Berlin Nights\05 - Uber den Selbstmord.wav

Pre-gap length 0:00:07.12

Peak level 98.8 %
Extraction speed 6.5 X
Track quality 100.0 %
Test CRC 0BF4A297
Copy CRC 0BF4A297
Track not present in AccurateRip database
Copy OK

Track 6

Filename C:\Ute Lemper - 2012 - Paris Days, Berlin Nights\06 - Ballade vom Wasserad.wav

Pre-gap length 0:00:04.69

Peak level 98.8 %
Extraction speed 7.1 X
Track quality 100.0 %
Test CRC 5133E1D3
Copy CRC 5133E1D3
Track not present in AccurateRip database
Copy OK

Track 7

Filename C:\Ute Lemper - 2012 - Paris Days, Berlin Nights\07 - La ultima grela.wav

Pre-gap length 0:00:02.01

Peak level 98.8 %
Extraction speed 7.9 X
Track quality 100.0 %
Test CRC DD5EFCC6
Copy CRC DD5EFCC6
Track not present in AccurateRip database
Copy OK

Track 8

Filename C:\Ute Lemper - 2012 - Paris Days, Berlin Nights\08 - Oblivion.wav

Pre-gap length 0:00:04.98

Peak level 85.4 %
Extraction speed 7.9 X
Track quality 100.0 %
Test CRC AA0F3FFD
Copy CRC AA0F3FFD
Track not present in AccurateRip database
Copy OK

Track 9

Filename C:\Ute Lemper - 2012 - Paris Days, Berlin Nights\09 - Yo Soy Maria.wav

Pre-gap length 0:00:05.94

Peak level 98.8 %
Extraction speed 7.9 X
Track quality 100.0 %
Test CRC 808FC8B3
Copy CRC 808FC8B3
Track not present in AccurateRip database
Copy OK

Track 10

Filename C:\Ute Lemper - 2012 - Paris Days, Berlin Nights\10 - Temnaya Noch.wav

Pre-gap length 0:00:04.85

Peak level 90.9 %
Extraction speed 8.7 X
Track quality 100.0 %
Test CRC 4BE8B197
Copy CRC 4BE8B197
Track not present in AccurateRip database
Copy OK

Track 11

Filename C:\Ute Lemper - 2012 - Paris Days, Berlin Nights\11 - Ikh Shtey unter a Bokersboym.wav

Pre-gap length 0:00:05.26

Peak level 98.8 %
Extraction speed 9.1 X
Track quality 100.0 %
Test CRC 1FC1414E
Copy CRC 1FC1414E
Track not present in AccurateRip database
Copy OK

Track 12

Filename C:\Ute Lemper - 2012 - Paris Days, Berlin Nights\12 - Stiller Abend.wav

Pre-gap length 0:00:06.41

Peak level 98.8 %
Extraction speed 9.3 X
Track quality 100.0 %
Test CRC D6E16074
Copy CRC D6E16074
Track not present in AccurateRip database
Copy OK

Track 13

Filename C:\Ute Lemper - 2012 - Paris Days, Berlin Nights\13 - Ne me quitte pas.wav

Pre-gap length 0:00:04.77

Peak level 98.8 %
Extraction speed 9.5 X
Track quality 100.0 %
Test CRC CA674586
Copy CRC CA674586
Track not present in AccurateRip database
Copy OK


None of the tracks are present in the AccurateRip database

No errors occurred

End of status report

==== Log checksum EDBD50DF119E5A961B1CEFD5CF24187D241E710305CD35D6661D28A5FF27817A ====

[CUETools log; Date: 22.04.2018 12:46:50; Version: 2.1.5]
[CTDB TOCID: lpUTR9BLxcRWv1g9UReGyQy1XPk-] found.
Track | CTDB Status
1 | (21/21) Accurately ripped
2 | (21/21) Accurately ripped
3 | (21/21) Accurately ripped
4 | (21/21) Accurately ripped
5 | (21/21) Accurately ripped
6 | (21/21) Accurately ripped
7 | (21/21) Accurately ripped
8 | (21/21) Accurately ripped
9 | (21/21) Accurately ripped
10 | (21/21) Accurately ripped
11 | (21/21) Accurately ripped
12 | (21/21) Accurately ripped
13 | (20/21) Accurately ripped
[AccurateRip ID: 0023ac1c-01618927-a5112a0d] found.
Track [ CRC | V2 ] Status
01 [7ed056de|76d8c7ce] (02+12/18) Accurately ripped
02 [99966619|acd23bfe] (02+12/18) Accurately ripped
03 [53ddac92|d8efe00a] (02+12/18) Accurately ripped
04 [8e34a833|785293a8] (02+12/18) Accurately ripped
05 [9ae65e88|417d4b37] (02+12/18) Accurately ripped
06 [f5f57ec3|2e0df751] (02+12/18) Accurately ripped
07 [5e483dd6|a32d2b27] (02+12/18) Accurately ripped
08 [5dd8d783|f504f563] (02+12/18) Accurately ripped
09 [4fc3d644|3a9baef7] (02+12/18) Accurately ripped
10 [6b774efd|e8cd585f] (00+12/16) Accurately ripped
11 [c7f2df9c|7bd96c87] (02+12/18) Accurately ripped
12 [9dde2250|088fa6ff] (02+12/18) Accurately ripped
13 [ee708665|32cd7298] (02+11/17) Accurately ripped
Offsetted by -30:
01 [c1e8037e] (00/18) No match (V2 was not tested)
02 [0b837cd1] (00/18) No match (V2 was not tested)
03 [ccefeb0e] (00/18) No match (V2 was not tested)
04 [1a4604db] (00/18) No match (V2 was not tested)
05 [0ff7d366] (00/18) No match (V2 was not tested)
06 [9964fae2] (00/18) No match (V2 was not tested)
07 [9a6174b5] (00/18) No match (V2 was not tested)
08 [ae7161e7] (00/18) No match (V2 was not tested)
09 [19a4f03a] (00/18) No match (V2 was not tested)
10 [422f0494] (00/16) No match (V2 was not tested)
11 [e80533f1] (00/18) No match (V2 was not tested)
12 [8d736a79] (00/18) No match (V2 was not tested)
13 [3d0b4b54] (00/17) No match (V2 was not tested)

Track Peak [ CRC32 ] [W/O NULL] [ LOG ]
– 98,8 [76F3E598] [880527BF]
01 80,1 [10281518] [EE9EDE72] CRC32
02 98,8 [CB815073] [DB50E1CF] CRC32
03 98,8 [0EAAB705] [C1FD25A1] CRC32
04 98,8 [9B6C5C27] [9A233776] CRC32
05 98,8 [0BF4A297] [F1D8779B] CRC32
06 98,8 [5133E1D3] [27E789CC] CRC32
07 98,8 [DD5EFCC6] [AD8C99CF] CRC32
08 85,4 [AA0F3FFD] [4CEF09F7] CRC32
09 98,8 [808FC8B3] [35D017F6] CRC32
10 90,9 [4BE8B197] [A01CC5B4] CRC32
11 98,8 [1FC1414E] [BB8078A4] CRC32
12 98,8 [D6E16074] [311B45B8] CRC32
13 98,8 [CA674586] [31934857] CRC32


Thanks to the Original ripper (unknown)!

Download: