Utrecht String Quartet, Alexander Zemtsov, Pieter Wispelwey - Sergey Ivanovich Taneyev: String Quintets Op.14 & Op.16 (2015)

Posted By: Designol
Utrecht String Quartet, Alexander Zemtsov, Pieter Wispelwey - Sergey Ivanovich Taneyev: String Quintets Op.14 & Op.16 (2015)

Sergei Iwanowitsch Tanejew: String Quintets Op. 14 & Op. 16 (2015)
Utrecht String Quartet; Alexander Zemtsov, viola; Pieter Wispelwey, violoncello

EAC | FLAC | Tracks (Cue&Log) ~ 354 Mb | Mp3 (CBR320) ~ 199 Mb | Scans included
Classical | Label: MDG (Dabringhaus & Grimm) | # MDG6031923 | 01:18:22

A musical cosmopolitan and a Russian patriot, many regarded Taneyev's compositions as unintelligible and reactionary. The Utrecht String Quartet, an ensemble delighting in discovery, has now set itself the task of his long overdue rehabilitation. Just in time for the hundredth anniversary of the composer's death, the Dutch musicians, together with Pieter Wispelwey and Alexander Zemtsov, are presenting his two string quintets in a new recording, shedding new light on Russian music from around the turn of the century.

Utrecht String Quartet, Alexander Zemtsov, Pieter Wispelwey - Sergey Ivanovich Taneyev: String Quintets Op.14 & Op.16 (2015)



Utrecht String Quartet, Alexander Zemtsov, Pieter Wispelwey - Sergey Ivanovich Taneyev: String Quintets Op.14 & Op.16 (2015)



Utrecht String Quartet:
- Eeva Koskinen, violin
- Katherine Routley, violin
- Mikhail Zemtsov, viola
- Sebastian Koloski, violoncello

Alexander Zemtsov, viola
Pieter Wispelwey, violoncello

Recording: 10./11.02. & 29./30.06.2015

Tracklist:

Quintet in G major, op. 14
for 2 violins, viola & 2 violoncellos
01. I. Allegro con spirito (11:53)
02. II. Vivace con fuoco (5:09)
03. III. Tema con variazioni (20:37)

Quintet in C major, op. 16
for 2 violins, 2 violas & violoncello
04. I. Allegro sostenuto (13:19)
05. II. Adagio espressivo (10:43)
06. III. Allegretto (7:21)
07. IV. Finale. Vivace e con fuoco (9:20)


Exact Audio Copy V1.3 from 2. September 2016

EAC extraction logfile from 25. June 2017, 13:37

Taneyev, Sergei / String Quintets op. 14 & 16

Used drive : PLEXTOR CD-R PREMIUM2 Adapter: 5 ID: 1

Read mode : Secure
Utilize accurate stream : Yes
Defeat audio cache : Yes
Make use of C2 pointers : No

Read offset correction : 30
Overread into Lead-In and Lead-Out : Yes
Fill up missing offset samples with silence : Yes
Delete leading and trailing silent blocks : No
Null samples used in CRC calculations : Yes
Used interface : Installed external ASPI interface
Gap handling : Appended to previous track

Used output format : User Defined Encoder
Selected bitrate : 896 kBit/s
Quality : High
Add ID3 tag : No
Command line compressor : C:\Program Files\Exact Audio Copy\Flac\flac.exe
Additional command line options : -6 -V -T "ARTIST=%artist%" -T "TITLE=%title%" -T "ALBUM=%albumtitle%" -T "DATE=%year%" -T "PERFORMER=%albuminterpret%" -T "TRACKNUMBER=%tracknr%" -T "TOTALTRACKS=%numtracks%" -T "GENRE=%genre%" -T "COMPOSER=%composer%" -T "ALBUMARTIST=%albumartist%" -T "ALBUM ARTIST=%albumartist%" -T "COMMENT=EAC V1.3, Secure Mode, Test & Copy, AccurateRip, FLAC 1.3.2 Level 6" %source%


TOC of the extracted CD

Track | Start | Length | Start sector | End sector
––––––––––––––––––––––––––––-
1 | 0:00.00 | 11:53.21 | 0 | 53495
2 | 11:53.21 | 5:09.30 | 53496 | 76700
3 | 17:02.51 | 20:37.07 | 76701 | 169482
4 | 37:39.58 | 13:18.54 | 169483 | 229386
5 | 50:58.37 | 10:43.12 | 229387 | 277623
6 | 61:41.49 | 7:20.62 | 277624 | 310685
7 | 69:02.36 | 9:20.04 | 310686 | 352689


Track 1

Filename D:\EAC extraction\01 - Quintet in G major - I. Allegro con spirito.wav

Pre-gap length 0:00:02.00

Peak level 87.8 %
Extraction speed 1.9 X
Track quality 100.0 %
Test CRC 61B94C7E
Copy CRC 61B94C7E
Accurately ripped (confidence 4) [A6DE4902] (AR v2)
Copy OK

Track 2

Filename D:\EAC extraction\02 - Quintet in G major - II. Vivace con fuoco.wav

Peak level 88.3 %
Extraction speed 1.8 X
Track quality 99.9 %
Test CRC 517FC514
Copy CRC 517FC514
Accurately ripped (confidence 4) [F034AF2A] (AR v2)
Copy OK

Track 3

Filename D:\EAC extraction\03 - Quintet in G major - III. Tema con variazioni.wav

Peak level 79.5 %
Extraction speed 1.9 X
Track quality 100.0 %
Test CRC C9589371
Copy CRC C9589371
Accurately ripped (confidence 4) [1C95F03D] (AR v2)
Copy OK

Track 4

Filename D:\EAC extraction\04 - Quintet in C major - I. Allegro sostenuto.wav

Pre-gap length 0:00:11.57

Peak level 81.2 %
Extraction speed 1.9 X
Track quality 100.0 %
Test CRC 9D684076
Copy CRC 9D684076
Accurately ripped (confidence 4) [8DB60C56] (AR v2)
Copy OK

Track 5

Filename D:\EAC extraction\05 - Quintet in C major - II. Adagio espressivo.wav

Peak level 66.0 %
Extraction speed 1.9 X
Track quality 100.0 %
Test CRC E837F672
Copy CRC E837F672
Accurately ripped (confidence 4) [1F8741AD] (AR v2)
Copy OK

Track 6

Filename D:\EAC extraction\06 - Quintet in C major - III. Allegretto.wav

Peak level 67.5 %
Extraction speed 1.9 X
Track quality 100.0 %
Test CRC 34F4D3F6
Copy CRC 34F4D3F6
Accurately ripped (confidence 4) [3D00F021] (AR v2)
Copy OK

Track 7

Filename D:\EAC extraction\07 - Quintet in C major - IV. Finale. Vivace e con fuoco.wav

Peak level 97.9 %
Extraction speed 1.9 X
Track quality 99.9 %
Test CRC 31BF999A
Copy CRC 31BF999A
Accurately ripped (confidence 4) [4A8FB6B3] (AR v2)
Copy OK


All tracks accurately ripped

No errors occurred

End of status report

–– CUETools DB Plugin V2.1.6

[CTDB TOCID: pW8.r.2T.f2F2Go6shKM96bcwlY-] disk not present in database
Submit result: pW8.r.2T.f2F2Go6shKM96bcwlY- has been uploaded


==== Log checksum 3E8055A6C9EDF74813450E3E1FB0DD2AE7DD9FE412613F403439B9284C0CF0D8 ====

foobar2000 1.2 / Dynamic Range Meter 1.1.1
log date: 2017-07-06 01:22:18

––––––––––––––––––––––––––––––––––––––––
Analyzed: Utrecht String Quartet & Alexander Zemtsov / String Quintets op. 14 & 16 (1-4)
Utrecht String Quartet & Pieter Wispelwey / String Quintets op. 14 & 16 (5-7)
––––––––––––––––––––––––––––––––––––––––

DR Peak RMS Duration Track
––––––––––––––––––––––––––––––––––––––––
DR14 -1.80 dB -21.46 dB 13:19 04-Quintet in C major, op. 16, for 2 violins, 2 violas & violoncello - I. Allegro sostenuto
DR14 -3.60 dB -24.95 dB 10:43 05-Quintet in C major, op. 16, for 2 violins, 2 violas & violoncello - II. Adagio espressivo
DR15 -3.41 dB -23.78 dB 7:21 06-Quintet in C major, op. 16, for 2 violins, 2 violas & violoncello - III. Allegretto
DR15 -0.18 dB -19.71 dB 9:20 07-Quintet in C major, op. 16, for 2 violins, 2 violas & violoncello - IV. Finale. Vivace e con fuoco
DR14 -1.12 dB -20.91 dB 11:53 01-Quintet in G major, op. 14, for 2 violins, viola & 2 violoncellos - I. Allegro con spirito
DR15 -1.07 dB -20.24 dB 5:09 02-Quintet in G major, op. 14, for 2 violins, viola & 2 violoncellos - II. Vivace con fuoco
DR15 -1.98 dB -22.92 dB 20:37 03-Quintet in G major, op. 14, for 2 violins, viola & 2 violoncellos - III. Tema con variazioni
––––––––––––––––––––––––––––––––––––––––

Number of tracks: 7
Official DR value: DR14

Samplerate: 44100 Hz
Channels: 2
Bits per sample: 16
Bitrate: 571 kbps
Codec: FLAC
================================================================================

Utrecht String Quartet, Alexander Zemtsov, Pieter Wispelwey - Sergey Ivanovich Taneyev: String Quintets Op.14 & Op.16 (2015)

Utrecht String Quartet, Alexander Zemtsov, Pieter Wispelwey - Sergey Ivanovich Taneyev: String Quintets Op.14 & Op.16 (2015)