Subcategories

VA - 70's: 111 Original Hits (2009) 6CD Box Set [Repost]

Posted By: Designol
VA - 70's: 111 Original Hits (2009) 6CD Box Set [Repost]

Various Artists - 70s: 111 Original Hits (2009) 6CD Box Set
EAC | FLAC | Image (Cue&Log) ~ 2.41 Gb | Mp3 (CBR320) ~ 904 Mb | Scans ~ 100 Mb | 06:30:46
Pop Rock, Dance Rock, Pop, R&B, Disco, New Wave, Pop Punk | EMI Gold | # 5099 699172 2 6

Original Hits: 70s is a decent six-disc set, highlighting 111 pop singles released in that decade. Along with the original versions of radio classics by Al Stewart, Blondie, the Knack, KC & the Sunshine Band, and Dr. Hook, are less-than-obvious inclusions by Peter Tosh, XTC, the Move, and Benny Hill!

Review by Al Campbell, Allmusic.com

VA - 70's: 111 Original Hits (2009) 6CD Box Set [Repost]


Tracklist:

CD1:

01. Blondie - Sunday Girl (3:12)
02. Roxy Music - Love Is the Drug (4:08)
03. Tom Robinson Band - 2-4-6-8 Motorway (3:17)
04. Chris Spedding - Motor Bikin' (2:37)
05. Hot Chocolate - You Sexy Thing (single version) (4:04)
06. Ike & Tina Turner - Nutbush City Limits (2:52)
07. Joe Tex - Ain't Gonna Bump No More (with No Big Fat Woman) (edit) (6:40)
08. Nightingale - Right Back Where We Started From (3:12)
09. Natalie Cole - This Will Be (An Everlasting Love) (2:50)
10. Silver Convention - Get Up and Boogie (That's Right) (3:00)
11. A Taste of Honey - Boogie Oogie Oogie (single version 1) (3:35)
12. KC and The Sunshine Band - Queen of Clubs (3:18)
13. Suzi Quatro - Can the Can (3:34)
14. Pilot - Magic (3:04)
15. Racey - Some Girls (3:24)
16. Mud - Rocket (4:07)
17. Kenny - Fancy Pants (3:27)
18. The Arrows - Touch Too Much (3:03)


CD2:

01. Mud - Tiger Feet (3:51)
02. Kenny - The Bump (2:35)
03. Racey - Lay Your Love on Me (3:13)
04. Cozy Powell - Na Na Na (3:28)
05. Suzi Quatro - 48 Crash (3:53)
06. Blondie - Heart of Glass (4:10)
07. First Class - Beach Baby (4:46)
08. Dr. Hook - When You're in Love With a Beautiful Woman (2:57)
09. Lee Garrett - You're My Everything (2:58)
10. George McCrae - I Can't Leave You Alone (3:08)
11. Gonzalez - Haven't Stopped Dancing Yet (4:11)
12. Tavares - Don't Take Away the Music (3:39)
13. KC and The Sunshine Band - That's the Way I Like It (edit) (3:04)
14. Brass Construction - Movin' (single edit) (3:24)
15. Peter Brown - Do Ya Wanna Get Funky With Me (1994 remix) (4:36)
16. T-Connection - Do What You Wanna Do (edit) (3:31)
17. Peter Tosh - (You Gotta Walk and) Don't Look Back (edit) (3:43)
18. Timmy Thomas - Why Can't We Live Together (4:49)
19. The Hollies - The Air That I Breathe (4:04)


CD3:

01. Bryan Ferry - Let's Stick Together (2:58)
02. Simple Minds - Life in a Day (4:05)
03. The Knack - My Sharona (4:00)
04. Blondie - Dreaming (3:05)
05. Buzzcocks - Ever Fallen in Love (with Someone You Shouldn't've)? (2:41)
06. The Members - Sound of the Suburbs (3:53)
07. The Skids - Into the Valley (3:11)
08. The Ruts - Babylon's Burning (2:35)
09. Generation X - King Rocker (2:17)
10. Rich Kids - Rich Kids (2:57)
11. Public Image Ltd. - Public Image (2:56)
12. XTC - Making Plans for Nigel (4:15)
13. The Flying Lizards - Money (edit) (2:30)
14. The Stranglers - Peaches (4:05)
15. Dr. Feelgood - Down at the Doctor's (3:12)
16. CCS - Whole Lotta Love (3:34)
17. Be Bop Deluxe - Ships in the Night (4:08)
18. UFO - Doctor Doctor (edit) (2:45)
19. Hawkwind - Silver Machine (original single version) (live at the Roundhouse London) (4:38)


CD4:

01. Wizzard - See My Baby Jive (4:58)
02. Suzi Quatro - Devil Gate Drive (3:47)
03. Pilot - January (3:30)
04. Mud - Crazy (3:11)
05. Cozy Powell - Dance With the Devil (3:33)
06. Electric Light Orchestra - 10538 Overture (5:28)
07. The Move - California Man (3:36)
08. Canned Heat - Let's Work Together (2:46)
09. Dave Edmunds - I Hear You Knocking (2:47)
10. Norman "Hurricane" Smith - Oh Babe, What Would You Say? (3:28)
11. CCS - Tap Turns on the Water (3:42)
12. Mink DeVille - Spanish Stroll (3:40)
13. Steve Harley & Cockney Rebel - Judy Teen (3:42)
14. The Stranglers - Walk on By (6:21)
15. The Specials - A Message to You Rudy (2:55)
16. The Beat - The Tears of a Clown (2:41)
17. Tavares - More Than a Woman (3:15)
18. Hot Chocolate - Every 1's a Winner (3:56)


CD5:

01. Bobby Goldsboro - Summer (The First Time) (4:38)
02. Minnie Riperton - Lovin' You (3:19)
03. David Soul - Don't Give Up on Us (3:36)
04. Congregation - Softly Whispering I Love You (3:00)
05. Paul Anka & Odia Coates - (You're) Having My Baby (2:30)
06. Duncan Browne - Journey (3:16)
07. Crystal Gayle - Don't It Make My Brown Eyes Blue (2:33)
08. Kenny Rogers - Lucille (3:39)
09. Billie Jo Spears - What I've Got in Mind (2:42)
10. Glen Campbell - Rhinestone Cowboy (3:16)
11. Pussycat - Mississippi (4:35)
12. Steeleye Span - All Around My Hat (4:08)
13. Dr. Hook - A Little Bit More (3:13)
14. Cilla Black - Something Tells Me (Something's Gonna Happen…) (2:26)
15. Shirley Bassey - Something (3:33)
16. Herman's Hermits - Years May Come, Years May Go (3:37)
17. Danny Williams - Dancing Easy (3:17)
18. Peter Noone - Oh You Pretty Things (3:05)
19. Al Stewart - Year of the Cat (edit) (4:57)


CD6:

01. Hot Chocolate - Disco Queen (3:11)
02. George McCrae - Rock Your Baby (3:18)
03. Marshall Hain - Dancing in the City (3:46)
04. Steve Harley & Cockney Rebel - Make Me Smile (Come Up and See Me) (3:53)
05. Roy Wood - Forever (4:19)
06. Roxy Music - Virginia Plain (2:58)
07. Electric Light Orchestra - Roll Over Beethoven (single version) (4:32)
08. The Move - Tonight (3:18)
09. Wizzard - Ball Park Incident (3:39)
10. Dr. Feelgood - Milk and Alcohol (2:48)
11. Buzzcocks - Promises (2:36)
12. The Stranglers - No More Heroes (radio edit) (2:56)
13. The Special A.K.A. - Gangsters (2:47)
14. Mr. Big - Romeo (2:34)
15. The Wurzels - The Combine Harvester (Brand New Key) (3:03)
16. Ray Stevens - Bridget the Midget (The Queen of the Blues) (3:37)
17. Benny Hill - Ernie (The Fastest Milkman in the West) (3:52)
18. Chas & Dave - Gertcha (3:53)


Exact Audio Copy V1.0 beta 3 from 29. August 2011

Отчёт EAC об извлечении, выполненном 9. октября 2014, 0:51

Various Artists / 111 Original Hits - 70s (SD1 699 1722)

Дисковод: PIONEER BD-RW BDR-206 Adapter: 1 ID: 0

Режим чтения : Достоверность
Использование точного потока : Да
Отключение кэша аудио : Да
Использование указателей C2 : Нет

Коррекция смещения при чтении : 667
Способность читать области Lead-in и Lead-out : Нет
Заполнение пропущенных сэмплов тишиной : Да
Удаление блоков с тишиной в начале и конце : Нет
При вычислениях CRC использовались нулевые сэмплы : Да
Интерфейс : Установленный внешний ASPI-интерфейс

Выходной формат : Пользовательский кодировщик
Выбранный битрейт : 1024 kBit/s
Качество : Высокий
Добавление ID3-тега : Нет
Утилита сжатия : C:\Program Files (x86)\Exact Audio Copy\FLAC\FLAC.EXE
Дополнительные параметры : -T "COMMENT=Ripped by SergeyJD"-8 -V -T "ARTIST=%artist%" -T "TITLE=%title%" -T "ALBUM=%albumtitle%" -T "DATE=%year%" -T "TRACKNUMBER=%tracknr%" -T "GENRE=%genre%" -T "COMMENT=%comment%" -T "BAND=%albuminterpret%" -T "ALBUMARTIST=%albuminterpret%" -T "COMPOSER=%composer%" %haslyrics%–tag-from-file=LYRICS="%lyricsfile%"%haslyrics% -T "DISCNUMBER=%cdnumber%" -T "TOTALDISCS=%totalcds%" -T "TOTALTRACKS=%numtracks%" %hascover%–picture="%coverfile%"%hascover% %source% -o %dest%


TOC извлечённого CD

Трек | Старт | Длительность | Начальный сектор | Конечный сектор
––––––––––––––––––––––––––––––––––-
1 | 0:00.00 | 3:11.66 | 0 | 14390
2 | 3:11.66 | 4:07.47 | 14391 | 32962
3 | 7:19.38 | 3:16.54 | 32963 | 47716
4 | 10:36.17 | 2:36.51 | 47717 | 59467
5 | 13:12.68 | 4:03.57 | 59468 | 77749
6 | 17:16.50 | 2:51.49 | 77750 | 90623
7 | 20:08.24 | 6:39.61 | 90624 | 120609
8 | 26:48.10 | 3:12.33 | 120610 | 135042
9 | 30:00.43 | 2:49.42 | 135043 | 147759
10 | 32:50.10 | 3:00.09 | 147760 | 161268
11 | 35:50.19 | 3:35.30 | 161269 | 177423
12 | 39:25.49 | 3:18.07 | 177424 | 192280
13 | 42:43.56 | 3:33.55 | 192281 | 208310
14 | 46:17.36 | 3:04.03 | 208311 | 222113
15 | 49:21.39 | 3:24.31 | 222114 | 237444
16 | 52:45.70 | 4:06.74 | 237445 | 255968
17 | 56:52.69 | 3:26.73 | 255969 | 271491
18 | 60:19.67 | 3:03.16 | 271492 | 285232


Характеристики диапазона извлечения и сообщения об ошибках

Выбранный диапазон

Имя файла D:\РАЗДАЧИ!!!!\Various Artists - 70's (111 Original Hits, 6CD, 699 1722) - 2009\Disc 1\Various Artists - 111 Original Hits - 70s (SD1 699 1722).wav

Пиковый уровень 99.8 %
Скорость извлечения 7.4 X
Качество диапазона 99.9 %
CRC теста 1DB96A8A
CRC копии 1DB96A8A
Копирование… OK

Ошибок не произошло


AccurateRip: сводка

Трек 1 : извлечено точно (доверие 2) [0E600EB9] (AR v2)
Трек 2 : извлечено точно (доверие 2) [ABAC6249] (AR v2)
Трек 3 : извлечено точно (доверие 2) [3089D017] (AR v2)
Трек 4 : извлечено точно (доверие 2) [0C445DA1] (AR v2)
Трек 5 : извлечено точно (доверие 2) [C895BFA6] (AR v2)
Трек 6 : извлечено точно (доверие 2) [6B08246B] (AR v2)
Трек 7 : извлечено точно (доверие 2) [E0498C58] (AR v2)
Трек 8 : извлечено точно (доверие 2) [61B96F2D] (AR v2)
Трек 9 : извлечено точно (доверие 2) [7D71A32B] (AR v2)
Трек 10 : извлечено точно (доверие 2) [961DBE9A] (AR v2)
Трек 11 : извлечено точно (доверие 2) [1CAD1969] (AR v2)
Трек 12 : извлечено точно (доверие 2) [C6079959] (AR v2)
Трек 13 : извлечено точно (доверие 2) [A2058294] (AR v2)
Трек 14 : извлечено точно (доверие 2) [2811000F] (AR v2)
Трек 15 : извлечено точно (доверие 2) [43679457] (AR v2)
Трек 16 : извлечено точно (доверие 2) [2C52068F] (AR v2)
Трек 17 : извлечено точно (доверие 2) [E515E1E6] (AR v2)
Трек 18 : извлечено точно (доверие 2) [76FAA9D3] (AR v2)

Все треки извлечены точно

Конец отчёта

–– CUETools DB Plugin V2.1.4

[CTDB TOCID: 2CnJZRrLeJMKwr2H69RMyLP13Ds-] found
Submit result: 2CnJZRrLeJMKwr2H69RMyLP13Ds- has been confirmed
Track | CTDB Status
1 | (3/3) Accurately ripped
2 | (3/3) Accurately ripped
3 | (3/3) Accurately ripped
4 | (3/3) Accurately ripped
5 | (3/3) Accurately ripped
6 | (3/3) Accurately ripped
7 | (3/3) Accurately ripped
8 | (3/3) Accurately ripped
9 | (3/3) Accurately ripped
10 | (3/3) Accurately ripped
11 | (3/3) Accurately ripped
12 | (3/3) Accurately ripped
13 | (3/3) Accurately ripped
14 | (3/3) Accurately ripped
15 | (3/3) Accurately ripped
16 | (3/3) Accurately ripped
17 | (3/3) Accurately ripped
18 | (3/3) Accurately ripped


==== Контрольная сумма отчёта E3B7B5BD8EDB33C1A26F6E801CAD8F56055DD4EEA900B2AF0213B77C5C8E3F11 ====

foobar2000 1.2 / Dynamic Range Meter 1.1.1
log date: 2017-07-07 22:31:00

––––––––––––––––––––––––––––––––––––––––
Analyzed: Blondie / 111 Original Hits - 70s (SD1 699 1722) (1)
Chris Spedding / 111 Original Hits - 70s (SD1 699 1722) (2)
Hot Chocolate / 111 Original Hits - 70s (SD1 699 1722) (3)
Ike & Tina Turner / 111 Original Hits - 70s (SD1 699 1722) (4)
Joe Tex / 111 Original Hits - 70s (SD1 699 1722) (5)
KC and The Sunshine Band / 111 Original Hits - 70s (SD1 699 1722) (6)
Kenny / 111 Original Hits - 70s (SD1 699 1722) (7)
––––––––––––––––––––––––––––––––––––––––

DR Peak RMS Duration Track
––––––––––––––––––––––––––––––––––––––––
DR9 -4.01 dB -14.73 dB 3:12 01-Sunday Girl
DR11 -3.01 dB -15.99 dB 2:37 04-Motor Bikin’
DR12 -4.00 dB -17.47 dB 4:04 05-You Sexy Thing (single version)
DR12 -4.18 dB -17.73 dB 2:52 06-Nutbush City Limits
DR11 -2.00 dB -15.42 dB 6:40 07-Ain’t Gonna Bump No More (with No Big Fat Woman) (edit)
DR13 -1.18 dB -15.63 dB 3:18 12-Queen of Clubs
DR7 -5.36 dB -14.00 dB 3:27 17-Fancy Pants
––––––––––––––––––––––––––––––––––––––––

Number of tracks: 7
Official DR value: DR11

Samplerate: 44100 Hz
Channels: 2
Bits per sample: 16
Bitrate: 851 kbps
Codec: FLAC
================================================================================

––––––––––––––––––––––––––––––––––––––––
Statistics for: 16-Rocket
Number of samples: 10892112
Duration: 4:07
––––––––––––––––––––––––––––––––––––––––

Left Right

Peak Value: -4.14 dB –- -4.14 dB
Avg RMS: -15.08 dB –- -14.95 dB
DR channel: 10.04 dB –- 9.88 dB
––––––––––––––––––––––––––––––––––––––––

Official DR Value: DR10

Samplerate: 44100 Hz
Channels: 2
Bits per sample: 16
Bitrate: 851 kbps
Codec: FLAC
================================================================================
––––––––––––––––––––––––––––––––––––––––
Statistics for: 09-This Will Be (An Everlasting Love)
Number of samples: 7477596
Duration: 2:50
––––––––––––––––––––––––––––––––––––––––

Left Right

Peak Value: -4.00 dB –- -4.00 dB
Avg RMS: -14.49 dB –- -14.85 dB
DR channel: 8.80 dB –- 9.22 dB
––––––––––––––––––––––––––––––––––––––––

Official DR Value: DR9

Samplerate: 44100 Hz
Channels: 2
Bits per sample: 16
Bitrate: 851 kbps
Codec: FLAC
================================================================================
––––––––––––––––––––––––––––––––––––––––
Analyzed: Nightingale / 111 Original Hits - 70s (SD1 699 1722) (1)
Pilot / 111 Original Hits - 70s (SD1 699 1722) (2)
Racey / 111 Original Hits - 70s (SD1 699 1722) (3)
––––––––––––––––––––––––––––––––––––––––

DR Peak RMS Duration Track
––––––––––––––––––––––––––––––––––––––––
DR10 -4.10 dB -16.22 dB 3:12 08-Right Back Where We Started From
DR10 -5.00 dB -16.68 dB 3:04 14-Magic
DR12 -2.80 dB -15.90 dB 3:24 15-Some Girls
––––––––––––––––––––––––––––––––––––––––

Number of tracks: 3
Official DR value: DR11

Samplerate: 44100 Hz
Channels: 2
Bits per sample: 16
Bitrate: 851 kbps
Codec: FLAC
================================================================================

––––––––––––––––––––––––––––––––––––––––
Analyzed: Roxy Music / 111 Original Hits - 70s (SD1 699 1722) (1)
Silver Convention / 111 Original Hits - 70s (SD1 699 1722) (2)
Suzi Quatro / 111 Original Hits - 70s (SD1 699 1722) (3)
The Arrows / 111 Original Hits - 70s (SD1 699 1722) (4)
––––––––––––––––––––––––––––––––––––––––

DR Peak RMS Duration Track
––––––––––––––––––––––––––––––––––––––––
DR15 -0.01 dB -17.60 dB 4:08 02-Love Is the Drug
DR13 -3.00 dB -17.32 dB 3:00 10-Get Up and Boogie (That’s Right)
DR10 -4.51 dB -16.31 dB 3:34 13-Can the Can
DR12 -3.64 dB -18.26 dB 3:03 18-Touch Too Much
––––––––––––––––––––––––––––––––––––––––

Number of tracks: 4
Official DR value: DR12

Samplerate: 44100 Hz
Channels: 2
Bits per sample: 16
Bitrate: 851 kbps
Codec: FLAC
================================================================================

––––––––––––––––––––––––––––––––––––––––
Statistics for: 03-2-4-6-8 Motorway
Number of samples: 8675352
Duration: 3:17
––––––––––––––––––––––––––––––––––––––––

Left Right

Peak Value: -3.04 dB –- -3.01 dB
Avg RMS: -15.44 dB –- -15.23 dB
DR channel: 10.58 dB –- 10.44 dB
––––––––––––––––––––––––––––––––––––––––

Official DR Value: DR11

Samplerate: 44100 Hz
Channels: 2
Bits per sample: 16
Bitrate: 851 kbps
Codec: FLAC
================================================================================
foobar2000 1.2 / Dynamic Range Meter 1.1.1
log date: 2017-07-07 22:30:49

––––––––––––––––––––––––––––––––––––––––
Statistics for: 11-Boogie Oogie Oogie (single version 1)
Number of samples: 9499140
Duration: 3:35
––––––––––––––––––––––––––––––––––––––––

Left Right

Peak Value: -2.18 dB –- -2.17 dB
Avg RMS: -17.72 dB –- -17.30 dB
DR channel: 13.37 dB –- 13.09 dB
––––––––––––––––––––––––––––––––––––––––

Official DR Value: DR13

Samplerate: 44100 Hz
Channels: 2
Bits per sample: 16
Bitrate: 851 kbps
Codec: FLAC
================================================================================


Exact Audio Copy V1.0 beta 3 from 29. August 2011

Отчёт EAC об извлечении, выполненном 9. октября 2014, 1:13

Various Artists / 111 Original Hits - 70s (SD2 699 1722)

Дисковод: PIONEER BD-RW BDR-206 Adapter: 1 ID: 0

Режим чтения : Достоверность
Использование точного потока : Да
Отключение кэша аудио : Да
Использование указателей C2 : Нет

Коррекция смещения при чтении : 667
Способность читать области Lead-in и Lead-out : Нет
Заполнение пропущенных сэмплов тишиной : Да
Удаление блоков с тишиной в начале и конце : Нет
При вычислениях CRC использовались нулевые сэмплы : Да
Интерфейс : Установленный внешний ASPI-интерфейс

Выходной формат : Пользовательский кодировщик
Выбранный битрейт : 1024 kBit/s
Качество : Высокий
Добавление ID3-тега : Нет
Утилита сжатия : C:\Program Files (x86)\Exact Audio Copy\FLAC\FLAC.EXE
Дополнительные параметры : -T "COMMENT=Ripped by SergeyJD"-8 -V -T "ARTIST=%artist%" -T "TITLE=%title%" -T "ALBUM=%albumtitle%" -T "DATE=%year%" -T "TRACKNUMBER=%tracknr%" -T "GENRE=%genre%" -T "COMMENT=%comment%" -T "BAND=%albuminterpret%" -T "ALBUMARTIST=%albuminterpret%" -T "COMPOSER=%composer%" %haslyrics%–tag-from-file=LYRICS="%lyricsfile%"%haslyrics% -T "DISCNUMBER=%cdnumber%" -T "TOTALDISCS=%totalcds%" -T "TOTALTRACKS=%numtracks%" %hascover%–picture="%coverfile%"%hascover% %source% -o %dest%


TOC извлечённого CD

Трек | Старт | Длительность | Начальный сектор | Конечный сектор
––––––––––––––––––––––––––––––––––-
1 | 0:00.00 | 3:51.22 | 0 | 17346
2 | 3:51.22 | 2:34.60 | 17347 | 28956
3 | 6:26.07 | 3:13.29 | 28957 | 43460
4 | 9:39.36 | 3:28.02 | 43461 | 59062
5 | 13:07.38 | 3:53.27 | 59063 | 76564
6 | 17:00.65 | 4:09.57 | 76565 | 95296
7 | 21:10.47 | 4:45.64 | 95297 | 116735
8 | 25:56.36 | 2:56.58 | 116736 | 129993
9 | 28:53.19 | 2:58.03 | 129994 | 143346
10 | 31:51.22 | 3:07.53 | 143347 | 157424
11 | 34:59.00 | 4:10.61 | 157425 | 176235
12 | 39:09.61 | 3:38.44 | 176236 | 192629
13 | 42:48.30 | 3:04.17 | 192630 | 206446
14 | 45:52.47 | 3:24.32 | 206447 | 221778
15 | 49:17.04 | 4:35.46 | 221779 | 242449
16 | 53:52.50 | 3:31.13 | 242450 | 258287
17 | 57:23.63 | 3:42.50 | 258288 | 274987
18 | 61:06.38 | 4:49.26 | 274988 | 296688
19 | 65:55.64 | 4:04.34 | 296689 | 315022


Характеристики диапазона извлечения и сообщения об ошибках

Выбранный диапазон

Имя файла D:\РАЗДАЧИ!!!!\Various Artists - 70's (111 Original Hits, 6CD, 699 1722) - 2009\Disc 2\Various Artists - 111 Original Hits - 70s (SD2 699 1722).wav

Пиковый уровень 99.8 %
Скорость извлечения 7.6 X
Качество диапазона 100.0 %
CRC теста 7F15750A
CRC копии 7F15750A
Копирование… OK

Ошибок не произошло


AccurateRip: сводка

Трек 1 : извлечено точно (доверие 2) [413AC9E0] (AR v2)
Трек 2 : извлечено точно (доверие 2) [3013D956] (AR v2)
Трек 3 : извлечено точно (доверие 2) [14C18F21] (AR v2)
Трек 4 : извлечено точно (доверие 2) [F5C782AE] (AR v2)
Трек 5 : извлечено точно (доверие 2) [A31EB9F4] (AR v2)
Трек 6 : извлечено точно (доверие 2) [00BF09C3] (AR v2)
Трек 7 : извлечено точно (доверие 2) [54732AAD] (AR v2)
Трек 8 : извлечено точно (доверие 2) [DC262794] (AR v2)
Трек 9 : извлечено точно (доверие 2) [2F7DE654] (AR v2)
Трек 10 : извлечено точно (доверие 2) [4C5A803B] (AR v2)
Трек 11 : извлечено точно (доверие 2) [4399CFC5] (AR v2)
Трек 12 : извлечено точно (доверие 2) [FFE7CF06] (AR v2)
Трек 13 : извлечено точно (доверие 2) [3E0871B2] (AR v2)
Трек 14 : извлечено точно (доверие 2) [BE92C506] (AR v2)
Трек 15 : извлечено точно (доверие 2) [76AA19B3] (AR v2)
Трек 16 : извлечено точно (доверие 2) [0931FCE1] (AR v2)
Трек 17 : извлечено точно (доверие 2) [0B18DDC3] (AR v2)
Трек 18 : извлечено точно (доверие 2) [E3E36F61] (AR v2)
Трек 19 : извлечено точно (доверие 2) [41C687E4] (AR v2)

Все треки извлечены точно

Конец отчёта

–– CUETools DB Plugin V2.1.4

[CTDB TOCID: V_aY72qxkbQAe4CpPpGxnty4N7E-] found
Submit result: V_aY72qxkbQAe4CpPpGxnty4N7E- has been confirmed
Track | CTDB Status
1 | (3/3) Accurately ripped
2 | (3/3) Accurately ripped
3 | (3/3) Accurately ripped
4 | (3/3) Accurately ripped
5 | (3/3) Accurately ripped
6 | (3/3) Accurately ripped
7 | (3/3) Accurately ripped
8 | (3/3) Accurately ripped
9 | (3/3) Accurately ripped
10 | (3/3) Accurately ripped
11 | (3/3) Accurately ripped
12 | (3/3) Accurately ripped
13 | (3/3) Accurately ripped
14 | (3/3) Accurately ripped
15 | (3/3) Accurately ripped
16 | (3/3) Accurately ripped
17 | (3/3) Accurately ripped
18 | (3/3) Accurately ripped
19 | (3/3) Accurately ripped


==== Контрольная сумма отчёта 586BBB98687DB60CD97FEEFC4076AEA3557696E03514FF16875623F3CA7BC84E ====

foobar2000 1.2 / Dynamic Range Meter 1.1.1
log date: 2017-07-07 22:31:26

––––––––––––––––––––––––––––––––––––––––
Analyzed: Blondie / 111 Original Hits - 70s (SD2 699 1722) (1)
Brass Construction / 111 Original Hits - 70s (SD2 699 1722) (2)
––––––––––––––––––––––––––––––––––––––––

DR Peak RMS Duration Track
––––––––––––––––––––––––––––––––––––––––
DR9 -2.18 dB -12.67 dB 4:10 06-Heart of Glass
DR11 -1.00 dB -13.56 dB 3:24 14-Movin’ (single edit)
––––––––––––––––––––––––––––––––––––––––

Number of tracks: 2
Official DR value: DR10

Samplerate: 44100 Hz
Channels: 2
Bits per sample: 16
Bitrate: 887 kbps
Codec: FLAC
================================================================================

––––––––––––––––––––––––––––––––––––––––
Analyzed: Cozy Powell / 111 Original Hits - 70s (SD2 699 1722) (1)
Dr. Hook / 111 Original Hits - 70s (SD2 699 1722) (2)
––––––––––––––––––––––––––––––––––––––––

DR Peak RMS Duration Track
––––––––––––––––––––––––––––––––––––––––
DR9 -2.17 dB -12.15 dB 3:28 04-Na Na Na
DR11 -1.00 dB -14.41 dB 2:57 08-When You’re in Love With a Beautiful Woman
––––––––––––––––––––––––––––––––––––––––

Number of tracks: 2
Official DR value: DR10

Samplerate: 44100 Hz
Channels: 2
Bits per sample: 16
Bitrate: 887 kbps
Codec: FLAC
================================================================================

––––––––––––––––––––––––––––––––––––––––
Analyzed: First Class / 111 Original Hits - 70s (SD2 699 1722) (1)
George McCrae / 111 Original Hits - 70s (SD2 699 1722) (2)
Gonzalez / 111 Original Hits - 70s (SD2 699 1722) (3)
KC and The Sunshine Band / 111 Original Hits - 70s (SD2 699 1722) (4)
––––––––––––––––––––––––––––––––––––––––

DR Peak RMS Duration Track
––––––––––––––––––––––––––––––––––––––––
DR10 -1.00 dB -12.89 dB 4:46 07-Beach Baby
DR14 -1.00 dB -15.92 dB 3:08 10-I Can’t Leave You Alone
DR10 -3.68 dB -15.38 dB 4:11 11-Haven’t Stopped Dancing Yet
DR13 -0.41 dB -15.26 dB 3:04 13-That’s the Way I Like It (edit)
––––––––––––––––––––––––––––––––––––––––

Number of tracks: 4
Official DR value: DR12

Samplerate: 44100 Hz
Channels: 2
Bits per sample: 16
Bitrate: 887 kbps
Codec: FLAC
================================================================================

––––––––––––––––––––––––––––––––––––––––
Analyzed: Kenny / 111 Original Hits - 70s (SD2 699 1722) (1)
Lee Garrett / 111 Original Hits - 70s (SD2 699 1722) (2)
––––––––––––––––––––––––––––––––––––––––

DR Peak RMS Duration Track
––––––––––––––––––––––––––––––––––––––––
DR12 -0.01 dB -13.94 dB 2:35 02-The Bump
DR10 -2.02 dB -13.22 dB 2:58 09-You’re My Everything
––––––––––––––––––––––––––––––––––––––––

Number of tracks: 2
Official DR value: DR11

Samplerate: 44100 Hz
Channels: 2
Bits per sample: 16
Bitrate: 887 kbps
Codec: FLAC
================================================================================

––––––––––––––––––––––––––––––––––––––––
Analyzed: Mud / 111 Original Hits - 70s (SD2 699 1722) (1)
Peter Brown / 111 Original Hits - 70s (SD2 699 1722) (2)
Peter Tosh / 111 Original Hits - 70s (SD2 699 1722) (3)
––––––––––––––––––––––––––––––––––––––––

DR Peak RMS Duration Track
––––––––––––––––––––––––––––––––––––––––
DR12 -1.01 dB -14.89 dB 3:51 01-Tiger Feet
DR12 -1.50 dB -14.19 dB 4:36 15-Do Ya Wanna Get Funky With Me (1994 remix)
DR10 -3.00 dB -15.40 dB 3:43 17-(You Gotta Walk and) Don’t Look Back (edit)
––––––––––––––––––––––––––––––––––––––––

Number of tracks: 3
Official DR value: DR11

Samplerate: 44100 Hz
Channels: 2
Bits per sample: 16
Bitrate: 887 kbps
Codec: FLAC
================================================================================

––––––––––––––––––––––––––––––––––––––––
Analyzed: Racey / 111 Original Hits - 70s (SD2 699 1722) (1)
Suzi Quatro / 111 Original Hits - 70s (SD2 699 1722) (2)
Tavares / 111 Original Hits - 70s (SD2 699 1722) (3)
T-Connection / 111 Original Hits - 70s (SD2 699 1722) (4)
The Hollies / 111 Original Hits - 70s (SD2 699 1722) (5)
––––––––––––––––––––––––––––––––––––––––

DR Peak RMS Duration Track
––––––––––––––––––––––––––––––––––––––––
DR8 -2.01 dB -10.97 dB 3:13 03-Lay Your Love on Me
DR8 -2.17 dB -11.43 dB 3:53 05-48 Crash
DR12 -2.18 dB -15.27 dB 3:39 12-Don’t Take Away the Music
DR11 -1.50 dB -14.02 dB 3:31 16-Do What You Wanna Do (edit)
DR10 -2.88 dB -14.66 dB 4:04 19-The Air That I Breathe
––––––––––––––––––––––––––––––––––––––––

Number of tracks: 5
Official DR value: DR10

Samplerate: 44100 Hz
Channels: 2
Bits per sample: 16
Bitrate: 887 kbps
Codec: FLAC
================================================================================

––––––––––––––––––––––––––––––––––––––––
Statistics for: 18-Why Can’t We Live Together
Number of samples: 12760188
Duration: 4:49
––––––––––––––––––––––––––––––––––––––––

Left Right

Peak Value: -3.04 dB –- -3.05 dB
Avg RMS: -15.65 dB –- -15.65 dB
DR channel: 10.55 dB –- 10.55 dB
––––––––––––––––––––––––––––––––––––––––

Official DR Value: DR11

Samplerate: 44100 Hz
Channels: 2
Bits per sample: 16
Bitrate: 887 kbps
Codec: FLAC
================================================================================


Exact Audio Copy V1.0 beta 3 from 29. August 2011

Отчёт EAC об извлечении, выполненном 9. октября 2014, 2:41

Various Artists / 111 Original Hits - 70s (SD3 699 1722)

Дисковод: PIONEER BD-RW BDR-206 Adapter: 1 ID: 0

Режим чтения : Достоверность
Использование точного потока : Да
Отключение кэша аудио : Да
Использование указателей C2 : Нет

Коррекция смещения при чтении : 667
Способность читать области Lead-in и Lead-out : Нет
Заполнение пропущенных сэмплов тишиной : Да
Удаление блоков с тишиной в начале и конце : Нет
При вычислениях CRC использовались нулевые сэмплы : Да
Интерфейс : Установленный внешний ASPI-интерфейс

Выходной формат : Пользовательский кодировщик
Выбранный битрейт : 1024 kBit/s
Качество : Высокий
Добавление ID3-тега : Нет
Утилита сжатия : C:\Program Files (x86)\Exact Audio Copy\FLAC\FLAC.EXE
Дополнительные параметры : -T "COMMENT=Ripped by SergeyJD"-8 -V -T "ARTIST=%artist%" -T "TITLE=%title%" -T "ALBUM=%albumtitle%" -T "DATE=%year%" -T "TRACKNUMBER=%tracknr%" -T "GENRE=%genre%" -T "COMMENT=%comment%" -T "BAND=%albuminterpret%" -T "ALBUMARTIST=%albuminterpret%" -T "COMPOSER=%composer%" %haslyrics%–tag-from-file=LYRICS="%lyricsfile%"%haslyrics% -T "DISCNUMBER=%cdnumber%" -T "TOTALDISCS=%totalcds%" -T "TOTALTRACKS=%numtracks%" %hascover%–picture="%coverfile%"%hascover% %source% -o %dest%


TOC извлечённого CD

Трек | Старт | Длительность | Начальный сектор | Конечный сектор
––––––––––––––––––––––––––––––––––-
1 | 0:00.00 | 2:57.61 | 0 | 13335
2 | 2:57.61 | 4:05.27 | 13336 | 31737
3 | 7:03.13 | 4:00.30 | 31738 | 49767
4 | 11:03.43 | 3:04.72 | 49768 | 63639
5 | 14:08.40 | 2:41.03 | 63640 | 75717
6 | 16:49.43 | 3:53.33 | 75718 | 93225
7 | 20:43.01 | 3:10.41 | 93226 | 107516
8 | 23:53.42 | 2:35.10 | 107517 | 119151
9 | 26:28.52 | 2:16.61 | 119152 | 129412
10 | 28:45.38 | 2:57.02 | 129413 | 142689
11 | 31:42.40 | 2:55.74 | 142690 | 155888
12 | 34:38.39 | 4:15.14 | 155889 | 175027
13 | 38:53.53 | 2:30.30 | 175028 | 186307
14 | 41:24.08 | 4:05.26 | 186308 | 204708
15 | 45:29.34 | 3:11.62 | 204709 | 219095
16 | 48:41.21 | 3:33.71 | 219096 | 235141
17 | 52:15.17 | 4:07.39 | 235142 | 253705
18 | 56:22.56 | 2:45.02 | 253706 | 266082
19 | 59:07.58 | 4:37.73 | 266083 | 286930


Характеристики диапазона извлечения и сообщения об ошибках

Выбранный диапазон

Имя файла D:\РАЗДАЧИ!!!!\Various Artists - 70's (111 Original Hits, 6CD, 699 1722) - 2009\Disc 3\Various Artists - 111 Original Hits - 70s (SD3 699 1722).wav

Пиковый уровень 100.0 %
Скорость извлечения 1.8 X
Качество диапазона 100.0 %
CRC теста C37C9321
CRC копии C37C9321
Копирование… OK

Ошибок не произошло


AccurateRip: сводка

Трек 1 : извлечено точно (доверие 2) [C030B08E] (AR v2)
Трек 2 : извлечено точно (доверие 2) [6C3421FB] (AR v2)
Трек 3 : извлечено точно (доверие 2) [C6832D7D] (AR v2)
Трек 4 : извлечено точно (доверие 2) [8ACD12D9] (AR v2)
Трек 5 : извлечено точно (доверие 2) [C08698C0] (AR v2)
Трек 6 : извлечено точно (доверие 2) [648FA9D6] (AR v2)
Трек 7 : извлечено точно (доверие 2) [13855727] (AR v2)
Трек 8 : извлечено точно (доверие 2) [C7AD5B9B] (AR v2)
Трек 9 : извлечено точно (доверие 2) [BB672695] (AR v2)
Трек 10 : извлечено точно (доверие 2) [8F273425] (AR v2)
Трек 11 : извлечено точно (доверие 2) [B9ED0277] (AR v2)
Трек 12 : извлечено точно (доверие 2) [5FA5459A] (AR v2)
Трек 13 : извлечено точно (доверие 2) [BED20ACF] (AR v2)
Трек 14 : извлечено точно (доверие 2) [E45DD11E] (AR v2)
Трек 15 : извлечено точно (доверие 2) [ACCE6FE1] (AR v2)
Трек 16 : извлечено точно (доверие 2) [652BD842] (AR v2)
Трек 17 : извлечено точно (доверие 2) [0A582088] (AR v2)
Трек 18 : извлечено точно (доверие 2) [88F6BBBA] (AR v2)
Трек 19 : извлечено точно (доверие 2) [534DAEF7] (AR v2)

Все треки извлечены точно

Конец отчёта

–– CUETools DB Plugin V2.1.4

[CTDB TOCID: WHCcxZ.JtdRucjDK0_Uzq9RtdAQ-] found
Submit result: WHCcxZ.JtdRucjDK0_Uzq9RtdAQ- has been confirmed
Track | CTDB Status
1 | (3/3) Accurately ripped
2 | (3/3) Accurately ripped
3 | (3/3) Accurately ripped
4 | (3/3) Accurately ripped
5 | (3/3) Accurately ripped
6 | (3/3) Accurately ripped
7 | (3/3) Accurately ripped
8 | (3/3) Accurately ripped
9 | (3/3) Accurately ripped
10 | (3/3) Accurately ripped
11 | (3/3) Accurately ripped
12 | (3/3) Accurately ripped
13 | (3/3) Accurately ripped
14 | (3/3) Accurately ripped
15 | (3/3) Accurately ripped
16 | (3/3) Accurately ripped
17 | (3/3) Accurately ripped
18 | (3/3) Accurately ripped
19 | (3/3) Accurately ripped


==== Контрольная сумма отчёта CAE52B0B9C73FBE245DB7FEE2D66D54D23978909BBC55C1BDB1DDEE3647F4457 ====

foobar2000 1.2 / Dynamic Range Meter 1.1.1
log date: 2017-07-07 22:32:00

––––––––––––––––––––––––––––––––––––––––
Statistics for: 04-Dreaming
Number of samples: 8156736
Duration: 3:05
––––––––––––––––––––––––––––––––––––––––

Left Right

Peak Value: 0.00 dB –- 0.00 dB
Avg RMS: -13.61 dB –- -14.05 dB
DR channel: 11.68 dB –- 12.32 dB
––––––––––––––––––––––––––––––––––––––––

Official DR Value: DR12

Samplerate: 44100 Hz
Channels: 2
Bits per sample: 16
Bitrate: 944 kbps
Codec: FLAC
================================================================================
––––––––––––––––––––––––––––––––––––––––
Analyzed: Bryan Ferry / 111 Original Hits - 70s (SD3 699 1722) (1)
Buzzcocks / 111 Original Hits - 70s (SD3 699 1722) (2)
CCS / 111 Original Hits - 70s (SD3 699 1722) (3)
––––––––––––––––––––––––––––––––––––––––

DR Peak RMS Duration Track
––––––––––––––––––––––––––––––––––––––––
DR10 -2.11 dB -13.49 dB 2:58 01-Let’s Stick Together
DR10 -1.00 dB -11.74 dB 2:41 05-Ever Fallen in Love (with Someone You Shouldn’t’ve)?
DR12 0.00 dB -15.10 dB 3:34 16-Whole Lotta Love
––––––––––––––––––––––––––––––––––––––––

Number of tracks: 3
Official DR value: DR10

Samplerate: 44100 Hz
Channels: 2
Bits per sample: 16
Bitrate: 944 kbps
Codec: FLAC
================================================================================

––––––––––––––––––––––––––––––––––––––––
Statistics for: 15-Down at the Doctor’s
Number of samples: 8459556
Duration: 3:12
––––––––––––––––––––––––––––––––––––––––

Left Right

Peak Value: -2.00 dB –- -2.00 dB
Avg RMS: -10.30 dB –- -10.66 dB
DR channel: 6.76 dB –- 6.86 dB
––––––––––––––––––––––––––––––––––––––––

Official DR Value: DR7

Samplerate: 44100 Hz
Channels: 2
Bits per sample: 16
Bitrate: 944 kbps
Codec: FLAC
================================================================================
––––––––––––––––––––––––––––––––––––––––
Analyzed: Generation X / 111 Original Hits - 70s (SD3 699 1722) (1)
Hawkwind / 111 Original Hits - 70s (SD3 699 1722) (2)
––––––––––––––––––––––––––––––––––––––––

DR Peak RMS Duration Track
––––––––––––––––––––––––––––––––––––––––
DR7 -2.18 dB -10.80 dB 2:17 09-King Rocker
DR11 -0.01 dB -13.37 dB 4:38 19-Silver Machine (original single version) (live at the Roundhouse London)
––––––––––––––––––––––––––––––––––––––––

Number of tracks: 2
Official DR value: DR9

Samplerate: 44100 Hz
Channels: 2
Bits per sample: 16
Bitrate: 944 kbps
Codec: FLAC
================================================================================

––––––––––––––––––––––––––––––––––––––––
Statistics for: 11-Public Image
Number of samples: 7761012
Duration: 2:56
––––––––––––––––––––––––––––––––––––––––

Left Right

Peak Value: -2.47 dB –- -2.56 dB
Avg RMS: -10.13 dB –- -10.82 dB
DR channel: 6.98 dB –- 7.63 dB
––––––––––––––––––––––––––––––––––––––––

Official DR Value: DR7

Samplerate: 44100 Hz
Channels: 2
Bits per sample: 16
Bitrate: 944 kbps
Codec: FLAC
================================================================================
––––––––––––––––––––––––––––––––––––––––
Statistics for: 10-Rich Kids
Number of samples: 7806876
Duration: 2:57
––––––––––––––––––––––––––––––––––––––––

Left Right

Peak Value: -1.05 dB –- 0.00 dB
Avg RMS: -13.42 dB –- -12.65 dB
DR channel: 11.24 dB –- 11.28 dB
––––––––––––––––––––––––––––––––––––––––

Official DR Value: DR11

Samplerate: 44100 Hz
Channels: 2
Bits per sample: 16
Bitrate: 944 kbps
Codec: FLAC
================================================================================
––––––––––––––––––––––––––––––––––––––––
Analyzed: Simple Minds / 111 Original Hits - 70s (SD3 699 1722) (1)
The Flying Lizards / 111 Original Hits - 70s (SD3 699 1722) (2)
––––––––––––––––––––––––––––––––––––––––

DR Peak RMS Duration Track
––––––––––––––––––––––––––––––––––––––––
DR11 -1.10 dB -14.05 dB 4:05 02-Life in a Day
DR10 -1.00 dB -12.78 dB 2:30 13-Money (edit)
––––––––––––––––––––––––––––––––––––––––

Number of tracks: 2
Official DR value: DR11

Samplerate: 44100 Hz
Channels: 2
Bits per sample: 16
Bitrate: 944 kbps
Codec: FLAC
================================================================================

––––––––––––––––––––––––––––––––––––––––
Analyzed: The Knack / 111 Original Hits - 70s (SD3 699 1722) (1)
The Members / 111 Original Hits - 70s (SD3 699 1722) (2)
The Ruts / 111 Original Hits - 70s (SD3 699 1722) (3)
––––––––––––––––––––––––––––––––––––––––

DR Peak RMS Duration Track
––––––––––––––––––––––––––––––––––––––––
DR10 -2.10 dB -13.74 dB 4:00 03-My Sharona
DR8 -2.50 dB -11.62 dB 3:53 06-Sound of the Suburbs
DR7 -3.59 dB -11.97 dB 2:35 08-Babylon’s Burning
––––––––––––––––––––––––––––––––––––––––

Number of tracks: 3
Official DR value: DR8

Samplerate: 44100 Hz
Channels: 2
Bits per sample: 16
Bitrate: 944 kbps
Codec: FLAC
================================================================================

––––––––––––––––––––––––––––––––––––––––
Analyzed: The Skids / 111 Original Hits - 70s (SD3 699 1722) (1)
The Stranglers / 111 Original Hits - 70s (SD3 699 1722) (2)
UFO / 111 Original Hits - 70s (SD3 699 1722) (3)
––––––––––––––––––––––––––––––––––––––––

DR Peak RMS Duration Track
––––––––––––––––––––––––––––––––––––––––
DR9 -1.51 dB -11.61 dB 3:11 07-Into the Valley
DR13 -0.18 dB -14.39 dB 4:05 14-Peaches
DR10 -1.18 dB -11.85 dB 2:45 18-Doctor Doctor (edit)
––––––––––––––––––––––––––––––––––––––––

Number of tracks: 3
Official DR value: DR10

Samplerate: 44100 Hz
Channels: 2
Bits per sample: 16
Bitrate: 944 kbps
Codec: FLAC
================================================================================

––––––––––––––––––––––––––––––––––––––––
Statistics for: 12-Making Plans for Nigel
Number of samples: 11253732
Duration: 4:15
––––––––––––––––––––––––––––––––––––––––

Left Right

Peak Value: -2.18 dB –- -2.18 dB
Avg RMS: -12.32 dB –- -12.63 dB
DR channel: 8.87 dB –- 9.01 dB
––––––––––––––––––––––––––––––––––––––––

Official DR Value: DR9

Samplerate: 44100 Hz
Channels: 2
Bits per sample: 16
Bitrate: 944 kbps
Codec: FLAC
================================================================================
foobar2000 1.2 / Dynamic Range Meter 1.1.1
log date: 2017-07-07 22:31:58

––––––––––––––––––––––––––––––––––––––––
Statistics for: 17-Ships in the Night
Number of samples: 10915632
Duration: 4:08
––––––––––––––––––––––––––––––––––––––––

Left Right

Peak Value: -1.15 dB –- -1.15 dB
Avg RMS: -13.20 dB –- -12.50 dB
DR channel: 10.22 dB –- 9.31 dB
––––––––––––––––––––––––––––––––––––––––

Official DR Value: DR10

Samplerate: 44100 Hz
Channels: 2
Bits per sample: 16
Bitrate: 944 kbps
Codec: FLAC
================================================================================


Exact Audio Copy V1.0 beta 3 from 29. August 2011

Отчёт EAC об извлечении, выполненном 9. октября 2014, 21:30

Various Artists / 111 Original Hits - 70s (SD4 699 1722)

Дисковод: PIONEER BD-RW BDR-206 Adapter: 1 ID: 1

Режим чтения : Достоверность
Использование точного потока : Да
Отключение кэша аудио : Да
Использование указателей C2 : Нет

Коррекция смещения при чтении : 667
Способность читать области Lead-in и Lead-out : Нет
Заполнение пропущенных сэмплов тишиной : Да
Удаление блоков с тишиной в начале и конце : Нет
При вычислениях CRC использовались нулевые сэмплы : Да
Интерфейс : Установленный внешний ASPI-интерфейс

Выходной формат : Пользовательский кодировщик
Выбранный битрейт : 1024 kBit/s
Качество : Высокий
Добавление ID3-тега : Нет
Утилита сжатия : C:\Program Files (x86)\Exact Audio Copy\FLAC\FLAC.EXE
Дополнительные параметры : -T "COMMENT=Ripped by SergeyJD"-8 -V -T "ARTIST=%artist%" -T "TITLE=%title%" -T "ALBUM=%albumtitle%" -T "DATE=%year%" -T "TRACKNUMBER=%tracknr%" -T "GENRE=%genre%" -T "COMMENT=%comment%" -T "BAND=%albuminterpret%" -T "ALBUMARTIST=%albuminterpret%" -T "COMPOSER=%composer%" %haslyrics%–tag-from-file=LYRICS="%lyricsfile%"%haslyrics% -T "DISCNUMBER=%cdnumber%" -T "TOTALDISCS=%totalcds%" -T "TOTALTRACKS=%numtracks%" %hascover%–picture="%coverfile%"%hascover% %source% -o %dest%


TOC извлечённого CD

Трек | Старт | Длительность | Начальный сектор | Конечный сектор
––––––––––––––––––––––––––––––––––-
1 | 0:00.00 | 4:58.21 | 0 | 22370
2 | 4:58.21 | 3:47.08 | 22371 | 39403
3 | 8:45.29 | 3:29.53 | 39404 | 55131
4 | 12:15.07 | 3:10.55 | 55132 | 69436
5 | 15:25.62 | 3:32.67 | 69437 | 85403
6 | 18:58.54 | 5:27.62 | 85404 | 109990
7 | 24:26.41 | 3:36.06 | 109991 | 126196
8 | 28:02.47 | 2:46.35 | 126197 | 138681
9 | 30:49.07 | 2:46.61 | 138682 | 151192
10 | 33:35.68 | 3:27.39 | 151193 | 166756
11 | 37:03.32 | 3:41.61 | 166757 | 183392
12 | 40:45.18 | 3:40.03 | 183393 | 199895
13 | 44:25.21 | 3:42.18 | 199896 | 216563
14 | 48:07.39 | 6:20.69 | 216564 | 245132
15 | 54:28.33 | 2:55.28 | 245133 | 258285
16 | 57:23.61 | 2:40.58 | 258286 | 270343
17 | 60:04.44 | 3:15.28 | 270344 | 284996
18 | 63:19.72 | 3:55.46 | 284997 | 302667


Характеристики диапазона извлечения и сообщения об ошибках

Выбранный диапазон

Имя файла D:\РАЗДАЧИ!!!!\Various Artists - 70's (111 Original Hits, 6CD, 699 1722) - 2009\Disc 4\Various Artists - 111 Original Hits - 70s (SD4 699 1722).wav

Пиковый уровень 100.0 %
Скорость извлечения 7.5 X
Качество диапазона 100.0 %
CRC теста 38F5C736
CRC копии 38F5C736
Копирование… OK

Ошибок не произошло


AccurateRip: сводка

Трек 1 : извлечено точно (доверие 2) [1222A3E0] (AR v2)
Трек 2 : извлечено точно (доверие 2) [94AE54DA] (AR v2)
Трек 3 : извлечено точно (доверие 2) [E3013075] (AR v2)
Трек 4 : извлечено точно (доверие 2) [DBAF4F4A] (AR v2)
Трек 5 : извлечено точно (доверие 2) [F8BCE482] (AR v2)
Трек 6 : извлечено точно (доверие 2) [A70C85FC] (AR v2)
Трек 7 : извлечено точно (доверие 2) [BB5C8D19] (AR v2)
Трек 8 : извлечено точно (доверие 2) [451C3056] (AR v2)
Трек 9 : извлечено точно (доверие 2) [D1F7D0E3] (AR v2)
Трек 10 : извлечено точно (доверие 2) [93D6CAEF] (AR v2)
Трек 11 : извлечено точно (доверие 2) [8D4A39BF] (AR v2)
Трек 12 : извлечено точно (доверие 2) [1DDA2B44] (AR v2)
Трек 13 : извлечено точно (доверие 2) [BD51CA20] (AR v2)
Трек 14 : извлечено точно (доверие 2) [3CE90014] (AR v2)
Трек 15 : извлечено точно (доверие 2) [F283FF47] (AR v2)
Трек 16 : извлечено точно (доверие 2) [69D34844] (AR v2)
Трек 17 : извлечено точно (доверие 2) [3E17FA06] (AR v2)
Трек 18 : извлечено точно (доверие 2) [7DB29B03] (AR v2)

Все треки извлечены точно

Конец отчёта

–– CUETools DB Plugin V2.1.4

[CTDB TOCID: xtgyEO38oMooGzLRJuQ1x2CPJ_w-] found
Submit result: xtgyEO38oMooGzLRJuQ1x2CPJ_w- has been confirmed
Track | CTDB Status
1 | (4/4) Accurately ripped
2 | (4/4) Accurately ripped
3 | (4/4) Accurately ripped
4 | (4/4) Accurately ripped
5 | (4/4) Accurately ripped
6 | (4/4) Accurately ripped
7 | (4/4) Accurately ripped
8 | (4/4) Accurately ripped
9 | (4/4) Accurately ripped
10 | (4/4) Accurately ripped
11 | (4/4) Accurately ripped
12 | (4/4) Accurately ripped
13 | (4/4) Accurately ripped
14 | (4/4) Accurately ripped
15 | (4/4) Accurately ripped
16 | (4/4) Accurately ripped
17 | (4/4) Accurately ripped
18 | (4/4) Accurately ripped


==== Контрольная сумма отчёта C0E1ED0930D0546E25F65003F4A75FFCFAF58CF834FA6CC63091546E1A615F70 ====

foobar2000 1.2 / Dynamic Range Meter 1.1.1
log date: 2017-07-07 22:32:29

––––––––––––––––––––––––––––––––––––––––
Analyzed: Canned Heat / 111 Original Hits - 70s (SD4 699 1722) (1)
CCS / 111 Original Hits - 70s (SD4 699 1722) (2)
––––––––––––––––––––––––––––––––––––––––

DR Peak RMS Duration Track
––––––––––––––––––––––––––––––––––––––––
DR10 -1.18 dB -12.05 dB 2:46 08-Let’s Work Together
DR11 -0.68 dB -14.59 dB 3:42 11-Tap Turns on the Water
––––––––––––––––––––––––––––––––––––––––

Number of tracks: 2
Official DR value: DR10

Samplerate: 44100 Hz
Channels: 2
Bits per sample: 16
Bitrate: 858 kbps
Codec: FLAC
================================================================================

––––––––––––––––––––––––––––––––––––––––
Analyzed: Cozy Powell / 111 Original Hits - 70s (SD4 699 1722) (1)
Dave Edmunds / 111 Original Hits - 70s (SD4 699 1722) (2)
––––––––––––––––––––––––––––––––––––––––

DR Peak RMS Duration Track
––––––––––––––––––––––––––––––––––––––––
DR14 -0.18 dB -16.01 dB 3:33 05-Dance With the Devil
DR13 -0.16 dB -15.27 dB 2:47 09-I Hear You Knocking
––––––––––––––––––––––––––––––––––––––––

Number of tracks: 2
Official DR value: DR13

Samplerate: 44100 Hz
Channels: 2
Bits per sample: 16
Bitrate: 858 kbps
Codec: FLAC
================================================================================

––––––––––––––––––––––––––––––––––––––––
Analyzed: Electric Light Orchestra / 111 Original Hits - 70s (SD4 699 1722) (1)
Hot Chocolate / 111 Original Hits - 70s (SD4 699 1722) (2)
––––––––––––––––––––––––––––––––––––––––

DR Peak RMS Duration Track
––––––––––––––––––––––––––––––––––––––––
DR10 0.00 dB -13.62 dB 5:28 06-10538 Overture
DR11 -0.27 dB -13.13 dB 3:56 18-Every 1’s a Winner
––––––––––––––––––––––––––––––––––––––––

Number of tracks: 2
Official DR value: DR11

Samplerate: 44100 Hz
Channels: 2
Bits per sample: 16
Bitrate: 858 kbps
Codec: FLAC
================================================================================

––––––––––––––––––––––––––––––––––––––––
Statistics for: 12-Spanish Stroll
Number of samples: 9703764
Duration: 3:40
––––––––––––––––––––––––––––––––––––––––

Left Right

Peak Value: 0.00 dB –- -0.07 dB
Avg RMS: -17.88 dB –- -18.43 dB
DR channel: 15.87 dB –- 15.48 dB
––––––––––––––––––––––––––––––––––––––––

Official DR Value: DR16

Samplerate: 44100 Hz
Channels: 2
Bits per sample: 16
Bitrate: 858 kbps
Codec: FLAC
================================================================================
––––––––––––––––––––––––––––––––––––––––
Analyzed: Mud / 111 Original Hits - 70s (SD4 699 1722) (1)
Norman “Hurricane” Smith / 111 Original Hits - 70s (SD4 699 1722) (2)
––––––––––––––––––––––––––––––––––––––––

DR Peak RMS Duration Track
––––––––––––––––––––––––––––––––––––––––
DR10 -2.14 dB -13.97 dB 3:11 04-Crazy
DR8 -2.65 dB -12.55 dB 3:28 10-Oh Babe, What Would You Say?
––––––––––––––––––––––––––––––––––––––––

Number of tracks: 2
Official DR value: DR9

Samplerate: 44100 Hz
Channels: 2
Bits per sample: 16
Bitrate: 858 kbps
Codec: FLAC
================================================================================

––––––––––––––––––––––––––––––––––––––––
Analyzed: Pilot / 111 Original Hits - 70s (SD4 699 1722) (1)
Steve Harley & Cockney Rebel / 111 Original Hits - 70s (SD4 699 1722) (2)
––––––––––––––––––––––––––––––––––––––––

DR Peak RMS Duration Track
––––––––––––––––––––––––––––––––––––––––
DR12 0.00 dB -14.28 dB 3:30 03-January
DR12 -0.47 dB -14.54 dB 3:42 13-Judy Teen
––––––––––––––––––––––––––––––––––––––––

Number of tracks: 2
Official DR value: DR12

Samplerate: 44100 Hz
Channels: 2
Bits per sample: 16
Bitrate: 858 kbps
Codec: FLAC
================================================================================

––––––––––––––––––––––––––––––––––––––––
Analyzed: Suzi Quatro / 111 Original Hits - 70s (SD4 699 1722) (1)
Tavares / 111 Original Hits - 70s (SD4 699 1722) (2)
––––––––––––––––––––––––––––––––––––––––

DR Peak RMS Duration Track
––––––––––––––––––––––––––––––––––––––––
DR11 -1.38 dB -14.44 dB 3:47 02-Devil Gate Drive
DR12 -0.80 dB -14.21 dB 3:15 17-More Than a Woman
––––––––––––––––––––––––––––––––––––––––

Number of tracks: 2
Official DR value: DR11

Samplerate: 44100 Hz
Channels: 2
Bits per sample: 16
Bitrate: 858 kbps
Codec: FLAC
================================================================================

––––––––––––––––––––––––––––––––––––––––
Statistics for: 16-The Tears of a Clown
Number of samples: 7090104
Duration: 2:41
––––––––––––––––––––––––––––––––––––––––

Left Right

Peak Value: -2.82 dB –- -2.82 dB
Avg RMS: -13.03 dB –- -13.25 dB
DR channel: 9.26 dB –- 9.53 dB
––––––––––––––––––––––––––––––––––––––––

Official DR Value: DR9

Samplerate: 44100 Hz
Channels: 2
Bits per sample: 16
Bitrate: 858 kbps
Codec: FLAC
================================================================================
––––––––––––––––––––––––––––––––––––––––
Analyzed: The Move / 111 Original Hits - 70s (SD4 699 1722) (1)
The Specials / 111 Original Hits - 70s (SD4 699 1722) (2)
––––––––––––––––––––––––––––––––––––––––

DR Peak RMS Duration Track
––––––––––––––––––––––––––––––––––––––––
DR10 -1.18 dB -12.70 dB 3:36 07-California Man
DR15 -0.10 dB -16.80 dB 2:55 15-A Message to You Rudy
––––––––––––––––––––––––––––––––––––––––

Number of tracks: 2
Official DR value: DR12

Samplerate: 44100 Hz
Channels: 2
Bits per sample: 16
Bitrate: 858 kbps
Codec: FLAC
================================================================================

––––––––––––––––––––––––––––––––––––––––
Statistics for: 14-Walk on By
Number of samples: 16798572
Duration: 6:21
––––––––––––––––––––––––––––––––––––––––

Left Right

Peak Value: -2.00 dB –- -2.00 dB
Avg RMS: -11.72 dB –- -11.86 dB
DR channel: 8.38 dB –- 8.25 dB
––––––––––––––––––––––––––––––––––––––––

Official DR Value: DR8

Samplerate: 44100 Hz
Channels: 2
Bits per sample: 16
Bitrate: 858 kbps
Codec: FLAC
================================================================================
––––––––––––––––––––––––––––––––––––––––
Statistics for: 01-See My Baby Jive
Number of samples: 13154148
Duration: 4:58
––––––––––––––––––––––––––––––––––––––––

Left Right

Peak Value: 0.00 dB –- -0.43 dB
Avg RMS: -12.10 dB –- -12.14 dB
DR channel: 11.12 dB –- 10.32 dB
––––––––––––––––––––––––––––––––––––––––

Official DR Value: DR11

Samplerate: 44100 Hz
Channels: 2
Bits per sample: 16
Bitrate: 858 kbps
Codec: FLAC
================================================================================


Exact Audio Copy V1.0 beta 3 from 29. August 2011

Отчёт EAC об извлечении, выполненном 9. октября 2014, 21:51

Various Artists / 111 Original Hits - 70s (SD5 699 1722)

Дисковод: PIONEER BD-RW BDR-206 Adapter: 1 ID: 1

Режим чтения : Достоверность
Использование точного потока : Да
Отключение кэша аудио : Да
Использование указателей C2 : Нет

Коррекция смещения при чтении : 667
Способность читать области Lead-in и Lead-out : Нет
Заполнение пропущенных сэмплов тишиной : Да
Удаление блоков с тишиной в начале и конце : Нет
При вычислениях CRC использовались нулевые сэмплы : Да
Интерфейс : Установленный внешний ASPI-интерфейс

Выходной формат : Пользовательский кодировщик
Выбранный битрейт : 1024 kBit/s
Качество : Высокий
Добавление ID3-тега : Нет
Утилита сжатия : C:\Program Files (x86)\Exact Audio Copy\FLAC\FLAC.EXE
Дополнительные параметры : -T "COMMENT=Ripped by SergeyJD"-8 -V -T "ARTIST=%artist%" -T "TITLE=%title%" -T "ALBUM=%albumtitle%" -T "DATE=%year%" -T "TRACKNUMBER=%tracknr%" -T "GENRE=%genre%" -T "COMMENT=%comment%" -T "BAND=%albuminterpret%" -T "ALBUMARTIST=%albuminterpret%" -T "COMPOSER=%composer%" %haslyrics%–tag-from-file=LYRICS="%lyricsfile%"%haslyrics% -T "DISCNUMBER=%cdnumber%" -T "TOTALDISCS=%totalcds%" -T "TOTALTRACKS=%numtracks%" %hascover%–picture="%coverfile%"%hascover% %source% -o %dest%


TOC извлечённого CD

Трек | Старт | Длительность | Начальный сектор | Конечный сектор
––––––––––––––––––––––––––––––––––-
1 | 0:00.00 | 4:37.73 | 0 | 20847
2 | 4:37.73 | 3:18.54 | 20848 | 35751
3 | 7:56.52 | 3:36.02 | 35752 | 51953
4 | 11:32.54 | 3:00.22 | 51954 | 65475
5 | 14:33.01 | 2:30.30 | 65476 | 76755
6 | 17:03.31 | 3:16.31 | 76756 | 91486
7 | 20:19.62 | 2:33.36 | 91487 | 102997
8 | 22:53.23 | 3:38.62 | 102998 | 119409
9 | 26:32.10 | 2:42.21 | 119410 | 131580
10 | 29:14.31 | 3:15.58 | 131581 | 146263
11 | 32:30.14 | 4:35.00 | 146264 | 166888
12 | 37:05.14 | 4:08.05 | 166889 | 185493
13 | 41:13.19 | 3:13.14 | 185494 | 199982
14 | 44:26.33 | 2:25.61 | 199983 | 210918
15 | 46:52.19 | 3:33.22 | 210919 | 226915
16 | 50:25.41 | 3:37.28 | 226916 | 243218
17 | 54:02.69 | 3:17.04 | 243219 | 257997
18 | 57:19.73 | 3:05.02 | 257998 | 271874
19 | 60:25.00 | 4:56.64 | 271875 | 294138


Характеристики диапазона извлечения и сообщения об ошибках

Выбранный диапазон

Имя файла D:\РАЗДАЧИ!!!!\Various Artists - 70's (111 Original Hits, 6CD, 699 1722) - 2009\Disc 5\Various Artists - 111 Original Hits - 70s (SD5 699 1722).wav

Пиковый уровень 99.9 %
Скорость извлечения 7.5 X
Качество диапазона 100.0 %
CRC теста E52F9BAD
CRC копии E52F9BAD
Копирование… OK

Ошибок не произошло


AccurateRip: сводка

Трек 1 : извлечено точно (доверие 2) [8F6D4ED4] (AR v2)
Трек 2 : извлечено точно (доверие 2) [E9E75F64] (AR v2)
Трек 3 : извлечено точно (доверие 2) [A9D01FF5] (AR v2)
Трек 4 : извлечено точно (доверие 2) [85DABD07] (AR v2)
Трек 5 : извлечено точно (доверие 2) [914A75C5] (AR v2)
Трек 6 : извлечено точно (доверие 2) [6C73BAC2] (AR v2)
Трек 7 : извлечено точно (доверие 2) [649A50C0] (AR v2)
Трек 8 : извлечено точно (доверие 2) [F02006C5] (AR v2)
Трек 9 : извлечено точно (доверие 2) [30318CA9] (AR v2)
Трек 10 : извлечено точно (доверие 2) [3CF2B622] (AR v2)
Трек 11 : извлечено точно (доверие 2) [68F3A2B6] (AR v2)
Трек 12 : извлечено точно (доверие 2) [BB8FB2A8] (AR v2)
Трек 13 : извлечено точно (доверие 2) [04DC5714] (AR v2)
Трек 14 : извлечено точно (доверие 2) [48414300] (AR v2)
Трек 15 : извлечено точно (доверие 2) [3C9A57BC] (AR v2)
Трек 16 : извлечено точно (доверие 2) [68EEB10D] (AR v2)
Трек 17 : извлечено точно (доверие 2) [1640598E] (AR v2)
Трек 18 : извлечено точно (доверие 2) [86A58A22] (AR v2)
Трек 19 : извлечено точно (доверие 2) [3C6A850D] (AR v2)

Все треки извлечены точно

Конец отчёта

–– CUETools DB Plugin V2.1.4

[CTDB TOCID: xsOglrk1AkjkBy5UkeFk2XjzasI-] found
Submit result: xsOglrk1AkjkBy5UkeFk2XjzasI- has been confirmed
Track | CTDB Status
1 | (3/3) Accurately ripped
2 | (3/3) Accurately ripped
3 | (3/3) Accurately ripped
4 | (3/3) Accurately ripped
5 | (3/3) Accurately ripped
6 | (3/3) Accurately ripped
7 | (3/3) Accurately ripped
8 | (3/3) Accurately ripped
9 | (3/3) Accurately ripped
10 | (3/3) Accurately ripped
11 | (3/3) Accurately ripped
12 | (3/3) Accurately ripped
13 | (3/3) Accurately ripped
14 | (3/3) Accurately ripped
15 | (3/3) Accurately ripped
16 | (3/3) Accurately ripped
17 | (3/3) Accurately ripped
18 | (3/3) Accurately ripped
19 | (3/3) Accurately ripped


==== Контрольная сумма отчёта 25A7353CDEF99EC9F02DDD1DF234024BA6701163BF6455319C8789B4EA3E8EFB ====

foobar2000 1.2 / Dynamic Range Meter 1.1.1
log date: 2017-07-07 22:32:58

––––––––––––––––––––––––––––––––––––––––
Statistics for: 09-What I’ve Got in Mind
Number of samples: 7156548
Duration: 2:42
––––––––––––––––––––––––––––––––––––––––

Left Right

Peak Value: -2.00 dB –- -2.00 dB
Avg RMS: -14.69 dB –- -14.33 dB
DR channel: 11.52 dB –- 11.06 dB
––––––––––––––––––––––––––––––––––––––––

Official DR Value: DR11

Samplerate: 44100 Hz
Channels: 2
Bits per sample: 16
Bitrate: 832 kbps
Codec: FLAC
================================================================================
––––––––––––––––––––––––––––––––––––––––
Analyzed: Bobby Goldsboro / 111 Original Hits - 70s (SD5 699 1722) (1)
Cilla Black / 111 Original Hits - 70s (SD5 699 1722) (2)
––––––––––––––––––––––––––––––––––––––––

DR Peak RMS Duration Track
––––––––––––––––––––––––––––––––––––––––
DR12 -1.00 dB -16.15 dB 4:38 01-Summer (The First Time)
DR12 -0.38 dB -14.15 dB 2:26 14-Something Tells Me (Something’s Gonna Happen…)
––––––––––––––––––––––––––––––––––––––––

Number of tracks: 2
Official DR value: DR12

Samplerate: 44100 Hz
Channels: 2
Bits per sample: 16
Bitrate: 832 kbps
Codec: FLAC
================================================================================

––––––––––––––––––––––––––––––––––––––––
Analyzed: Congregation / 111 Original Hits - 70s (SD5 699 1722) (1)
Crystal Gayle / 111 Original Hits - 70s (SD5 699 1722) (2)
Danny Williams / 111 Original Hits - 70s (SD5 699 1722) (3)
––––––––––––––––––––––––––––––––––––––––

DR Peak RMS Duration Track
––––––––––––––––––––––––––––––––––––––––
DR7 -2.18 dB -11.69 dB 3:00 04-Softly Whispering I Love You
DR13 -1.18 dB -16.58 dB 2:33 07-Don’t It Make My Brown Eyes Blue
DR13 -0.44 dB -15.65 dB 3:17 17-Dancing Easy
––––––––––––––––––––––––––––––––––––––––

Number of tracks: 3
Official DR value: DR11

Samplerate: 44100 Hz
Channels: 2
Bits per sample: 16
Bitrate: 832 kbps
Codec: FLAC
================================================================================

––––––––––––––––––––––––––––––––––––––––
Analyzed: David Soul / 111 Original Hits - 70s (SD5 699 1722) (1)
Dr. Hook / 111 Original Hits - 70s (SD5 699 1722) (2)
––––––––––––––––––––––––––––––––––––––––

DR Peak RMS Duration Track
––––––––––––––––––––––––––––––––––––––––
DR11 -2.02 dB -14.70 dB 3:36 03-Don’t Give Up on Us
DR8 -3.00 dB -14.47 dB 3:13 13-A Little Bit More
––––––––––––––––––––––––––––––––––––––––

Number of tracks: 2
Official DR value: DR9

Samplerate: 44100 Hz
Channels: 2
Bits per sample: 16
Bitrate: 832 kbps
Codec: FLAC
================================================================================

––––––––––––––––––––––––––––––––––––––––
Analyzed: Duncan Browne / 111 Original Hits - 70s (SD5 699 1722) (1)
Glen Campbell / 111 Original Hits - 70s (SD5 699 1722) (2)
Herman’s Hermits / 111 Original Hits - 70s (SD5 699 1722) (3)
––––––––––––––––––––––––––––––––––––––––

DR Peak RMS Duration Track
––––––––––––––––––––––––––––––––––––––––
DR11 -1.64 dB -15.29 dB 3:16 06-Journey
DR11 -0.86 dB -13.42 dB 3:16 10-Rhinestone Cowboy
DR12 -1.69 dB -14.94 dB 3:37 16-Years May Come, Years May Go
––––––––––––––––––––––––––––––––––––––––

Number of tracks: 3
Official DR value: DR11

Samplerate: 44100 Hz
Channels: 2
Bits per sample: 16
Bitrate: 832 kbps
Codec: FLAC
================================================================================

––––––––––––––––––––––––––––––––––––––––
Statistics for: 08-Lucille
Number of samples: 9650256
Duration: 3:39
––––––––––––––––––––––––––––––––––––––––

Left Right

Peak Value: -1.42 dB –- -1.74 dB
Avg RMS: -15.35 dB –- -15.34 dB
DR channel: 11.99 dB –- 11.57 dB
––––––––––––––––––––––––––––––––––––––––

Official DR Value: DR12

Samplerate: 44100 Hz
Channels: 2
Bits per sample: 16
Bitrate: 832 kbps
Codec: FLAC
================================================================================
––––––––––––––––––––––––––––––––––––––––
Analyzed: Minnie Riperton / 111 Original Hits - 70s (SD5 699 1722) (1)
Paul Anka, Odia Coates / 111 Original Hits - 70s (SD5 699 1722) (2)
Peter Noone / 111 Original Hits - 70s (SD5 699 1722) (3)
––––––––––––––––––––––––––––––––––––––––

DR Peak RMS Duration Track
––––––––––––––––––––––––––––––––––––––––
DR11 -1.28 dB -15.72 dB 3:19 02-Lovin’ You
DR11 -1.00 dB -14.06 dB 2:30 05-(You’re) Having My Baby
DR14 0.00 dB -15.19 dB 3:05 18-Oh You Pretty Things
––––––––––––––––––––––––––––––––––––––––

Number of tracks: 3
Official DR value: DR12

Samplerate: 44100 Hz
Channels: 2
Bits per sample: 16
Bitrate: 832 kbps
Codec: FLAC
================================================================================

––––––––––––––––––––––––––––––––––––––––
Analyzed: Pussycat / 111 Original Hits - 70s (SD5 699 1722) (1)
Shirley Bassey / 111 Original Hits - 70s (SD5 699 1722) (2)
––––––––––––––––––––––––––––––––––––––––

DR Peak RMS Duration Track
––––––––––––––––––––––––––––––––––––––––
DR11 -1.00 dB -15.05 dB 4:35 11-Mississippi
DR10 -1.93 dB -14.82 dB 3:33 15-Something
––––––––––––––––––––––––––––––––––––––––

Number of tracks: 2
Official DR value: DR11

Samplerate: 44100 Hz
Channels: 2
Bits per sample: 16
Bitrate: 832 kbps
Codec: FLAC
================================================================================

––––––––––––––––––––––––––––––––––––––––
Statistics for: 12-All Around My Hat
Number of samples: 10939740
Duration: 4:08
––––––––––––––––––––––––––––––––––––––––

Left Right

Peak Value: -0.05 dB –- -0.05 dB
Avg RMS: -14.29 dB –- -14.18 dB
DR channel: 11.78 dB –- 11.76 dB
––––––––––––––––––––––––––––––––––––––––

Official DR Value: DR12

Samplerate: 44100 Hz
Channels: 2
Bits per sample: 16
Bitrate: 832 kbps
Codec: FLAC
================================================================================
foobar2000 1.2 / Dynamic Range Meter 1.1.1
log date: 2017-07-07 22:32:57

––––––––––––––––––––––––––––––––––––––––
Statistics for: 19-Year of the Cat (edit)
Number of samples: 13091232
Duration: 4:57
––––––––––––––––––––––––––––––––––––––––

Left Right

Peak Value: -1.48 dB –- -1.48 dB
Avg RMS: -16.40 dB –- -15.84 dB
DR channel: 11.74 dB –- 10.40 dB
––––––––––––––––––––––––––––––––––––––––

Official DR Value: DR11

Samplerate: 44100 Hz
Channels: 2
Bits per sample: 16
Bitrate: 832 kbps
Codec: FLAC
================================================================================


Exact Audio Copy V1.0 beta 3 from 29. August 2011

Отчёт EAC об извлечении, выполненном 10. октября 2014, 1:11

Various Artists / 111 Original Hits - 70s (SD6 699 1722)

Дисковод: PIONEER BD-RW BDR-206 Adapter: 1 ID: 1

Режим чтения : Достоверность
Использование точного потока : Да
Отключение кэша аудио : Да
Использование указателей C2 : Нет

Коррекция смещения при чтении : 667
Способность читать области Lead-in и Lead-out : Нет
Заполнение пропущенных сэмплов тишиной : Да
Удаление блоков с тишиной в начале и конце : Нет
При вычислениях CRC использовались нулевые сэмплы : Да
Интерфейс : Установленный внешний ASPI-интерфейс

Выходной формат : Пользовательский кодировщик
Выбранный битрейт : 1024 kBit/s
Качество : Высокий
Добавление ID3-тега : Нет
Утилита сжатия : C:\Program Files (x86)\Exact Audio Copy\FLAC\FLAC.EXE
Дополнительные параметры : -T "COMMENT=Ripped by SergeyJD"-8 -V -T "ARTIST=%artist%" -T "TITLE=%title%" -T "ALBUM=%albumtitle%" -T "DATE=%year%" -T "TRACKNUMBER=%tracknr%" -T "GENRE=%genre%" -T "COMMENT=%comment%" -T "BAND=%albuminterpret%" -T "ALBUMARTIST=%albuminterpret%" -T "COMPOSER=%composer%" %haslyrics%–tag-from-file=LYRICS="%lyricsfile%"%haslyrics% -T "DISCNUMBER=%cdnumber%" -T "TOTALDISCS=%totalcds%" -T "TOTALTRACKS=%numtracks%" %hascover%–picture="%coverfile%"%hascover% %source% -o %dest%


TOC извлечённого CD

Трек | Старт | Длительность | Начальный сектор | Конечный сектор
––––––––––––––––––––––––––––––––––-
1 | 0:00.00 | 3:10.50 | 0 | 14299
2 | 3:10.50 | 3:18.07 | 14300 | 29156
3 | 6:28.57 | 3:45.71 | 29157 | 46102
4 | 10:14.53 | 3:53.23 | 46103 | 63600
5 | 14:08.01 | 4:18.46 | 63601 | 82996
6 | 18:26.47 | 2:58.12 | 82997 | 96358
7 | 21:24.59 | 4:31.68 | 96359 | 116751
8 | 25:56.52 | 3:17.58 | 116752 | 131584
9 | 29:14.35 | 3:39.03 | 131585 | 148012
10 | 32:53.38 | 2:48.10 | 148013 | 160622
11 | 35:41.48 | 2:35.39 | 160623 | 172286
12 | 38:17.12 | 2:55.52 | 172287 | 185463
13 | 41:12.64 | 2:47.04 | 185464 | 197992
14 | 43:59.68 | 2:34.25 | 197993 | 209567
15 | 46:34.18 | 3:02.69 | 209568 | 223286
16 | 49:37.12 | 3:37.24 | 223287 | 239585
17 | 53:14.36 | 3:52.08 | 239586 | 256993
18 | 57:06.44 | 3:53.04 | 256994 | 274472


Характеристики диапазона извлечения и сообщения об ошибках

Выбранный диапазон

Имя файла D:\РАЗДАЧИ!!!!\Various Artists - 70's (111 Original Hits, 6CD, 699 1722) - 2009\Disc 6\Various Artists - 111 Original Hits - 70s (SD6 699 1722).wav

Пиковый уровень 100.0 %
Скорость извлечения 1.8 X
Качество диапазона 99.9 %
CRC теста 7CE3BA43
CRC копии 7CE3BA43
Копирование… OK

Ошибок не произошло


AccurateRip: сводка

Трек 1 : извлечено точно (доверие 2) [BF79AA7D] (AR v2)
Трек 2 : извлечено точно (доверие 2) [37009A12] (AR v2)
Трек 3 : извлечено точно (доверие 2) [C1107563] (AR v2)
Трек 4 : извлечено точно (доверие 2) [88246254] (AR v2)
Трек 5 : извлечено точно (доверие 2) [A24F4B2F] (AR v2)
Трек 6 : извлечено точно (доверие 2) [D40FE287] (AR v2)
Трек 7 : извлечено точно (доверие 2) [C96CBF3F] (AR v2)
Трек 8 : извлечено точно (доверие 2) [92958012] (AR v2)
Трек 9 : извлечено точно (доверие 2) [D292A446] (AR v2)
Трек 10 : извлечено точно (доверие 2) [88CFA3B7] (AR v2)
Трек 11 : извлечено точно (доверие 2) [5F3CBDF6] (AR v2)
Трек 12 : извлечено точно (доверие 2) [94ABF0CB] (AR v2)
Трек 13 : извлечено точно (доверие 2) [EF842C3A] (AR v2)
Трек 14 : извлечено точно (доверие 2) [2995D81D] (AR v2)
Трек 15 : извлечено точно (доверие 2) [D222044B] (AR v2)
Трек 16 : извлечено точно (доверие 2) [B556989E] (AR v2)
Трек 17 : извлечено точно (доверие 2) [A382A152] (AR v2)
Трек 18 : извлечено точно (доверие 2) [E66F305E] (AR v2)

Все треки извлечены точно

Конец отчёта

–– CUETools DB Plugin V2.1.4

[CTDB TOCID: zeMVOs_IpwVFoGkukH4hiAHDN4g-] found
Submit result: already submitted
Track | CTDB Status
1 | (4/4) Accurately ripped
2 | (4/4) Accurately ripped
3 | (4/4) Accurately ripped
4 | (4/4) Accurately ripped
5 | (4/4) Accurately ripped
6 | (4/4) Accurately ripped
7 | (4/4) Accurately ripped
8 | (4/4) Accurately ripped
9 | (4/4) Accurately ripped
10 | (4/4) Accurately ripped
11 | (4/4) Accurately ripped
12 | (4/4) Accurately ripped
13 | (4/4) Accurately ripped
14 | (4/4) Accurately ripped
15 | (4/4) Accurately ripped
16 | (4/4) Accurately ripped
17 | (4/4) Accurately ripped
18 | (4/4) Accurately ripped


==== Контрольная сумма отчёта 144438249AF7362FB33ACD99C096CDE98C5860E7AFC111D06CFC6249476C6C02 ====

foobar2000 1.2 / Dynamic Range Meter 1.1.1
log date: 2017-07-07 22:33:28

––––––––––––––––––––––––––––––––––––––––
Analyzed: Buzzcocks / 111 Original Hits - 70s (SD6 699 1722) (1)
Chas 'n' Dave / 111 Original Hits - 70s (SD6 699 1722) (2)
––––––––––––––––––––––––––––––––––––––––

DR Peak RMS Duration Track
––––––––––––––––––––––––––––––––––––––––
DR8 -2.00 dB -10.39 dB 2:36 11-Promises
DR9 -4.12 dB -14.37 dB 3:53 18-Gertcha
––––––––––––––––––––––––––––––––––––––––

Number of tracks: 2
Official DR value: DR8

Samplerate: 44100 Hz
Channels: 2
Bits per sample: 16
Bitrate: 907 kbps
Codec: FLAC
================================================================================

––––––––––––––––––––––––––––––––––––––––
Statistics for: 10-Milk and Alcohol
Number of samples: 7414680
Duration: 2:48
––––––––––––––––––––––––––––––––––––––––

Left Right

Peak Value: -0.01 dB –- -1.09 dB
Avg RMS: -13.10 dB –- -14.77 dB
DR channel: 11.86 dB –- 11.52 dB
––––––––––––––––––––––––––––––––––––––––

Official DR Value: DR12

Samplerate: 44100 Hz
Channels: 2
Bits per sample: 16
Bitrate: 907 kbps
Codec: FLAC
================================================================================
––––––––––––––––––––––––––––––––––––––––
Statistics for: 07-Roll Over Beethoven (single version)
Number of samples: 11991084
Duration: 4:32
––––––––––––––––––––––––––––––––––––––––

Left Right

Peak Value: 0.00 dB –- -0.35 dB
Avg RMS: -12.89 dB –- -13.03 dB
DR channel: 11.16 dB –- 10.92 dB
––––––––––––––––––––––––––––––––––––––––

Official DR Value: DR11

Samplerate: 44100 Hz
Channels: 2
Bits per sample: 16
Bitrate: 907 kbps
Codec: FLAC
================================================================================
––––––––––––––––––––––––––––––––––––––––
Statistics for: 02-Rock Your Baby
Number of samples: 8735916
Duration: 3:18
––––––––––––––––––––––––––––––––––––––––

Left Right

Peak Value: -3.00 dB –- -3.00 dB
Avg RMS: -15.20 dB –- -15.93 dB
DR channel: 11.06 dB –- 11.60 dB
––––––––––––––––––––––––––––––––––––––––

Official DR Value: DR11

Samplerate: 44100 Hz
Channels: 2
Bits per sample: 16
Bitrate: 907 kbps
Codec: FLAC
================================================================================
––––––––––––––––––––––––––––––––––––––––
Analyzed: Hot Chocolate / 111 Original Hits - 70s (SD6 699 1722) (1)
Marshall Hain / 111 Original Hits - 70s (SD6 699 1722) (2)
Mr. Big / 111 Original Hits - 70s (SD6 699 1722) (3)
Ray Stevens / 111 Original Hits - 70s (SD6 699 1722) (4)
––––––––––––––––––––––––––––––––––––––––

DR Peak RMS Duration Track
––––––––––––––––––––––––––––––––––––––––
DR8 -2.17 dB -11.62 dB 3:11 01-Disco Queen
DR14 -0.02 dB -16.63 dB 3:46 03-Dancing in the City
DR11 -1.60 dB -15.41 dB 2:34 14-Romeo
DR8 -2.00 dB -12.65 dB 3:37 16-Bridget the Midget (The Queen of the Blues)
––––––––––––––––––––––––––––––––––––––––

Number of tracks: 4
Official DR value: DR10

Samplerate: 44100 Hz
Channels: 2
Bits per sample: 16
Bitrate: 907 kbps
Codec: FLAC
================================================================================

––––––––––––––––––––––––––––––––––––––––
Statistics for: 06-Virginia Plain
Number of samples: 7856856
Duration: 2:58
––––––––––––––––––––––––––––––––––––––––

Left Right

Peak Value: -3.17 dB –- -3.17 dB
Avg RMS: -13.04 dB –- -13.14 dB
DR channel: 7.23 dB –- 7.63 dB
––––––––––––––––––––––––––––––––––––––––

Official DR Value: DR7

Samplerate: 44100 Hz
Channels: 2
Bits per sample: 16
Bitrate: 907 kbps
Codec: FLAC
================================================================================
––––––––––––––––––––––––––––––––––––––––
Statistics for: 05-Forever
Number of samples: 11404848
Duration: 4:19
––––––––––––––––––––––––––––––––––––––––

Left Right

Peak Value: -0.17 dB –- -0.46 dB
Avg RMS: -13.13 dB –- -14.31 dB
DR channel: 11.29 dB –- 11.33 dB
––––––––––––––––––––––––––––––––––––––––

Official DR Value: DR11

Samplerate: 44100 Hz
Channels: 2
Bits per sample: 16
Bitrate: 907 kbps
Codec: FLAC
================================================================================
––––––––––––––––––––––––––––––––––––––––
Analyzed: Steve Harley & Cockney Rebel / 111 Original Hits - 70s (SD6 699 1722) (1)
The Move / 111 Original Hits - 70s (SD6 699 1722) (2)
The Special A.K.A. / 111 Original Hits - 70s (SD6 699 1722) (3)
––––––––––––––––––––––––––––––––––––––––

DR Peak RMS Duration Track
––––––––––––––––––––––––––––––––––––––––
DR12 -0.18 dB -14.11 dB 3:53 04-Make Me Smile (Come Up and See Me)
DR9 -3.18 dB -13.59 dB 3:18 08-Tonight
DR11 -2.00 dB -13.83 dB 2:47 13-Gangsters
––––––––––––––––––––––––––––––––––––––––

Number of tracks: 3
Official DR value: DR11

Samplerate: 44100 Hz
Channels: 2
Bits per sample: 16
Bitrate: 907 kbps
Codec: FLAC
================================================================================

––––––––––––––––––––––––––––––––––––––––
Analyzed: The Stranglers / 111 Original Hits - 70s (SD6 699 1722) (1)
The Wurzels / 111 Original Hits - 70s (SD6 699 1722) (2)
––––––––––––––––––––––––––––––––––––––––

DR Peak RMS Duration Track
––––––––––––––––––––––––––––––––––––––––
DR11 -2.18 dB -14.06 dB 2:56 12-No More Heroes (radio edit)
DR13 -0.04 dB -15.66 dB 3:03 15-The Combine Harvester (Brand New Key)
––––––––––––––––––––––––––––––––––––––––

Number of tracks: 2
Official DR value: DR12

Samplerate: 44100 Hz
Channels: 2
Bits per sample: 16
Bitrate: 907 kbps
Codec: FLAC
================================================================================

––––––––––––––––––––––––––––––––––––––––
Statistics for: 09-Ball Park Incident
Number of samples: 9659664
Duration: 3:39
––––––––––––––––––––––––––––––––––––––––

Left Right

Peak Value: -0.36 dB –- 0.00 dB
Avg RMS: -14.11 dB –- -13.33 dB
DR channel: 12.10 dB –- 11.87 dB
––––––––––––––––––––––––––––––––––––––––

Official DR Value: DR12

Samplerate: 44100 Hz
Channels: 2
Bits per sample: 16
Bitrate: 907 kbps
Codec: FLAC
================================================================================
foobar2000 1.2 / Dynamic Range Meter 1.1.1
log date: 2017-07-07 22:33:25

––––––––––––––––––––––––––––––––––––––––
Statistics for: 17-Ernie (The Fastest Milkman in the West)
Number of samples: 10235904
Duration: 3:52
––––––––––––––––––––––––––––––––––––––––

Left Right

Peak Value: -3.48 dB –- -3.84 dB
Avg RMS: -15.97 dB –- -16.18 dB
DR channel: 10.75 dB –- 10.45 dB
––––––––––––––––––––––––––––––––––––––––

Official DR Value: DR11

Samplerate: 44100 Hz
Channels: 2
Bits per sample: 16
Bitrate: 907 kbps
Codec: FLAC
================================================================================

VA - 70's: 111 Original Hits (2009) 6CD Box Set [Repost]

All thanks to original releaser - SergeyJD

More interesting music in My Blog