Subcategories

VA - Alligator Records 40th Anniversary Collection (2011)

Posted By: popsakov
VA - Alligator Records 40th Anniversary Collection (2011)

VA - Alligator Records 40th Anniversary Collection (2011)
2CD | EAC Rip | FLAC (Img) + Cue + Log ~ 1,08 Gb | MP3 CBR320 ~ 381 Mb
Full Scans (PNG) ~ 147 Mb | RAR 5% Recovery
Modern Electric Blues, Chicago Blues | Alligator Records #ALCD 125/26

Starting with its 20th anniversary in 1991, every five years brings another double Alligator collection, and 2011 was no exception. While the 35th edition –released in 2006 – logically featured 35 songs, the compilers couldn't quite squeeze 40 onto this 40th anniversary disc, even though owner Bruce Iglauer does admit to fading a few endings off prematurely in order to maximize the list, which hits 38 selections. The trick with these albums is to both pay tribute to the label's storied past while including enough recent acts to connect the dots between the house-rocking music Iglauer built his company on, and the more modern yet still roots-based sounds he's released during the last five years. He does an excellent job here, mixing not just old and new, but male and female musicians who have recorded for Alligator over the decades. Of course, no Alligator historical collection is going to exclude Hound Dog Taylor, Iglauer's first signing who remains the raucous, soulful blues-rocking standard who helped forge the label's musical direction. Newer artists such as JJ Grey & Mofro, Eric Lindell, Anders Osborne, and Janiva Magness share space with Johnny Winter, Son Seals, Koko Taylor, Albert Collins, Lonnie Brooks, Eddy "The Chief" Clearwater, and lots more. A 30-page book includes obscure information and anecdotes about each, providing a first-hand look at what attracted Iglauer to the artists. Even with 35 acts, dozens are left out, and they are listed individually at the end of the extensive and often fascinating notes. There are some predominantly acoustic performances from Mavis Staples, Saffire – The Uppity Blues Women, Buddy Guy & Junior Wells, and Corey Harris, but the majority of the selections run to the high-energy, very plugged-in Chicago and Texas blues that Iglauer plainly loves. Between musicians such as Luther Allison, Roy Buchanan, Son Seals, and Koko Taylor, all of whom have created arguably their finest work while signed to Alligator (and that's saying plenty), there is an embarrassment of riches to choose from. While some of these names have also appeared on previous anniversary editions, no songs are repeated from those albums. Clearly, the intention of this and the previous sets is as loss leaders to sell more individual Alligator discs, but they play as perfectly enjoyable mash-ups of roots music, and a historical music lesson that anyone with an affinity for the genre will appreciate.
~ Hal Horowitz, All Music

***************

VA - Alligator Records 40th Anniversary Collection (2011)

Track List CD1:

01. Koko Taylor - I'm A Woman [4:36]
02. Albert Collins - I Ain't Drunk [4:08]
03. Michael Burks - Strange Feeling [4:30]
04. Tommy Castro - Backup Plan [4:33]
05. Lil' Ed & The Blues Imperials - Icicles In My Meatloaf [5:01]
06. Guitar Shorty - We The People [4:22]
07. Rick Estrin & The Nightcats - U B U [4:01]
08. Marcia Ball - The Party's Still Going On [3:26]
09. Roomful Of Blues - That's A Pretty Good Love [2:57]
10. Smokin' Joe Kubek & Bnois King - Have Blues, Will Travel [4:07]
11. Son Seals - Going Home (Where Women Got Meat On Their Bones) [3:45]
12. Buddy Guy & Junior Wells - Give Me My Coat And Shoes [3:51]
13. Janiva Magness - Slipped, Tripped And Fell In Love [3:43]
14. Johnny Winter - Mojo Boogie [4:55]
15. Coco Montoya - Last Dirty Deal [3:55]
16. Corey Harris - Fish Ain't Bitin' [3:30]
17. Luther Allison - All The King's Horses [5:39]
18. Anders Osborne - Echoes Of My Sins [4:35]
19. Lonnie Mack with Stevie Ray Vaughan - Double Whammy [3:35]

Exact Audio Copy V1.0 beta 1 from 15. November 2010

EAC extraction logfile from 10. June 2011, 22:51

Various / Alligator Records 40th Anniversary Collection Disc One

Used drive : HL-DT-STDVD-RAM GH22NP20 Adapter: 0 ID: 0

Read mode : Secure
Utilize accurate stream : Yes
Defeat audio cache : Yes
Make use of C2 pointers : No

Read offset correction : 102
Overread into Lead-In and Lead-Out : No
Fill up missing offset samples with silence : Yes
Delete leading and trailing silent blocks : No
Null samples used in CRC calculations : Yes
Used interface : Native Win32 interface for Win NT & 2000

Used output format : Пользовательский кодировщик
Selected bitrate : 768 kBit/s
Quality : High
Add ID3 tag : No
Command line compressor : C:\Program Files\Exact Audio Copy\FLAC\FLAC.EXE
Additional command line options : -6 -V -T "ARTIST=%a" -T "TITLE=%t" -T "ALBUM=%g" -T "DATE=%y" -T "TRACKNUMBER=%n" -T "GENRE=%m" -T "COMMENT=%e" %j–picture="%i"%j %s -o %d


TOC of the extracted CD

Track | Start | Length | Start sector | End sector
––––––––––––––––––––––––––––-
1 | 0:00.00 | 4:35.69 | 0 | 20693
2 | 4:35.69 | 4:07.58 | 20694 | 39276
3 | 8:43.52 | 4:30.03 | 39277 | 59529
4 | 13:13.55 | 4:33.09 | 59530 | 80013
5 | 17:46.64 | 5:01.15 | 80014 | 102603
6 | 22:48.04 | 4:21.53 | 102604 | 122231
7 | 27:09.57 | 4:01.27 | 122232 | 140333
8 | 31:11.09 | 3:26.36 | 140334 | 155819
9 | 34:37.45 | 2:56.50 | 155820 | 169069
10 | 37:34.20 | 4:07.26 | 169070 | 187620
11 | 41:41.46 | 3:44.73 | 187621 | 204493
12 | 45:26.44 | 3:51.16 | 204494 | 221834
13 | 49:17.60 | 3:42.69 | 221835 | 238553
14 | 53:00.54 | 4:54.54 | 238554 | 260657
15 | 57:55.33 | 3:54.50 | 260658 | 278257
16 | 61:50.08 | 3:30.26 | 278258 | 294033
17 | 65:20.34 | 5:38.48 | 294034 | 319431
18 | 70:59.07 | 4:35.06 | 319432 | 340062
19 | 75:34.13 | 3:35.22 | 340063 | 356209


Range status and errors

Selected range

Filename C:\pmx222\Various - Alligator Records 40th Anniversary Collection Disc One.wav

Peak level 100.0 %
Extraction speed 0.1 X
Range quality 100.0 %
Test CRC BA2077AE
Copy CRC BA2077AE
Copy OK

No errors occurred


AccurateRip summary

Track 1 accurately ripped (confidence 3) [3D4BCFB7]
Track 2 accurately ripped (confidence 3) [AF022EA5]
Track 3 accurately ripped (confidence 3) [86C3C09F]
Track 4 accurately ripped (confidence 3) [4D23B020]
Track 5 accurately ripped (confidence 3) [8B2CDD2F]
Track 6 accurately ripped (confidence 3) [186D1E5E]
Track 7 accurately ripped (confidence 3) [DE17DA16]
Track 8 accurately ripped (confidence 3) [64F12FAD]
Track 9 accurately ripped (confidence 3) [65FDCC79]
Track 10 accurately ripped (confidence 3) [969846C3]
Track 11 accurately ripped (confidence 3) [43802CAB]
Track 12 accurately ripped (confidence 3) [BB4FA3B1]
Track 13 accurately ripped (confidence 3) [4290A723]
Track 14 accurately ripped (confidence 3) [58F234BC]
Track 15 accurately ripped (confidence 3) [096F65A5]
Track 16 accurately ripped (confidence 3) [10D0CA76]
Track 17 accurately ripped (confidence 3) [85374541]
Track 18 accurately ripped (confidence 3) [02696137]
Track 19 accurately ripped (confidence 3) [271AE487]

All tracks accurately ripped

End of status report

==== Log checksum E33B69F8CC8E0B9943ED0DB0F9F2F946AFACA780E190541DF442CC84AFD4F35A ====

foobar2000 1.3.16 / Dynamic Range Meter 1.1.1
log date: 2018-02-05 01:31:57

––––––––––––––––––––––––––––––––––––––––
Analyzed: Albert Collins - I Ain't Drunk / Alligator Records 40th Anniversary Collection Disc One (1)
Anders Osborne - Echoes Of My Sins / Alligator Records 40th Anniversary Collection Disc One (2)
––––––––––––––––––––––––––––––––––––––––

DR Peak RMS Duration Track
––––––––––––––––––––––––––––––––––––––––
DR8 -0.20 dB -9.49 dB 4:08 02-Albert Collins - I Ain't Drunk
DR6 -1.02 dB -9.05 dB 4:35 18-Anders Osborne - Echoes Of My Sins
––––––––––––––––––––––––––––––––––––––––

Number of tracks: 2
Official DR value: DR7

Samplerate: 44100 Hz
Channels: 2
Bits per sample: 16
Bitrate: 961 kbps
Codec: FLAC
================================================================================

––––––––––––––––––––––––––––––––––––––––
Analyzed: Buddy Guy & Junior Wells - Give Me My Coat And Shoes / Alligator Records 40th Anniversary Collection Disc One (1)
Coco Montoya - Last Dirty Deal / Alligator Records 40th Anniversary Collection Disc One (2)
Corey Harris - Fish Ain't Bitin' / Alligator Records 40th Anniversary Collection Disc One (3)
––––––––––––––––––––––––––––––––––––––––

DR Peak RMS Duration Track
––––––––––––––––––––––––––––––––––––––––
DR14 -1.88 dB -20.03 dB 3:51 12-Buddy Guy & Junior Wells - Give Me My Coat And Shoes
DR6 -1.46 dB -8.68 dB 3:55 15-Coco Montoya - Last Dirty Deal
DR10 -0.20 dB -12.39 dB 3:30 16-Corey Harris - Fish Ain't Bitin'
––––––––––––––––––––––––––––––––––––––––

Number of tracks: 3
Official DR value: DR10

Samplerate: 44100 Hz
Channels: 2
Bits per sample: 16
Bitrate: 961 kbps
Codec: FLAC
================================================================================

––––––––––––––––––––––––––––––––––––––––
Analyzed: Guitar Shorty - We The People / Alligator Records 40th Anniversary Collection Disc One (1)
Janiva Magness - Slipped, Tripped And Fell In Love / Alligator Records 40th Anniversary Collection Disc One (2)
Johnny Winter - Mojo Boogie / Alligator Records 40th Anniversary Collection Disc One (3)
––––––––––––––––––––––––––––––––––––––––

DR Peak RMS Duration Track
––––––––––––––––––––––––––––––––––––––––
DR6 -0.79 dB -8.34 dB 4:22 06-Guitar Shorty - We The People
DR7 -2.04 dB -10.66 dB 3:43 13-Janiva Magness - Slipped, Tripped And Fell In Love
DR9 0.00 dB -9.80 dB 4:55 14-Johnny Winter - Mojo Boogie
––––––––––––––––––––––––––––––––––––––––

Number of tracks: 3
Official DR value: DR7

Samplerate: 44100 Hz
Channels: 2
Bits per sample: 16
Bitrate: 961 kbps
Codec: FLAC
================================================================================

––––––––––––––––––––––––––––––––––––––––
Analyzed: Koko Taylor - I'm A Woman / Alligator Records 40th Anniversary Collection Disc One (1)
Lil' Ed & The Blues Imperials - Icicles In My Meatloaf / Alligator Records 40th Anniversary Collection Disc One (2)
Lonnie Mack with Stevie Ray Vaughan - Double Whammy / Alligator Records 40th Anniversary Collection Disc One (3)
––––––––––––––––––––––––––––––––––––––––

DR Peak RMS Duration Track
––––––––––––––––––––––––––––––––––––––––
DR7 -0.20 dB -8.00 dB 4:36 01-Koko Taylor - I'm A Woman
DR6 -0.20 dB -6.62 dB 5:01 05-Lil' Ed & The Blues Imperials - Icicles In My Meatloaf
DR7 -0.20 dB -7.96 dB 3:35 19-Lonnie Mack with Stevie Ray Vaughan - Double Whammy
––––––––––––––––––––––––––––––––––––––––

Number of tracks: 3
Official DR value: DR6

Samplerate: 44100 Hz
Channels: 2
Bits per sample: 16
Bitrate: 961 kbps
Codec: FLAC
================================================================================

––––––––––––––––––––––––––––––––––––––––
Statistics for: 17-Luther Allison - All The King's Horses
Number of samples: 14934024
Duration: 5:39
––––––––––––––––––––––––––––––––––––––––

Left Right

Peak Value: -1.14 dB –- -1.04 dB
Avg RMS: -8.37 dB –- -8.74 dB
DR channel: 6.48 dB –- 6.90 dB
––––––––––––––––––––––––––––––––––––––––

Official DR Value: DR7

Samplerate: 44100 Hz
Channels: 2
Bits per sample: 16
Bitrate: 961 kbps
Codec: FLAC
================================================================================
––––––––––––––––––––––––––––––––––––––––
Statistics for: 08-Marcia Ball - The Party's Still Going On
Number of samples: 9105768
Duration: 3:26
––––––––––––––––––––––––––––––––––––––––

Left Right

Peak Value: -0.65 dB –- -0.65 dB
Avg RMS: -8.93 dB –- -7.06 dB
DR channel: 7.53 dB –- 5.74 dB
––––––––––––––––––––––––––––––––––––––––

Official DR Value: DR7

Samplerate: 44100 Hz
Channels: 2
Bits per sample: 16
Bitrate: 961 kbps
Codec: FLAC
================================================================================
––––––––––––––––––––––––––––––––––––––––
Analyzed: Michael Burks - Strange Feeling / Alligator Records 40th Anniversary Collection Disc One (1)
Rick Estrin & The Nightcats - U B U / Alligator Records 40th Anniversary Collection Disc One (2)
Roomful Of Blues - That's A Pretty Good Love / Alligator Records 40th Anniversary Collection Disc One (3)
Smokin' Joe Kubek & Bnois King - Have Blues, Will Travel / Alligator Records 40th Anniversary Collection Disc One (4)
Son Seals - Going Home (Where Women Got Meat On Their Bones) / Alligator Records 40th Anniversary Collection Disc One (5)
––––––––––––––––––––––––––––––––––––––––

DR Peak RMS Duration Track
––––––––––––––––––––––––––––––––––––––––
DR6 -0.82 dB -7.68 dB 4:30 03-Michael Burks - Strange Feeling
DR7 -0.20 dB -8.98 dB 4:01 07-Rick Estrin & The Nightcats - U B U
DR7 -1.10 dB -8.52 dB 2:57 09-Roomful Of Blues - That's A Pretty Good Love
DR6 -0.61 dB -7.70 dB 4:07 10-Smokin' Joe Kubek & Bnois King - Have Blues, Will Travel
DR9 0.00 dB -9.84 dB 3:45 11-Son Seals - Going Home (Where Women Got Meat On Their Bones)
––––––––––––––––––––––––––––––––––––––––

Number of tracks: 5
Official DR value: DR7

Samplerate: 44100 Hz
Channels: 2
Bits per sample: 16
Bitrate: 961 kbps
Codec: FLAC
================================================================================

––––––––––––––––––––––––––––––––––––––––
Statistics for: 04-Tommy Castro - Backup Plan
Number of samples: 12044592
Duration: 4:33
––––––––––––––––––––––––––––––––––––––––

Left Right

Peak Value: -0.09 dB –- -0.06 dB
Avg RMS: -7.76 dB –- -8.54 dB
DR channel: 6.14 dB –- 6.91 dB
––––––––––––––––––––––––––––––––––––––––

Official DR Value: DR7

Samplerate: 44100 Hz
Channels: 2
Bits per sample: 16
Bitrate: 961 kbps
Codec: FLAC
================================================================================

[CUETools log; Date: 05.02.2018 1:32:28; Version: 2.1.5]
[CTDB TOCID: Ic.a2bvX1qSJd1sX6b_VoG.ZNgQ-] found.
Track | CTDB Status
1 | (91/91) Accurately ripped
2 | (90/91) Accurately ripped
3 | (91/91) Accurately ripped
4 | (91/91) Accurately ripped
5 | (91/91) Accurately ripped
6 | (91/91) Accurately ripped
7 | (91/91) Accurately ripped
8 | (91/91) Accurately ripped
9 | (90/91) Accurately ripped
10 | (90/91) Accurately ripped
11 | (90/91) Accurately ripped
12 | (89/91) Accurately ripped
13 | (90/91) Accurately ripped
14 | (90/91) Accurately ripped
15 | (88/91) Accurately ripped
16 | (89/91) Accurately ripped
17 | (88/91) Accurately ripped
18 | (81/91) Accurately ripped
19 | (75/91) Accurately ripped
[AccurateRip ID: 0036ca4e-02f9bdf9-22128d13] found.
Track [ CRC | V2 ] Status
01 [3d4bcfb7|3891f001] (021+075/101) Accurately ripped
02 [af022ea5|d82df0e4] (021+075/101) Accurately ripped
03 [86c3c09f|68383ae3] (021+076/102) Accurately ripped
04 [4d23b020|43e94c3d] (021+077/103) Accurately ripped
05 [8b2cdd2f|9448e48d] (021+077/103) Accurately ripped
06 [186d1e5e|33df09bc] (021+077/103) Accurately ripped
07 [de17da16|80a934c4] (020+076/101) Accurately ripped
08 [64f12fad|3cf2a009] (020+077/102) Accurately ripped
09 [65fdcc79|ac134bec] (020+076/100) Accurately ripped
10 [969846c3|d244ae5f] (021+076/101) Accurately ripped
11 [43802cab|fa570a15] (020+077/101) Accurately ripped
12 [bb4fa3b1|e0a24026] (020+076/101) Accurately ripped
13 [4290a723|1ef89deb] (021+078/104) Accurately ripped
14 [58f234bc|bc6754c8] (020+077/102) Accurately ripped
15 [096f65a5|5776f54e] (021+077/103) Accurately ripped
16 [10d0ca76|dcd35f8b] (021+076/102) Accurately ripped
17 [85374541|15876943] (021+076/102) Accurately ripped
18 [02696137|61a371cc] (021+076/101) Accurately ripped
19 [271ae487|1c8b508e] (020+075/098) Accurately ripped
Offsetted by 12:
01 [8053410c] (000/101) No match (V2 was not tested)
02 [1e32a601] (000/101) No match (V2 was not tested)
03 [8177c33d] (000/102) No match (V2 was not tested)
04 [d0935d2d] (000/103) No match (V2 was not tested)
05 [44fbcd83] (000/103) No match (V2 was not tested)
06 [c2b7f680] (000/103) No match (V2 was not tested)
07 [373e9e5b] (000/101) No match (V2 was not tested)
08 [ae2676a2] (000/102) No match (V2 was not tested)
09 [2a492184] (000/100) No match (V2 was not tested)
10 [0d4806cf] (000/101) No match (V2 was not tested)
11 [2f56d30c] (000/101) No match (V2 was not tested)
12 [be73a240] (000/101) No match (V2 was not tested)
13 [801527c7] (000/104) No match (V2 was not tested)
14 [bfe821bf] (000/102) No match (V2 was not tested)
15 [d50dcf71] (000/103) No match (V2 was not tested)
16 [a4cb1b14] (000/102) No match (V2 was not tested)
17 [2f1cf030] (000/102) No match (V2 was not tested)
18 [0770d531] (000/101) No match (V2 was not tested)
19 [3a6f51a1] (000/098) No match (V2 was not tested)

Track Peak [ CRC32 ] [W/O NULL] [ LOG ]
– 100,0 [BA2077AE] [52071B51] CRC32
01 97,7 [B84DB13E] [AF788280]
02 97,7 [B63F095B] [EAC8CF0C]
03 90,9 [B309A6E4] [3B4DC46C]
04 99,3 [D4111D15] [649623BD]
05 97,7 [BDB3230C] [7EA41172]
06 91,2 [8240ED7B] [4FB01625]
07 97,7 [1E245C4F] [E626C041]
08 92,7 [57C21A20] [3D51808F]
09 88,0 [19282CEA] [23485164]
10 93,2 [5745E3D6] [7E27D9A7]
11 100,0 [5BD5A5CD] [18D3531F]
12 80,5 [36182537] [F2742251]
13 79,0 [32E5C7FE] [D0A8B9EC]
14 100,0 [194EDA76] [F56E80F2]
15 84,5 [5FBFEEB1] [D6D2755E]
16 97,7 [D18481D5] [8544DFEC]
17 88,6 [BBCE3A16] [993F88D2]
18 88,9 [8057E943] [515AB1B2]
19 97,7 [26BA539A] [3772F518]

VA - Alligator Records 40th Anniversary Collection (2011)

Track List CD2:

01. Albert Collins, Robert Cray & Johhny Copeland - T-Bone Shuffle [4:57]
02. Lonnie Brooks - Don't Take Advantage Of Me [4:05]
03. Eddy 'The Chief' Clearwater - A Good Leavin' Alone [4:09]
04. Hound Dog Taylor - Sitting At Home Alone [5:23]
05. Elvin Bishop & Little Smokey Smothers - Roll Your Moneymaker [4:06]
06. James Cotton - With The Quickness [2:34]
07. Shemekia Copeland - It's My Own Tears [6:07]
08. Professor Longhair - Red Beans [4:12]
09. Charlie Musselwhite - Where Hwy 61 Runs [4:00]
10. Roy Buchanan with Delbert McClinton - You Can't Judge A Book By The Cover [3:24]
11. Mavis Staples - Step Into The Light [4:22]
12. Tinsley Ellis - Speak No Evil [4:01]
13. Eric Lindell - It's A Drag [3:21]
14. Saffire-The Uppity Blues Women - Going Down To The River [3:14]
15. The Holmes Brothers - Feed My Soul [4:50]
16. Katie Webster - Two-Fisted Mama [3:08]
17. William Clarke - Daddy Pinocchio [3:44]
18. Buckwheat Zydeco - When The Levee Breaks [5:17]
19. JJ Grey & Mofro - The Sun Is Shining Down [4:32]

Exact Audio Copy V1.0 beta 1 from 15. November 2010

EAC extraction logfile from 12. June 2011, 0:15

Various / Alligator Records 40th Anniversary Collection Disc Two

Used drive : HL-DT-STDVD-RAM GH22NP20 Adapter: 0 ID: 0

Read mode : Secure
Utilize accurate stream : Yes
Defeat audio cache : Yes
Make use of C2 pointers : No

Read offset correction : 102
Overread into Lead-In and Lead-Out : No
Fill up missing offset samples with silence : Yes
Delete leading and trailing silent blocks : No
Null samples used in CRC calculations : Yes
Used interface : Native Win32 interface for Win NT & 2000

Used output format : Пользовательский кодировщик
Selected bitrate : 768 kBit/s
Quality : High
Add ID3 tag : No
Command line compressor : C:\Program Files\Exact Audio Copy\FLAC\FLAC.EXE
Additional command line options : -6 -V -T "ARTIST=%a" -T "TITLE=%t" -T "ALBUM=%g" -T "DATE=%y" -T "TRACKNUMBER=%n" -T "GENRE=%m" -T "COMMENT=%e" %j–picture="%i"%j %s -o %d


TOC of the extracted CD

Track | Start | Length | Start sector | End sector
––––––––––––––––––––––––––––-
1 | 0:00.00 | 4:56.46 | 0 | 22245
2 | 4:56.46 | 4:05.31 | 22246 | 40651
3 | 9:02.02 | 4:09.21 | 40652 | 59347
4 | 13:11.23 | 5:23.20 | 59348 | 83592
5 | 18:34.43 | 4:05.74 | 83593 | 102041
6 | 22:40.42 | 2:34.13 | 102042 | 113604
7 | 25:14.55 | 6:06.52 | 113605 | 141106
8 | 31:21.32 | 4:12.30 | 141107 | 160036
9 | 35:33.62 | 4:00.09 | 160037 | 178045
10 | 39:33.71 | 3:23.61 | 178046 | 193331
11 | 42:57.57 | 4:22.18 | 193332 | 212999
12 | 47:20.00 | 4:01.14 | 213000 | 231088
13 | 51:21.14 | 3:21.21 | 231089 | 246184
14 | 54:42.35 | 3:14.36 | 246185 | 260770
15 | 57:56.71 | 4:49.57 | 260771 | 282502
16 | 62:46.53 | 3:07.60 | 282503 | 296587
17 | 65:54.38 | 3:43.61 | 296588 | 313373
18 | 69:38.24 | 5:17.20 | 313374 | 337168
19 | 74:55.44 | 4:32.04 | 337169 | 357572


Range status and errors

Selected range

Filename C:\pmx222\Various - Alligator Records 40th Anniversary Collection Disc Two.wav

Peak level 100.0 %
Extraction speed 0.1 X
Range quality 100.0 %
Copy CRC 5BC3A97E
Copy OK

No errors occurred


AccurateRip summary

Track 1 accurately ripped (confidence 3) [D8EE3E63]
Track 2 accurately ripped (confidence 3) [5F825A0F]
Track 3 accurately ripped (confidence 3) [7E0972A6]
Track 4 accurately ripped (confidence 3) [919AC792]
Track 5 accurately ripped (confidence 3) [DFF1478B]
Track 6 accurately ripped (confidence 3) [C8303A50]
Track 7 accurately ripped (confidence 3) [CD53714C]
Track 8 accurately ripped (confidence 3) [B47D414C]
Track 9 accurately ripped (confidence 3) [3867E849]
Track 10 accurately ripped (confidence 3) [9F93328E]
Track 11 accurately ripped (confidence 3) [5DECC5BB]
Track 12 accurately ripped (confidence 3) [C25A2DAE]
Track 13 accurately ripped (confidence 3) [D31B85EB]
Track 14 accurately ripped (confidence 3) [B053E6E8]
Track 15 accurately ripped (confidence 3) [C0566B08]
Track 16 accurately ripped (confidence 3) [7EC9B17D]
Track 17 accurately ripped (confidence 3) [CFE5F132]
Track 18 accurately ripped (confidence 3) [06ECB03D]
Track 19 accurately ripped (confidence 3) [D0FC42F6]

All tracks accurately ripped

End of status report

==== Log checksum 2CC9B4FE2B35B068A7AF66157FFCB4F2537E1C63A4E39C13CD229615F1EA2971 ====

foobar2000 1.3.16 / Dynamic Range Meter 1.1.1
log date: 2018-02-05 01:33:10

––––––––––––––––––––––––––––––––––––––––
Analyzed: Albert Collins, Robert Cray & Johhny Copeland - T-Bone Shuffle / Alligator Records 40th Anniversary Collection Disc Two (1)
Buckwheat Zydeco - When The Levee Breaks / Alligator Records 40th Anniversary Collection Disc Two (2)
––––––––––––––––––––––––––––––––––––––––

DR Peak RMS Duration Track
––––––––––––––––––––––––––––––––––––––––
DR8 -0.20 dB -8.78 dB 4:57 01-Albert Collins, Robert Cray & Johhny Copeland - T-Bone Shuffle
DR8 -1.06 dB -10.19 dB 5:17 18-Buckwheat Zydeco - When The Levee Breaks
––––––––––––––––––––––––––––––––––––––––

Number of tracks: 2
Official DR value: DR8

Samplerate: 44100 Hz
Channels: 2
Bits per sample: 16
Bitrate: 910 kbps
Codec: FLAC
================================================================================

––––––––––––––––––––––––––––––––––––––––
Statistics for: 09-Charlie Musselwhite - Where Hwy 61 Runs
Number of samples: 10589292
Duration: 4:00
––––––––––––––––––––––––––––––––––––––––

Left Right

Peak Value: -0.20 dB –- -0.20 dB
Avg RMS: -9.13 dB –- -10.09 dB
DR channel: 7.64 dB –- 8.60 dB
––––––––––––––––––––––––––––––––––––––––

Official DR Value: DR8

Samplerate: 44100 Hz
Channels: 2
Bits per sample: 16
Bitrate: 910 kbps
Codec: FLAC
================================================================================
––––––––––––––––––––––––––––––––––––––––
Analyzed: Eddy 'The Chief' Clearwater - A Good Leavin' Alone / Alligator Records 40th Anniversary Collection Disc Two (1)
Elvin Bishop & Little Smokey Smothers - Roll Your Moneymaker / Alligator Records 40th Anniversary Collection Disc Two (2)
Eric Lindell - It's A Drag / Alligator Records 40th Anniversary Collection Disc Two (3)
––––––––––––––––––––––––––––––––––––––––

DR Peak RMS Duration Track
––––––––––––––––––––––––––––––––––––––––
DR7 -0.68 dB -8.97 dB 4:09 03-Eddy 'The Chief' Clearwater - A Good Leavin' Alone
DR8 -0.20 dB -9.69 dB 4:06 05-Elvin Bishop & Little Smokey Smothers - Roll Your Moneymaker
DR7 -0.72 dB -9.18 dB 3:21 13-Eric Lindell - It's A Drag
––––––––––––––––––––––––––––––––––––––––

Number of tracks: 3
Official DR value: DR7

Samplerate: 44100 Hz
Channels: 2
Bits per sample: 16
Bitrate: 910 kbps
Codec: FLAC
================================================================================

––––––––––––––––––––––––––––––––––––––––
Analyzed: Hound Dog Taylor - Sitting At Home Alone / Alligator Records 40th Anniversary Collection Disc Two (1)
James Cotton - With The Quickness / Alligator Records 40th Anniversary Collection Disc Two (2)
JJ Grey & Mofro - The Sun Is Shining Down / Alligator Records 40th Anniversary Collection Disc Two (3)
––––––––––––––––––––––––––––––––––––––––

DR Peak RMS Duration Track
––––––––––––––––––––––––––––––––––––––––
DR8 0.00 dB -10.33 dB 5:23 04-Hound Dog Taylor - Sitting At Home Alone
DR8 -0.20 dB -9.47 dB 2:34 06-James Cotton - With The Quickness
DR8 -0.76 dB -11.56 dB 4:32 19-JJ Grey & Mofro - The Sun Is Shining Down
––––––––––––––––––––––––––––––––––––––––

Number of tracks: 3
Official DR value: DR8

Samplerate: 44100 Hz
Channels: 2
Bits per sample: 16
Bitrate: 910 kbps
Codec: FLAC
================================================================================

––––––––––––––––––––––––––––––––––––––––
Statistics for: 16-Katie Webster - Two-Fisted Mama
Number of samples: 8281980
Duration: 3:08
––––––––––––––––––––––––––––––––––––––––

Left Right

Peak Value: 0.00 dB –- 0.00 dB
Avg RMS: -10.65 dB –- -11.49 dB
DR channel: 9.38 dB –- 10.16 dB
––––––––––––––––––––––––––––––––––––––––

Official DR Value: DR10

Samplerate: 44100 Hz
Channels: 2
Bits per sample: 16
Bitrate: 910 kbps
Codec: FLAC
================================================================================
––––––––––––––––––––––––––––––––––––––––
Analyzed: Lonnie Brooks - Don't Take Advantage Of Me / Alligator Records 40th Anniversary Collection Disc Two (1)
Mavis Staples - Step Into The Light / Alligator Records 40th Anniversary Collection Disc Two (2)
––––––––––––––––––––––––––––––––––––––––

DR Peak RMS Duration Track
––––––––––––––––––––––––––––––––––––––––
DR8 -0.20 dB -9.79 dB 4:05 02-Lonnie Brooks - Don't Take Advantage Of Me
DR10 -0.20 dB -11.65 dB 4:22 11-Mavis Staples - Step Into The Light
––––––––––––––––––––––––––––––––––––––––

Number of tracks: 2
Official DR value: DR9

Samplerate: 44100 Hz
Channels: 2
Bits per sample: 16
Bitrate: 910 kbps
Codec: FLAC
================================================================================

––––––––––––––––––––––––––––––––––––––––
Analyzed: Professor Longhair - Red Beans / Alligator Records 40th Anniversary Collection Disc Two (1)
Roy Buchanan with Delbert McClinton - You Can't Judge A Book By The Cover / Alligator Records 40th Anniversary Collection Disc Two (2)
Saffire-The Uppity Blues Women - Going Down To The River / Alligator Records 40th Anniversary Collection Disc Two (3)
––––––––––––––––––––––––––––––––––––––––

DR Peak RMS Duration Track
––––––––––––––––––––––––––––––––––––––––
DR10 -0.20 dB -11.36 dB 4:12 08-Professor Longhair - Red Beans
DR7 -1.31 dB -9.87 dB 3:24 10-Roy Buchanan with Delbert McClinton - You Can't Judge A Book By The Cover
DR7 -2.31 dB -10.87 dB 3:14 14-Saffire-The Uppity Blues Women - Going Down To The River
––––––––––––––––––––––––––––––––––––––––

Number of tracks: 3
Official DR value: DR8

Samplerate: 44100 Hz
Channels: 2
Bits per sample: 16
Bitrate: 910 kbps
Codec: FLAC
================================================================================

––––––––––––––––––––––––––––––––––––––––
Analyzed: Shemekia Copeland - It's My Own Tears / Alligator Records 40th Anniversary Collection Disc Two (1)
The Holmes Brothers - Feed My Soul / Alligator Records 40th Anniversary Collection Disc Two (2)
––––––––––––––––––––––––––––––––––––––––

DR Peak RMS Duration Track
––––––––––––––––––––––––––––––––––––––––
DR8 -0.20 dB -11.43 dB 6:07 07-Shemekia Copeland - It's My Own Tears
DR9 -0.95 dB -11.99 dB 4:50 15-The Holmes Brothers - Feed My Soul
––––––––––––––––––––––––––––––––––––––––

Number of tracks: 2
Official DR value: DR9

Samplerate: 44100 Hz
Channels: 2
Bits per sample: 16
Bitrate: 910 kbps
Codec: FLAC
================================================================================

––––––––––––––––––––––––––––––––––––––––
Analyzed: Tinsley Ellis - Speak No Evil / Alligator Records 40th Anniversary Collection Disc Two (1)
William Clarke - Daddy Pinocchio / Alligator Records 40th Anniversary Collection Disc Two (2)
––––––––––––––––––––––––––––––––––––––––

DR Peak RMS Duration Track
––––––––––––––––––––––––––––––––––––––––
DR7 -0.22 dB -8.68 dB 4:01 12-Tinsley Ellis - Speak No Evil
DR10 -0.20 dB -10.69 dB 3:44 17-William Clarke - Daddy Pinocchio
––––––––––––––––––––––––––––––––––––––––

Number of tracks: 2
Official DR value: DR8

Samplerate: 44100 Hz
Channels: 2
Bits per sample: 16
Bitrate: 910 kbps
Codec: FLAC
================================================================================

[CUETools log; Date: 05.02.2018 1:33:31; Version: 2.1.5]
[CTDB TOCID: scD6TsZx.0PKdOk29VrNRGrlyE0-] found.
Track | CTDB Status
1 | (78/78) Accurately ripped
2 | (78/78) Accurately ripped
3 | (78/78) Accurately ripped
4 | (78/78) Accurately ripped
5 | (78/78) Accurately ripped
6 | (78/78) Accurately ripped
7 | (78/78) Accurately ripped
8 | (78/78) Accurately ripped
9 | (78/78) Accurately ripped
10 | (78/78) Accurately ripped
11 | (78/78) Accurately ripped
12 | (78/78) Accurately ripped
13 | (77/78) Accurately ripped
14 | (78/78) Accurately ripped
15 | (78/78) Accurately ripped
16 | (78/78) Accurately ripped
17 | (78/78) Accurately ripped
18 | (78/78) Accurately ripped
19 | (76/78) Accurately ripped
[AccurateRip ID: 00376c84-0300cde1-38129f13] found.
Track [ CRC | V2 ] Status
01 [d8ee3e63|2293484b] (21+73/99) Accurately ripped
02 [5f825a0f|faea4759] (21+72/98) Accurately ripped
03 [7e0972a6|b9e62366] (21+73/99) Accurately ripped
04 [919ac792|2040f9dd] (20+71/96) Accurately ripped
05 [dff1478b|114847a1] (21+73/99) Accurately ripped
06 [c8303a50|f2a4db74] (21+73/99) Accurately ripped
07 [cd53714c|2d8d151b] (20+72/97) Accurately ripped
08 [b47d414c|206cbd41] (21+72/98) Accurately ripped
09 [3867e849|b0b9c0f6] (21+72/98) Accurately ripped
10 [9f93328e|f6b16842] (20+71/96) Accurately ripped
11 [5decc5bb|3da2838c] (20+72/97) Accurately ripped
12 [c25a2dae|552c9c39] (21+73/99) Accurately ripped
13 [d31b85eb|a31a01d8] (20+74/99) Accurately ripped
14 [b053e6e8|b6c6ac9a] (20+72/97) Accurately ripped
15 [c0566b08|3e53b654] (20+72/97) Accurately ripped
16 [7ec9b17d|901aa751] (20+72/97) Accurately ripped
17 [cfe5f132|8752c0a4] (20+72/97) Accurately ripped
18 [06ecb03d|948fca88] (20+71/96) Accurately ripped
19 [d0fc42f6|9562a460] (19+71/94) Accurately ripped
Offsetted by 12:
01 [1a6f6343] (00/99) No match (V2 was not tested)
02 [cc8d0892] (00/98) No match (V2 was not tested)
03 [83929b66] (00/99) No match (V2 was not tested)
04 [277747b2] (00/96) No match (V2 was not tested)
05 [a55b8811] (00/99) No match (V2 was not tested)
06 [4b37634b] (00/99) No match (V2 was not tested)
07 [8590d3f8] (00/97) No match (V2 was not tested)
08 [b5d06acb] (00/98) No match (V2 was not tested)
09 [5f3b7375] (00/98) No match (V2 was not tested)
10 [f39bc45f] (00/96) No match (V2 was not tested)
11 [2280a5ba] (00/97) No match (V2 was not tested)
12 [c37f8d2a] (00/99) No match (V2 was not tested)
13 [e2429636] (00/99) No match (V2 was not tested)
14 [d9dfdbde] (00/97) No match (V2 was not tested)
15 [dd338096] (00/97) No match (V2 was not tested)
16 [5658a79c] (00/97) No match (V2 was not tested)
17 [108a31da] (00/97) No match (V2 was not tested)
18 [01c944de] (00/96) No match (V2 was not tested)
19 [18919af9] (00/94) No match (V2 was not tested)

Track Peak [ CRC32 ] [W/O NULL] [ LOG ]
– 100,0 [5BC3A97E] [595F262C] CRC32
01 97,7 [A47A78A4] [9A5BE207]
02 97,7 [CD304C1C] [A5A4B2EA]
03 92,4 [D5AC109D] [2B31A601]
04 100,0 [F173D674] [336EAAC6]
05 97,7 [6B1F9F63] [6BD1B113]
06 97,7 [898D503A] [9525DDDC]
07 97,7 [9003E66D] [EA4239C1]
08 97,7 [197C8622] [AFF133DD]
09 97,7 [7C30489B] [6F273CF9]
10 86,0 [4B926BDB] [202AA21C]
11 97,7 [3936E247] [5A428C5E]
12 97,4 [30A6FE88] [92DC7F90]
13 92,0 [624775DF] [D3938D08]
14 76,6 [A4F5920A] [94D12BD4]
15 89,6 [C3805B3F] [DB03F3EE]
16 100,0 [C152812F] [A99F6164]
17 97,7 [88392DF4] [C97F949A]
18 88,5 [815779B2] [FF5DE4FA]
19 91,6 [6BF307D0] [D76AAA58]

VA - Alligator Records 40th Anniversary Collection (2011)

All thanks go to рмх222

>>> My Blog <<<

Download from icerbox.com: