Subcategories

VA - ...And Back To Earth Again - Ten Years Of Meteor City (2007, 3CD)

Posted By: Necromandus
VA - ...And Back To Earth Again - Ten Years Of Meteor City (2007, 3CD)

VA - …And Back To Earth Again - Ten Years Of Meteor City (2007, 3CD)
EAC Rip | FLAC, IMG+CUE+LOG | 1.8 GB | MP3 CBR 320 Kbps | 560 MB | Complete HQ Scans | PNG -> 70 MB
Stoner/Doom/Sludge | Label: MeteorCity #MCY-040| RAR 3% Rec. | IcerBox.com

Three-CD retrospective from Meteor City's founders as they prepare to depart the label. The oversize custom package contains forty-five fully remastered tracks, including previously out-of-print material and a few new surprise
This lavishly appointed, extensively annotated, DVD-shaped, three-CD box set celebrates the first decade in the life of Albuquerque, NM's Meteor City – arguably the definitive stoner rock record label, given its longevity (only England's more doom-leaning Rise Above and Detroit's Small Stone come close), and strict devotion to the various heavy rock subgenres (metal, classic rock, desert rock, space rock, etc.), orbiting the greater stoner rock galaxy. Like most everyone in any way associated with the stoner rock scene, Meteor City founders Jadd Schickler and Aaron Emmel were originally inspired to action by Kyuss, whose seminal releases of the mid-'90s managed to coalesce nearly three decades of far-flung hard rock and metal influences under this popular new heading that Gen X'ers looking beyond grunge's confines would readily embraced. And so the duo launched their label with 1997's Welcome to Meteor City compilation, following it with some 40 releases during the ensuing decade, from which 45 standout tracks have been judiciously excerpted for And Back to Earth Again: Ten Years of Meteor City's three discs. Here, listeners will find long out-of-print gems such as Unida's "Wet Pussycat," Las Cruces' "In My Sadness," Sixty Watt Shaman's "Red Colony," I Are Droid's "Serenade," and Orquesta del Desierto's "Reaching Out." They'll thrill at discovering underappreciated highlights from lesser known contributors like Spiritu, Slaprocket, Truckfighters, Black NASA, Blind Dog, and the Mushroom River Band. And they'll nod appreciatively over all-time stoner rock anthems like Dozer's "From Mars," Nebula's "Full Throttle," Solace's "Whistle Pig," Spirit Caravan's "Dove-Tongued Aggressor," and Lowrider's "Upon the Dune," among many others. In sum: thanks to Meteor City's impressive catalog and commendable dedication to their chosen stylistic muse, And Back to Earth Again delivers as broad and rich a survey of the stoner rock field as one is likely to obtain from any single record label; simultaneously offering an ready-made stoner rock collection for neophytes, and an authoritative summary for genre completists. So until the next launch sequence counts down to see off another ten years, this voyage has already been quite a trip.
CD1 Tracklist :

1. Solace - Whistle Pig - 4:14
2. The Mushroom River Band - Simsalabim - 2:28
3. The Atomic Bitchwax - STD - 4:08
4. Unida - Wet Pussycat - 6:08
5. Lowrider - Convoy V - 5:14
6. Blind Dog - Would I Make You Believe - 6:20
7. Dozer - From Mars - 3:03
8. Solace - Heavy Birth/2-Fisted - 10:56
9. Village of Dead Roads - Between Grace & Delusion - 4:05
10. Lowrider - Lameneshma - 4:57
11. Black Nasa - Thanks Anyway - 2:34
12. Nebula - Fall of Icarus - 4:13
13. Spirit Caravan - Dove-Tongued Aggressor - 4:26
14. Solstice - The Prophecy - 5:34
15. Slaprocket - Beggars Grinning - 6:11

Exact Audio Copy V1.3 from 2. September 2016

EAC extraction logfile from 10. October 2017, 11:37

Various / … And Back To Earth Again: Ten Years Of Meteor City (Disc 1)

Used drive : TSSTcorpCDDVDW SH-S223F Adapter: 1 ID: 0

Read mode : Secure
Utilize accurate stream : Yes
Defeat audio cache : Yes
Make use of C2 pointers : No

Read offset correction : 6
Overread into Lead-In and Lead-Out : No
Fill up missing offset samples with silence : Yes
Delete leading and trailing silent blocks : No
Null samples used in CRC calculations : Yes
Used interface : Native Win32 interface for Win NT & 2000

Used output format : Internal WAV Routines
Sample format : 44.100 Hz; 16 Bit; Stereo


TOC of the extracted CD

Track | Start | Length | Start sector | End sector
––––––––––––––––––––––––––––-
1 | 0:00.00 | 4:14.00 | 0 | 19049
2 | 4:14.00 | 2:28.25 | 19050 | 30174
3 | 6:42.25 | 4:07.42 | 30175 | 48741
4 | 10:49.67 | 6:07.70 | 48742 | 76336
5 | 16:57.62 | 5:13.38 | 76337 | 99849
6 | 22:11.25 | 6:20.10 | 99850 | 128359
7 | 28:31.35 | 3:03.22 | 128360 | 142106
8 | 31:34.57 | 10:56.23 | 142107 | 191329
9 | 42:31.05 | 4:05.35 | 191330 | 209739
10 | 46:36.40 | 4:57.30 | 209740 | 232044
11 | 51:33.70 | 2:33.39 | 232045 | 243558
12 | 54:07.34 | 4:12.38 | 243559 | 262496
13 | 58:19.72 | 4:26.18 | 262497 | 282464
14 | 62:46.15 | 5:33.62 | 282465 | 307501
15 | 68:20.02 | 6:10.48 | 307502 | 335299


Range status and errors

Selected range

Filename Z:\by Necromandus\VA - And Back To Earth Again - Ten Years Of Meteor City (Disc 1).wav

Peak level 100.0 %
Extraction speed 3.3 X
Range quality 100.0 %
Test CRC CBD6B8F1
Copy CRC CBD6B8F1
Copy OK

No errors occurred


AccurateRip summary

Track 1 accurately ripped (confidence 2) [005299D3] (AR v2)
Track 2 accurately ripped (confidence 2) [F5D3F289] (AR v2)
Track 3 accurately ripped (confidence 2) [236D44A3] (AR v2)
Track 4 accurately ripped (confidence 2) [2A14B941] (AR v2)
Track 5 accurately ripped (confidence 2) [3E8564F2] (AR v2)
Track 6 accurately ripped (confidence 2) [2F815AAF] (AR v2)
Track 7 accurately ripped (confidence 2) [EED8F863] (AR v2)
Track 8 accurately ripped (confidence 2) [51F47762] (AR v2)
Track 9 accurately ripped (confidence 2) [DFAA4570] (AR v2)
Track 10 accurately ripped (confidence 2) [7F3AAC68] (AR v2)
Track 11 accurately ripped (confidence 2) [8E21365B] (AR v2)
Track 12 accurately ripped (confidence 2) [981ACC58] (AR v2)
Track 13 accurately ripped (confidence 2) [FBCE09E6] (AR v2)
Track 14 accurately ripped (confidence 2) [481EDAA7] (AR v2)
Track 15 accurately ripped (confidence 2) [4BBEA600] (AR v2)

All tracks accurately ripped

End of status report

–– CUETools DB Plugin V2.1.6

[CTDB TOCID: 9NQUQuXfNU23xTOlZ8UMqMnH3QY-] found
Submit result: 9NQUQuXfNU23xTOlZ8UMqMnH3QY- has been confirmed
Track | CTDB Status
1 | (3/3) Accurately ripped
2 | (3/3) Accurately ripped
3 | (3/3) Accurately ripped
4 | (3/3) Accurately ripped
5 | (3/3) Accurately ripped
6 | (3/3) Accurately ripped
7 | (3/3) Accurately ripped
8 | (3/3) Accurately ripped
9 | (3/3) Accurately ripped
10 | (3/3) Accurately ripped
11 | (3/3) Accurately ripped
12 | (3/3) Accurately ripped
13 | (3/3) Accurately ripped
14 | (3/3) Accurately ripped
15 | (3/3) Accurately ripped


==== Log checksum 58F652B81F587045F5136CC0108E42BAFACEA8F8AD36500AF750ACF631E35AD3 ====


CD2 Tracklist :

1. Unida - Delta Alba Plex - 4:38
2. The Atomic Bitchwax - The Destroyer - 2:59
3. Eternal Elysium - W.T.G.B. - 6:23
4. Blind Dog - Don't Ask Me Where I Stand - 5:03
5. Cosmosquad - Murders In The Rue Morgue - 4:32
6. The Hidden Hand - Five Points - 4:23
7. Lowrider - Shivaree - 5:50
8. Las Cruces - In My Sadness - 4:00
9. Spiritu - Latitude - 8:34
10. I Are Droid - Serenade - 3:47
11. Spirit Caravan - No Hope Goat Farm - 3:46
12. The Ribeye Brothers - Last Place Champs - 2:58
13. Lowrider - Texas, Pt. 1 & 2 - 7:34
14. Truckfighters - In Search Of (The) - 3:37
15. Solace - Once Around The Sun - 6:28

Exact Audio Copy V1.3 from 2. September 2016

EAC extraction logfile from 10. October 2017, 12:52

Various / … And Back To Earth Again: Ten Years Of Meteor City (Disc 2)

Used drive : TSSTcorpCDDVDW SH-S223F Adapter: 1 ID: 0

Read mode : Secure
Utilize accurate stream : Yes
Defeat audio cache : Yes
Make use of C2 pointers : No

Read offset correction : 6
Overread into Lead-In and Lead-Out : No
Fill up missing offset samples with silence : Yes
Delete leading and trailing silent blocks : No
Null samples used in CRC calculations : Yes
Used interface : Native Win32 interface for Win NT & 2000

Used output format : Internal WAV Routines
Sample format : 44.100 Hz; 16 Bit; Stereo


TOC of the extracted CD

Track | Start | Length | Start sector | End sector
––––––––––––––––––––––––––––-
1 | 0:00.00 | 4:38.00 | 0 | 20849
2 | 4:38.00 | 2:59.25 | 20850 | 34299
3 | 7:37.25 | 6:23.07 | 34300 | 63031
4 | 14:00.32 | 5:03.28 | 63032 | 85784
5 | 19:03.60 | 4:32.20 | 85785 | 106204
6 | 23:36.05 | 4:22.62 | 106205 | 125916
7 | 27:58.67 | 5:50.03 | 125917 | 152169
8 | 33:48.70 | 3:59.65 | 152170 | 170159
9 | 37:48.60 | 8:34.30 | 170160 | 208739
10 | 46:23.15 | 3:47.37 | 208740 | 225801
11 | 50:10.52 | 3:45.65 | 225802 | 242741
12 | 53:56.42 | 2:58.18 | 242742 | 256109
13 | 56:54.60 | 7:34.27 | 256110 | 290186
14 | 64:29.12 | 3:36.58 | 290187 | 306444
15 | 68:05.70 | 6:27.74 | 306445 | 335543


Range status and errors

Selected range

Filename Z:\by Necromandus\VA - And Back To Earth Again - Ten Years Of Meteor City (Disc 2).wav

Peak level 100.0 %
Extraction speed 7.9 X
Range quality 100.0 %
Test CRC 6FB9B0B3
Copy CRC 6FB9B0B3
Copy OK

No errors occurred


AccurateRip summary

Track 1 accurately ripped (confidence 2) [E8B3CE07] (AR v2)
Track 2 accurately ripped (confidence 2) [41BAC7A1] (AR v2)
Track 3 accurately ripped (confidence 2) [C227FE5E] (AR v2)
Track 4 accurately ripped (confidence 2) [D13968C9] (AR v2)
Track 5 accurately ripped (confidence 2) [3129DCF0] (AR v2)
Track 6 accurately ripped (confidence 2) [0107DB55] (AR v2)
Track 7 accurately ripped (confidence 2) [E2394AE7] (AR v2)
Track 8 accurately ripped (confidence 2) [4D3D76B6] (AR v2)
Track 9 accurately ripped (confidence 2) [7D68D941] (AR v2)
Track 10 accurately ripped (confidence 2) [D8A0EC70] (AR v2)
Track 11 accurately ripped (confidence 2) [A4A523D1] (AR v2)
Track 12 accurately ripped (confidence 2) [352D41F4] (AR v2)
Track 13 accurately ripped (confidence 2) [A973A156] (AR v2)
Track 14 accurately ripped (confidence 2) [9A7A8D22] (AR v2)
Track 15 accurately ripped (confidence 2) [3FDBEA38] (AR v2)

All tracks accurately ripped

End of status report

–– CUETools DB Plugin V2.1.6

[CTDB TOCID: Q.rtmJdvoYPxdkjrd6qLxx4BA20-] found
Submit result: Q.rtmJdvoYPxdkjrd6qLxx4BA20- has been confirmed
Track | CTDB Status
1 | (4/4) Accurately ripped
2 | (4/4) Accurately ripped
3 | (4/4) Accurately ripped
4 | (4/4) Accurately ripped
5 | (4/4) Accurately ripped
6 | (4/4) Accurately ripped
7 | (4/4) Accurately ripped
8 | (4/4) Accurately ripped
9 | (4/4) Accurately ripped
10 | (4/4) Accurately ripped
11 | (4/4) Accurately ripped
12 | (4/4) Accurately ripped
13 | (4/4) Accurately ripped
14 | (4/4) Accurately ripped
15 | (4/4) Accurately ripped


==== Log checksum 848238D56215A3F2D134500C20952AF5C251CB7F6078CDE2387CA8694E038CE5 ====


CD3 Tracklist :

1. Spirit Caravan - Re-Alignment/Higher Power - 2:28
2. Nebula - Full Throttle - 4:10
3. Spiritu - Objects Of Desire - 4:08
4. Abdullah - They, The Tyrants - 3:40
5. Blind Dog - Blend - 5:42
6. Sixty Watt Shaman - Red Colony () - 6:25
7. Orquesta Del Desierto - Reaching Out - 3:09
8. The Mushroom River Band - 29' 2 1/2' - 5:10
9. Village Of Dead Roads - Blind Albino - 6:27
10. Solace - Man Dog - 6:37
11. Blind Dog - Beyond My Reach - 6:10
12. 7Zuma7 - Shotgun - 6:29
13. Slaprocket - The Seed - 4:29
14. Spirit Caravan - The Last Embrace - 4:20
15. Lowrider - Upon The Dune - 5:42

Exact Audio Copy V1.3 from 2. September 2016

EAC extraction logfile from 10. October 2017, 13:15

Various / … And Back To Earth Again: Ten Years Of Meteor City (Disc 3)

Used drive : TSSTcorpCDDVDW SH-S223F Adapter: 1 ID: 0

Read mode : Secure
Utilize accurate stream : Yes
Defeat audio cache : Yes
Make use of C2 pointers : No

Read offset correction : 6
Overread into Lead-In and Lead-Out : No
Fill up missing offset samples with silence : Yes
Delete leading and trailing silent blocks : No
Null samples used in CRC calculations : Yes
Used interface : Native Win32 interface for Win NT & 2000

Used output format : Internal WAV Routines
Sample format : 44.100 Hz; 16 Bit; Stereo


TOC of the extracted CD

Track | Start | Length | Start sector | End sector
––––––––––––––––––––––––––––-
1 | 0:00.00 | 2:27.62 | 0 | 11086
2 | 2:27.62 | 4:09.45 | 11087 | 29806
3 | 6:37.32 | 4:07.60 | 29807 | 48391
4 | 10:45.17 | 3:40.00 | 48392 | 64891
5 | 14:25.17 | 5:41.55 | 64892 | 90521
6 | 20:06.72 | 6:24.48 | 90522 | 119369
7 | 26:31.45 | 3:09.37 | 119370 | 133581
8 | 29:41.07 | 5:10.15 | 133582 | 156846
9 | 34:51.22 | 6:27.15 | 156847 | 185886
10 | 41:18.37 | 6:37.25 | 185887 | 215686
11 | 47:55.62 | 6:09.63 | 215687 | 243424
12 | 54:05.50 | 6:28.52 | 243425 | 272576
13 | 60:34.27 | 4:28.38 | 272577 | 292714
14 | 65:02.65 | 4:19.65 | 292715 | 312204
15 | 69:22.55 | 5:42.07 | 312205 | 337861


Range status and errors

Selected range

Filename Z:\by Necromandus\VA - And Back To Earth Again - Ten Years Of Meteor City (Disc 3).wav

Peak level 100.0 %
Extraction speed 7.5 X
Range quality 99.9 %
Test CRC 09D811F2
Copy CRC 09D811F2
Copy OK

No errors occurred


AccurateRip summary

Track 1 accurately ripped (confidence 2) [48629B36] (AR v2)
Track 2 accurately ripped (confidence 2) [7C929917] (AR v2)
Track 3 accurately ripped (confidence 2) [E2C4C3C4] (AR v2)
Track 4 accurately ripped (confidence 2) [67000338] (AR v2)
Track 5 accurately ripped (confidence 2) [A4726B8A] (AR v2)
Track 6 accurately ripped (confidence 2) [1D90FCB4] (AR v2)
Track 7 accurately ripped (confidence 2) [F4B7082D] (AR v2)
Track 8 accurately ripped (confidence 2) [BF954064] (AR v2)
Track 9 accurately ripped (confidence 2) [D23C4590] (AR v2)
Track 10 accurately ripped (confidence 2) [BE6D7DF8] (AR v2)
Track 11 accurately ripped (confidence 2) [C24991D7] (AR v2)
Track 12 accurately ripped (confidence 2) [C5785B50] (AR v2)
Track 13 accurately ripped (confidence 2) [7988A749] (AR v2)
Track 14 accurately ripped (confidence 2) [AC5AD713] (AR v2)
Track 15 accurately ripped (confidence 2) [B3348FBD] (AR v2)

All tracks accurately ripped

End of status report

–– CUETools DB Plugin V2.1.6

[CTDB TOCID: iFal6HKAYQ4XBbtIP5bHLc1pIOY-] found
Submit result: iFal6HKAYQ4XBbtIP5bHLc1pIOY- has been confirmed
Track | CTDB Status
1 | (3/3) Accurately ripped
2 | (3/3) Accurately ripped
3 | (3/3) Accurately ripped
4 | (3/3) Accurately ripped
5 | (3/3) Accurately ripped
6 | (3/3) Accurately ripped
7 | (3/3) Accurately ripped
8 | (3/3) Accurately ripped
9 | (3/3) Accurately ripped
10 | (3/3) Accurately ripped
11 | (3/3) Accurately ripped
12 | (3/3) Accurately ripped
13 | (3/3) Accurately ripped
14 | (3/3) Accurately ripped
15 | (3/3) Accurately ripped


==== Log checksum 5AB1BF1929828ED5EFEA72BDE61CD4B536E003DF057B213943544F5F66643DCF ====