Subcategories

VA - Best Of Lounge Music (2012) 6 CD Box Set

Posted By: Designol
VA - Best Of Lounge Music (2012) 6 CD Box Set

VA - Best Of Lounge Music (2012) 6 CD Box Set
EAC | FLAC | Tracks (Cue&Log) ~ 2.75 Gb | Mp3 (CBR320) ~ 1.02 Gb | Scans ~ 13 Mb | 07:32:56
Lounge, Easy Listening, Bossa Nova, Vocal Jazz, Jazz-Pop, Chill Out | Label: Wagram | # 3284592

120 tracks of best lounge music, in six parts: 'Cocktail Time', 'Electro Swing', 'Vintage Lounge', 'Brazilian Sounds', 'Chic & Glamour', 'Spirit Of Chill-Out'.

VA - Best Of Lounge Music (2012) 6 CD Box Set

VA - Best Of Lounge Music (2012) 6 CD Box Set


Tracklist CD1 'Cocktail Time':

01. Irma - I Know (3:00)
02. The Bamboos Feat. Aloe Blacc - Where Does The Time Go? (3:35)
03. Belleruche - Minor Swing (2:58)
04. Kinny & Horne - Why Me? (3:25)
05. Dj Vadim Feat. Sarah Jones - Your Revolution (4:52)
06. Mr. Scruff - Get A Move On (3:24)
07. The Herbaliser Feat. Seaming To - Something Wicked This Way Comes (3:35)
08. Alif Tree - Reality (4:18)
09. The Mighty Bop - Infrarouge (4:09)
10. Tek 9 - We're Gettin Down (5:01)
11. Mocky - Birds Of A Feather (4:29)
12. Anna Luca - Miracle Of Love (3:57)
13. Alex Gopher - The Child (4:35)
14. Isaac Aesili - With You In My Bed (3:18)
15. Uptown Funk Empire - Boogie (2:32)
16. Weeland & The Urban Soul Collective - Lil' Sumthin (3:35)
17. Victor Davies - Better Place (4:33)
18. Nostalgia 77 Feat. Alice Russell - Seven Nation Army (4:21)
19. Ennio Morricone - La Cugina (The Amalgamation Of Sound Remix) (3:30)
20. Kid Loco - Love Me Sweet (3:55)


Exact Audio Copy V1.0 beta 1 from 15. November 2010

EAC extraction logfile from 2. April 2013, 23:26

Various / Best Of Lounge Music - CD1 - Cocktail Time

Used drive : ASUS DRW-24B3ST Adapter: 1 ID: 2

Read mode : Secure
Utilize accurate stream : Yes
Defeat audio cache : Yes
Make use of C2 pointers : No

Read offset correction : 6
Overread into Lead-In and Lead-Out : No
Fill up missing offset samples with silence : Yes
Delete leading and trailing silent blocks : No
Null samples used in CRC calculations : Yes
Used interface : Native Win32 interface for Win NT & 2000
Gap handling : Appended to previous track

Used output format : User Defined Encoder
Selected bitrate : 896 kBit/s
Quality : High
Add ID3 tag : No
Command line compressor : C:\Program Files (x86)\Exact Audio Copy\Flac\flac.exe
Additional command line options : -8 -V -T "ARTIST=%a" -T "TITLE=%t" -T "ALBUM=%g" -T "DATE=%y" -T "TRACKNUMBER=%n" -T "GENRE=%m" -T "COMMENT=ripped by Oleandris" %s


TOC of the extracted CD

Track | Start | Length | Start sector | End sector
––––––––––––––––––––––––––––-
1 | 0:00.00 | 3:00.32 | 0 | 13531
2 | 3:00.32 | 3:35.14 | 13532 | 29670
3 | 6:35.46 | 2:58.18 | 29671 | 43038
4 | 9:33.64 | 3:24.54 | 43039 | 58392
5 | 12:58.43 | 4:52.30 | 58393 | 80322
6 | 17:50.73 | 3:23.71 | 80323 | 95618
7 | 21:14.69 | 3:35.21 | 95619 | 111764
8 | 24:50.15 | 4:18.04 | 111765 | 131118
9 | 29:08.19 | 4:09.32 | 131119 | 149825
10 | 33:17.51 | 5:00.55 | 149826 | 172380
11 | 38:18.31 | 4:29.21 | 172381 | 192576
12 | 42:47.52 | 3:57.30 | 192577 | 210381
13 | 46:45.07 | 4:34.62 | 210382 | 230993
14 | 51:19.69 | 3:17.42 | 230994 | 245810
15 | 54:37.36 | 2:31.60 | 245811 | 257195
16 | 57:09.21 | 3:35.33 | 257196 | 273353
17 | 60:44.54 | 4:32.57 | 273354 | 293810
18 | 65:17.36 | 4:20.60 | 293811 | 313370
19 | 69:38.21 | 3:29.73 | 313371 | 329118
20 | 73:08.19 | 3:55.13 | 329119 | 346756


Track 1

Filename F:\ЗАГРУЗКИ\ Best Of Lounge Music 6CD (2012)\CD1 - Cocktail Time\01. Irma - I Know.wav

Pre-gap length 0:00:02.00

Peak level 88.6 %
Extraction speed 3.6 X
Track quality 100.0 %
Test CRC 2226A67D
Copy CRC 2226A67D
Track not present in AccurateRip database
Copy OK

Track 2

Filename F:\ЗАГРУЗКИ\ Best Of Lounge Music 6CD (2012)\CD1 - Cocktail Time\02. The Bamboos Feat. Aloe Blacc - Where Does The Time Go.wav

Peak level 92.3 %
Extraction speed 3.2 X
Track quality 99.9 %
Test CRC D4B7272B
Copy CRC D4B7272B
Track not present in AccurateRip database
Copy OK

Track 3

Filename F:\ЗАГРУЗКИ\ Best Of Lounge Music 6CD (2012)\CD1 - Cocktail Time\03. Belleruche - Minor Swing.wav

Peak level 95.6 %
Extraction speed 4.1 X
Track quality 100.0 %
Test CRC 1B8186B9
Copy CRC 1B8186B9
Track not present in AccurateRip database
Copy OK

Track 4

Filename F:\ЗАГРУЗКИ\ Best Of Lounge Music 6CD (2012)\CD1 - Cocktail Time\04. Kinny & Horne - Why Me.wav

Peak level 96.0 %
Extraction speed 4.5 X
Track quality 100.0 %
Test CRC EB5EF464
Copy CRC EB5EF464
Track not present in AccurateRip database
Copy OK

Track 5

Filename F:\ЗАГРУЗКИ\ Best Of Lounge Music 6CD (2012)\CD1 - Cocktail Time\05. Dj Vadim Feat. Sarah Jones - Your Revolution.wav

Peak level 97.7 %
Extraction speed 5.1 X
Track quality 100.0 %
Test CRC 5222C185
Copy CRC 5222C185
Track not present in AccurateRip database
Copy OK

Track 6

Filename F:\ЗАГРУЗКИ\ Best Of Lounge Music 6CD (2012)\CD1 - Cocktail Time\06. Mr. Scruff - Get A Move On.wav

Peak level 95.6 %
Extraction speed 5.1 X
Track quality 100.0 %
Test CRC CAE81E1B
Copy CRC CAE81E1B
Track not present in AccurateRip database
Copy OK

Track 7

Filename F:\ЗАГРУЗКИ\ Best Of Lounge Music 6CD (2012)\CD1 - Cocktail Time\07. The Herbaliser Feat. Seaming To - Something Wicked This Way Comes.wav

Peak level 97.7 %
Extraction speed 5.4 X
Track quality 100.0 %
Test CRC EC614DFC
Copy CRC EC614DFC
Track not present in AccurateRip database
Copy OK

Track 8

Filename F:\ЗАГРУЗКИ\ Best Of Lounge Music 6CD (2012)\CD1 - Cocktail Time\08. Alif Tree - Reality.wav

Peak level 66.9 %
Extraction speed 5.8 X
Track quality 100.0 %
Test CRC E62E4851
Copy CRC E62E4851
Track not present in AccurateRip database
Copy OK

Track 9

Filename F:\ЗАГРУЗКИ\ Best Of Lounge Music 6CD (2012)\CD1 - Cocktail Time\09. The Mighty Bop - Infrarouge.wav

Peak level 97.7 %
Extraction speed 6.0 X
Track quality 100.0 %
Test CRC FA64AFE6
Copy CRC FA64AFE6
Track not present in AccurateRip database
Copy OK

Track 10

Filename F:\ЗАГРУЗКИ\ Best Of Lounge Music 6CD (2012)\CD1 - Cocktail Time\10. Tek 9 - We're Gettin Down.wav

Peak level 97.7 %
Extraction speed 6.4 X
Track quality 100.0 %
Test CRC BC4D9F2B
Copy CRC BC4D9F2B
Track not present in AccurateRip database
Copy OK

Track 11

Filename F:\ЗАГРУЗКИ\ Best Of Lounge Music 6CD (2012)\CD1 - Cocktail Time\11. Mocky - Birds Of A Feather.wav

Peak level 97.7 %
Extraction speed 5.3 X
Track quality 99.9 %
Test CRC 14353ED0
Copy CRC 14353ED0
Track not present in AccurateRip database
Copy OK

Track 12

Filename F:\ЗАГРУЗКИ\ Best Of Lounge Music 6CD (2012)\CD1 - Cocktail Time\12. Anna Luca - Miracle Of Love.wav

Peak level 97.7 %
Extraction speed 6.7 X
Track quality 100.0 %
Test CRC 831F522A
Copy CRC 831F522A
Track not present in AccurateRip database
Copy OK

Track 13

Filename F:\ЗАГРУЗКИ\ Best Of Lounge Music 6CD (2012)\CD1 - Cocktail Time\13. Alex Gopher - The Child.wav

Peak level 91.5 %
Extraction speed 7.0 X
Track quality 100.0 %
Test CRC 1AEA25E6
Copy CRC 1AEA25E6
Track not present in AccurateRip database
Copy OK

Track 14

Filename F:\ЗАГРУЗКИ\ Best Of Lounge Music 6CD (2012)\CD1 - Cocktail Time\14. Isaac Aesili - With You In My Bed.wav

Peak level 95.5 %
Extraction speed 5.8 X
Track quality 99.9 %
Test CRC 688F5302
Copy CRC 688F5302
Track not present in AccurateRip database
Copy OK

Track 15

Filename F:\ЗАГРУЗКИ\ Best Of Lounge Music 6CD (2012)\CD1 - Cocktail Time\15. Uptown Funk Empire - Boogie.wav

Peak level 97.7 %
Extraction speed 6.7 X
Track quality 100.0 %
Test CRC FBC76776
Copy CRC FBC76776
Track not present in AccurateRip database
Copy OK

Track 16

Filename F:\ЗАГРУЗКИ\ Best Of Lounge Music 6CD (2012)\CD1 - Cocktail Time\16. Weeland & The Urban Soul Collective - Lil' Sumthin.wav

Peak level 97.7 %
Extraction speed 7.2 X
Track quality 100.0 %
Test CRC FB39D396
Copy CRC FB39D396
Track not present in AccurateRip database
Copy OK

Track 17

Filename F:\ЗАГРУЗКИ\ Best Of Lounge Music 6CD (2012)\CD1 - Cocktail Time\17. Victor Davies - Better Place.wav

Peak level 97.7 %
Extraction speed 7.6 X
Track quality 100.0 %
Test CRC 09428154
Copy CRC 09428154
Track not present in AccurateRip database
Copy OK

Track 18

Filename F:\ЗАГРУЗКИ\ Best Of Lounge Music 6CD (2012)\CD1 - Cocktail Time\18. Nostalgia 77 Feat. Alice Russell - Seven Nation Army.wav

Peak level 96.7 %
Extraction speed 7.8 X
Track quality 100.0 %
Test CRC EFB73F71
Copy CRC EFB73F71
Track not present in AccurateRip database
Copy OK

Track 19

Filename F:\ЗАГРУЗКИ\ Best Of Lounge Music 6CD (2012)\CD1 - Cocktail Time\19. Ennio Marricone - La Cugina (he Amalgamation Of Sound Remix).wav

Peak level 97.7 %
Extraction speed 7.6 X
Track quality 100.0 %
Test CRC 9A9BA02B
Copy CRC 9A9BA02B
Track not present in AccurateRip database
Copy OK

Track 20

Filename F:\ЗАГРУЗКИ\ Best Of Lounge Music 6CD (2012)\CD1 - Cocktail Time\20. Kid Loco - Love Me Sweet.wav

Peak level 94.9 %
Extraction speed 8.1 X
Track quality 100.0 %
Test CRC DD00D45A
Copy CRC DD00D45A
Track not present in AccurateRip database
Copy OK


None of the tracks are present in the AccurateRip database

No errors occurred

End of status report

==== Log checksum C760B0383BB16ED2EFD7AA9B3CA119A07F890310B07E9103C5847421C659F970 ====

foobar2000 1.2 / Dynamic Range Meter 1.1.1
log date: 2013-04-29 21:04:12

––––––––––––––––––––––––––––––––––––––––
Analyzed: Alex Gopher / Best Of Lounge Music - CD1 - Cocktail Time (1)
Alif Tree / Best Of Lounge Music - CD1 - Cocktail Time (2)
Anna Luca / Best Of Lounge Music - CD1 - Cocktail Time (3)
Belleruche / Best Of Lounge Music - CD1 - Cocktail Time (4)
Dj Vadim Feat. Sarah Jones / Best Of Lounge Music - CD1 - Cocktail Time (5)
Ennio Marricone / Best Of Lounge Music - CD1 - Cocktail Time (6)
Irma / Best Of Lounge Music - CD1 - Cocktail Time (7)
Isaac Aesili / Best Of Lounge Music - CD1 - Cocktail Time (8)
Kid Loco / Best Of Lounge Music - CD1 - Cocktail Time (9)
Kinny & Horne / Best Of Lounge Music - CD1 - Cocktail Time (10)
Mocky / Best Of Lounge Music - CD1 - Cocktail Time (11)
Mr. Scruff / Best Of Lounge Music - CD1 - Cocktail Time (12)
Nostalgia 77 Feat. Alice Russell / Best Of Lounge Music - CD1 - Cocktail Time (13)
Tek 9 / Best Of Lounge Music - CD1 - Cocktail Time (14)
The Bamboos Feat. Aloe Blacc / Best Of Lounge Music - CD1 - Cocktail Time (15)
The Herbaliser Feat. Seaming To / Best Of Lounge Music - CD1 - Cocktail Time (16)
The Mighty Bop / Best Of Lounge Music - CD1 - Cocktail Time (17)
Uptown Funk Empire / Best Of Lounge Music - CD1 - Cocktail Time (18)
Victor Davies / Best Of Lounge Music - CD1 - Cocktail Time (19)
Weeland & The Urban Soul Collective / Best Of Lounge Music - CD1 - Cocktail Time (20)
––––––––––––––––––––––––––––––––––––––––

DR Peak RMS Duration Track
––––––––––––––––––––––––––––––––––––––––
DR8 -0.77 dB -10.95 dB 4:35 13-The Child
DR5 -3.49 dB -10.45 dB 4:18 08-Reality
DR9 -0.20 dB -11.60 dB 3:57 12-Miracle Of Love
DR7 -0.39 dB -9.23 dB 2:58 03-Minor Swing
DR7 -0.20 dB -8.86 dB 4:52 05-Your Revolution
DR4 -0.20 dB -6.41 dB 3:30 19-La Cugina (he Amalgamation Of Sound Remix)
DR6 -1.05 dB -9.75 dB 3:00 01-I Know
DR6 -0.40 dB -7.29 dB 3:18 14-With You In My Bed
DR6 -0.45 dB -8.61 dB 3:55 20-Love Me Sweet
DR9 -0.35 dB -10.92 dB 3:25 04-Why Me?
DR8 -0.20 dB -10.49 dB 4:29 11-Birds Of A Feather
DR7 -0.39 dB -8.23 dB 3:24 06-Get A Move On
DR7 -0.29 dB -8.36 dB 4:21 18-Seven Nation Army
DR10 -0.20 dB -11.70 dB 5:01 10-We're Gettin Down
DR7 -0.69 dB -8.97 dB 3:35 02-Where Does The Time Go?
DR7 -0.20 dB -9.34 dB 3:35 07-Something Wicked This Way Comes
DR6 -0.20 dB -8.73 dB 4:09 09-Infrarouge
DR9 -0.20 dB -10.21 dB 2:32 15-Boogie
DR9 -0.20 dB -10.10 dB 4:33 17-Better Place
DR8 -0.20 dB -10.32 dB 3:35 16-Lil' Sumthin
––––––––––––––––––––––––––––––––––––––––

Number of tracks: 20
Official DR value: DR7

Samplerate: 44100 Hz
Channels: 2
Bits per sample: 16
Bitrate: 736 kbps
Codec: FLAC
================================================================================



Tracklist CD2 'Electro Swing':

01. Andrew Sisters - Rum & Coca Cola (Jojo Effect Remix) (3:08)
02. Tape Five - Tequila (Gardener Of Delight Remix) (4:51)
03. Boogalox - Chez Les Ye-Ye (4:29)
04. Fred Astaire - Puttin' On The Ritz (Club Des Belugas Remix) (4:04)
05. Bart & Baker - Istanbul (Not Not Constantinople) (3:23)
06. Jojo Effect - I Shoudn't I Wouldn't (Club Des Belugas Remix) (3:50)
07. Bajka - The Barrister's Dream (4:34)
08. Bebo Best & The Super Lounge Orchestra - That's The Way I Like It (4:43)
09. Club Des Belugas Feat. Ester Lada - Save A Little Love For Me (3:32)
10. Brenda Boykin - Hard Swing Travellin' Man (4:54)
11. Bajka - The Landing (3:57)
12. Bebo Best & The Super Lounge Orchestra - Come As You Are (3:38)
13. Samp Brothers - Jazz Di Mazzaluna (Radio Mix) (3:59)
14. Lazlo - Busy Line (4:12)
15. Bart & Baker Feat. On The keys - Peek A Boo (2:49)
16. Lionel Hampton - It Don't Mean A Thing (If It Ain't Got That Swing) (4:25)
17. Anita O'Day - Peunut Vendor (Club Des Belugas Rmix) (3:41)
18. Jojo Effect - The Beat Goes On (3:40)
19. Tape Five Feat. Yuliet Topaz - Madame Coquette (3:31)
20. Bart & Barker Feat. Pierre Santini & Lada Redstar - Allez Viens (Via Con Me) (3:29)


Exact Audio Copy V1.0 beta 1 from 15. November 2010

EAC extraction logfile from 3. April 2013, 8:50

Various / Best Of Lounge Music - CD2 - Electro Swing

Used drive : PLEXTOR DVDR PX-L890SA Adapter: 1 ID: 4

Read mode : Secure
Utilize accurate stream : Yes
Defeat audio cache : Yes
Make use of C2 pointers : No

Read offset correction : 6
Overread into Lead-In and Lead-Out : No
Fill up missing offset samples with silence : Yes
Delete leading and trailing silent blocks : No
Null samples used in CRC calculations : Yes
Used interface : Native Win32 interface for Win NT & 2000
Gap handling : Appended to previous track

Used output format : User Defined Encoder
Selected bitrate : 896 kBit/s
Quality : High
Add ID3 tag : No
Command line compressor : C:\Program Files (x86)\Exact Audio Copy\Flac\flac.exe
Additional command line options : -8 -V -T "ARTIST=%a" -T "TITLE=%t" -T "ALBUM=%g" -T "DATE=%y" -T "TRACKNUMBER=%n" -T "GENRE=%m" -T "COMMENT=ripped by Oleandris" %s


TOC of the extracted CD

Track | Start | Length | Start sector | End sector
––––––––––––––––––––––––––––-
1 | 0:00.00 | 3:08.26 | 0 | 14125
2 | 3:08.26 | 4:50.47 | 14126 | 35922
3 | 7:58.73 | 4:28.53 | 35923 | 56075
4 | 12:27.51 | 4:04.30 | 56076 | 74405
5 | 16:32.06 | 3:23.24 | 74406 | 89654
6 | 19:55.30 | 3:50.16 | 89655 | 106920
7 | 23:45.46 | 4:33.73 | 106921 | 127468
8 | 28:19.44 | 4:42.72 | 127469 | 148690
9 | 33:02.41 | 3:32.36 | 148691 | 164626
10 | 36:35.02 | 4:54.08 | 164627 | 186684
11 | 41:29.10 | 3:56.38 | 186685 | 204422
12 | 45:25.48 | 3:38.21 | 204423 | 220793
13 | 49:03.69 | 3:58.39 | 220794 | 238682
14 | 53:02.33 | 4:11.65 | 238683 | 257572
15 | 57:14.23 | 2:49.07 | 257573 | 270254
16 | 60:03.30 | 4:24.38 | 270255 | 290092
17 | 64:27.68 | 3:41.37 | 290093 | 306704
18 | 68:09.30 | 3:39.64 | 306705 | 323193
19 | 71:49.19 | 3:30.64 | 323194 | 339007
20 | 75:20.08 | 3:29.23 | 339008 | 354705


Track 1

Filename F:\ЗАГРУЗКИ\ Best Of Lounge Music 6CD (2012)\CD2 - Electro Swing\01. Andrew Sisters - Rum & Coca Cola (Jojo Effect Remix).wav

Pre-gap length 0:00:02.00

Peak level 97.7 %
Extraction speed 5.4 X
Track quality 100.0 %
Test CRC F153599A
Copy CRC F153599A
Track not present in AccurateRip database
Copy OK

Track 2

Filename F:\ЗАГРУЗКИ\ Best Of Lounge Music 6CD (2012)\CD2 - Electro Swing\02. Tape Five - Tequila (Gardener Of Delight Remix).wav

Peak level 97.0 %
Extraction speed 6.3 X
Track quality 100.0 %
Test CRC 6B83058D
Copy CRC 6B83058D
Track not present in AccurateRip database
Copy OK

Track 3

Filename F:\ЗАГРУЗКИ\ Best Of Lounge Music 6CD (2012)\CD2 - Electro Swing\03. Boogalox - Chez Les Ye-Ye.wav

Peak level 94.5 %
Extraction speed 6.8 X
Track quality 100.0 %
Test CRC 3806C8F8
Copy CRC 3806C8F8
Track not present in AccurateRip database
Copy OK

Track 4

Filename F:\ЗАГРУЗКИ\ Best Of Lounge Music 6CD (2012)\CD2 - Electro Swing\04. Fred Astaire - Puttin' On The Ritz (Club Des Belugas Remix).wav

Peak level 97.0 %
Extraction speed 5.9 X
Track quality 99.9 %
Test CRC 92E5EC80
Copy CRC 92E5EC80
Track not present in AccurateRip database
Copy OK

Track 5

Filename F:\ЗАГРУЗКИ\ Best Of Lounge Music 6CD (2012)\CD2 - Electro Swing\05. Bart & Baker - Istanbul (Not Not Constantinople).wav

Peak level 91.3 %
Extraction speed 7.3 X
Track quality 100.0 %
Test CRC 489DFDB9
Copy CRC 489DFDB9
Track not present in AccurateRip database
Copy OK

Track 6

Filename F:\ЗАГРУЗКИ\ Best Of Lounge Music 6CD (2012)\CD2 - Electro Swing\06. Jojo Effect - I Shoudn't I Wouldn't (Club Des Belugas Remix).wav

Peak level 97.7 %
Extraction speed 7.9 X
Track quality 100.0 %
Test CRC 4A4336CA
Copy CRC 4A4336CA
Track not present in AccurateRip database
Copy OK

Track 7

Filename F:\ЗАГРУЗКИ\ Best Of Lounge Music 6CD (2012)\CD2 - Electro Swing\07. Bajka - The Barrister's Dream.wav

Peak level 94.0 %
Extraction speed 8.3 X
Track quality 100.0 %
Test CRC 32EB47D5
Copy CRC 32EB47D5
Track not present in AccurateRip database
Copy OK

Track 8

Filename F:\ЗАГРУЗКИ\ Best Of Lounge Music 6CD (2012)\CD2 - Electro Swing\08. Bebo Best & The Super Lounge Orchestra - That's The Way I Like It.wav

Peak level 97.7 %
Extraction speed 8.9 X
Track quality 100.0 %
Test CRC 5BE0EE03
Copy CRC 5BE0EE03
Track not present in AccurateRip database
Copy OK

Track 9

Filename F:\ЗАГРУЗКИ\ Best Of Lounge Music 6CD (2012)\CD2 - Electro Swing\09. Club Des Belugas Feat. Ester Lada - Save A Little Love For Me.wav

Peak level 97.7 %
Extraction speed 8.8 X
Track quality 100.0 %
Test CRC C29DA434
Copy CRC C29DA434
Track not present in AccurateRip database
Copy OK

Track 10

Filename F:\ЗАГРУЗКИ\ Best Of Lounge Music 6CD (2012)\CD2 - Electro Swing\10. Brenda Boykin - Hard Swing Travellin' Man.wav

Peak level 97.7 %
Extraction speed 9.6 X
Track quality 100.0 %
Test CRC 06895867
Copy CRC 06895867
Track not present in AccurateRip database
Copy OK

Track 11

Filename F:\ЗАГРУЗКИ\ Best Of Lounge Music 6CD (2012)\CD2 - Electro Swing\11. Bajka - The Landing.wav

Peak level 93.2 %
Extraction speed 9.7 X
Track quality 100.0 %
Test CRC 3575C7A9
Copy CRC 3575C7A9
Track not present in AccurateRip database
Copy OK

Track 12

Filename F:\ЗАГРУЗКИ\ Best Of Lounge Music 6CD (2012)\CD2 - Electro Swing\12. Bebo Best & The Super Lounge Orchestra - Come As You Are.wav

Peak level 97.7 %
Extraction speed 9.8 X
Track quality 100.0 %
Test CRC D8716C49
Copy CRC D8716C49
Track not present in AccurateRip database
Copy OK

Track 13

Filename F:\ЗАГРУЗКИ\ Best Of Lounge Music 6CD (2012)\CD2 - Electro Swing\13. Samp Brothers - Jazz Di Mazzaluna (Radio Mix).wav

Peak level 97.7 %
Extraction speed 10.2 X
Track quality 100.0 %
Test CRC C40D1121
Copy CRC C40D1121
Track not present in AccurateRip database
Copy OK

Track 14

Filename F:\ЗАГРУЗКИ\ Best Of Lounge Music 6CD (2012)\CD2 - Electro Swing\14. Lazlo - Busy Line.wav

Peak level 97.7 %
Extraction speed 10.5 X
Track quality 100.0 %
Test CRC 1FBB943A
Copy CRC 1FBB943A
Track not present in AccurateRip database
Copy OK

Track 15

Filename F:\ЗАГРУЗКИ\ Best Of Lounge Music 6CD (2012)\CD2 - Electro Swing\15. Bart & Baker Feat. On The keys - Peek A Boo.wav

Peak level 97.7 %
Extraction speed 10.1 X
Track quality 100.0 %
Test CRC 4CA11488
Copy CRC 4CA11488
Track not present in AccurateRip database
Copy OK

Track 16

Filename F:\ЗАГРУЗКИ\ Best Of Lounge Music 6CD (2012)\CD2 - Electro Swing\16. Lionel Hampton - It Don't Mean A Thing (If It Ain't Got That Swing).wav

Peak level 97.7 %
Extraction speed 11.1 X
Track quality 100.0 %
Test CRC B2FD7E27
Copy CRC B2FD7E27
Track not present in AccurateRip database
Copy OK

Track 17

Filename F:\ЗАГРУЗКИ\ Best Of Lounge Music 6CD (2012)\CD2 - Electro Swing\17. Anita O'Day - Peunut Vendor (Club Des Belugas Rmix).wav

Peak level 94.8 %
Extraction speed 8.8 X
Track quality 99.9 %
Test CRC 361BFB2E
Copy CRC 361BFB2E
Track not present in AccurateRip database
Copy OK

Track 18

Filename F:\ЗАГРУЗКИ\ Best Of Lounge Music 6CD (2012)\CD2 - Electro Swing\18. Jojo Effect - The Beat Goes On.wav

Peak level 97.7 %
Extraction speed 11.2 X
Track quality 100.0 %
Test CRC 7FE81CB9
Copy CRC 7FE81CB9
Track not present in AccurateRip database
Copy OK

Track 19

Filename F:\ЗАГРУЗКИ\ Best Of Lounge Music 6CD (2012)\CD2 - Electro Swing\19. Tape Five Feat. Yuliet Topaz - Madame Coquette.wav

Peak level 93.8 %
Extraction speed 8.9 X
Track quality 99.9 %
Test CRC 5F581435
Copy CRC 5F581435
Track not present in AccurateRip database
Copy OK

Track 20

Filename F:\ЗАГРУЗКИ\ Best Of Lounge Music 6CD (2012)\CD2 - Electro Swing\20. Bart & Barker Feat. Pierre Santini & Lada Redstar - Allez Viens (Via Con Me).wav

Peak level 90.1 %
Extraction speed 11.7 X
Track quality 100.0 %
Test CRC 1D24652F
Copy CRC 1D24652F
Track not present in AccurateRip database
Copy OK


None of the tracks are present in the AccurateRip database

No errors occurred

End of status report

==== Log checksum D288112BA0F4A9E15B3C7F5524466F22C0CA86C4C4C7ADFC72A012F8058D3280 ====

foobar2000 1.2 / Dynamic Range Meter 1.1.1
log date: 2013-04-29 21:04:46

––––––––––––––––––––––––––––––––––––––––
Analyzed: Andrew Sisters / Best Of Lounge Music - CD2 - Electro Swing (1)
Anita O'Day / Best Of Lounge Music - CD2 - Electro Swing (2)
Bajka / Best Of Lounge Music - CD2 - Electro Swing (3-4)
Bart & Baker Feat. On The keys / Best Of Lounge Music - CD2 - Electro Swing (5)
Bart & Baker / Best Of Lounge Music - CD2 - Electro Swing (6)
Bart & Barker Feat. Pierre Santini & Lada Redstar / Best Of Lounge Music - CD2 - Electro Swing (7)
Bebo Best & The Super Lounge Orchestra / Best Of Lounge Music - CD2 - Electro Swing (8-9)
Boogalox / Best Of Lounge Music - CD2 - Electro Swing (10)
Brenda Boykin / Best Of Lounge Music - CD2 - Electro Swing (11)
Club Des Belugas Feat. Ester Lada / Best Of Lounge Music - CD2 - Electro Swing (12)
Fred Astaire / Best Of Lounge Music - CD2 - Electro Swing (13)
Jojo Effect / Best Of Lounge Music - CD2 - Electro Swing (14-15)
Lazlo / Best Of Lounge Music - CD2 - Electro Swing (16)
Lionel Hampton / Best Of Lounge Music - CD2 - Electro Swing (17)
Samp Brothers / Best Of Lounge Music - CD2 - Electro Swing (18)
Tape Five Feat. Yuliet Topaz / Best Of Lounge Music - CD2 - Electro Swing (19)
Tape Five / Best Of Lounge Music - CD2 - Electro Swing (20)
––––––––––––––––––––––––––––––––––––––––

DR Peak RMS Duration Track
––––––––––––––––––––––––––––––––––––––––
DR8 -0.20 dB -9.81 dB 3:08 01-Rum & Coca Cola (Jojo Effect Remix)
DR9 -0.46 dB -10.68 dB 3:41 17-Peunut Vendor (Club Des Belugas Rmix)
DR6 -0.53 dB -8.08 dB 4:34 07-The Barrister's Dream
DR7 -0.61 dB -8.88 dB 3:57 11-The Landing
DR7 -0.20 dB -8.21 dB 2:49 15-Peek A Boo
DR5 -0.78 dB -7.46 dB 3:23 05-Istanbul (Not Not Constantinople)
DR7 -0.90 dB -9.16 dB 3:29 20-Allez Viens (Via Con Me)
DR9 -0.20 dB -10.50 dB 4:43 08-That's The Way I Like It
DR7 -0.20 dB -8.33 dB 3:38 12-Come As You Are
DR8 -0.49 dB -9.97 dB 4:29 03-Chez Les Ye-Ye
DR7 -0.20 dB -8.37 dB 4:54 10-Hard Swing Travellin' Man
DR7 -0.19 dB -9.41 dB 3:32 09-Save A Little Love For Me
DR7 -0.26 dB -8.19 dB 4:04 04-Puttin' On The Ritz (Club Des Belugas Remix)
DR9 -0.20 dB -10.73 dB 3:50 06-I Shoudn't I Wouldn't (Club Des Belugas Remix)
DR7 -0.20 dB -8.94 dB 3:40 18-The Beat Goes On
DR7 -0.20 dB -9.23 dB 4:12 14-Busy Line
DR7 -0.20 dB -8.48 dB 4:25 16-It Don't Mean A Thing (If It Ain't Got That Swing)
DR9 -0.20 dB -10.88 dB 3:59 13-Jazz Di Mazzaluna (Radio Mix)
DR7 -0.55 dB -8.51 dB 3:31 19-Madame Coquette
DR7 -0.26 dB -8.23 dB 4:51 02-Tequila (Gardener Of Delight Remix)
––––––––––––––––––––––––––––––––––––––––

Number of tracks: 20
Official DR value: DR7

Samplerate: 44100 Hz
Channels: 2
Bits per sample: 16
Bitrate: 944 kbps
Codec: FLAC
================================================================================



Tracklist CD3 'Vintage Lounge':

01. Nina Simone - My Babe Just Cares For Me (3:36)
02. Frank Sinatra - I've Got You Under My Skin (3:41)
03. Peggy Lee - Fever (3:20)
04. Louis Armstrong & Ella Fitzgerald - Let's Call The Whole Thing Off (4:10)
05. Billie Holiday - Them There Eyes (2:48)
06. Sarah Vaughan - Summertime (3:16)
07. Chet Baker - My Funny Valentine (2:17)
08. Julie London - Cry Me A River (2:45)
09. Duke Ellington - Take The 'A' Train (2:53)
10. Sidney Bechet - Petite Fleur (3:17)
11. Miles Davis & Charlie Parker - Chery! (2:58)
12. Billie Holiday - Love Me Or Leave Me (3:18)
13. Serge Gainsbourg - Du Jazz Dans Le Ravin (2:09)
14. Michel Legrand - Stompin' At The Savoy (3:44)
15. Ray Charles - Hallelujah I Love Her So (2:34)
16. Nat King Gole - It's Only A Paper Moon (3:05)
17. Rosemary Clooney - You Make Me Feel So Yoгng (2:51)
18. Sara Vaughan - Black Coffee (3:14)
19. Ella Fitzgerald - Lullaby Of Birdland (2:49)
20. Pearl Bailey - It Takes Two To Tango (3:01)


Exact Audio Copy V1.0 beta 1 from 15. November 2010

EAC extraction logfile from 8. April 2013, 15:18

Various / Best Of Lounge Music - CD3 - Vintage Lounge

Used drive : ASUS DRW-24B3ST Adapter: 1 ID: 2

Read mode : Secure
Utilize accurate stream : Yes
Defeat audio cache : Yes
Make use of C2 pointers : No

Read offset correction : 6
Overread into Lead-In and Lead-Out : No
Fill up missing offset samples with silence : Yes
Delete leading and trailing silent blocks : No
Null samples used in CRC calculations : Yes
Used interface : Native Win32 interface for Win NT & 2000
Gap handling : Appended to previous track

Used output format : User Defined Encoder
Selected bitrate : 896 kBit/s
Quality : High
Add ID3 tag : No
Command line compressor : C:\Program Files (x86)\Exact Audio Copy\Flac\flac.exe
Additional command line options : -8 -V -T "ARTIST=%a" -T "TITLE=%t" -T "ALBUM=%g" -T "DATE=%y" -T "TRACKNUMBER=%n" -T "GENRE=%m" -T "COMMENT=ripped by Oleandris" %s


TOC of the extracted CD

Track | Start | Length | Start sector | End sector
––––––––––––––––––––––––––––-
1 | 0:00.00 | 3:35.53 | 0 | 16177
2 | 3:35.53 | 3:40.52 | 16178 | 32729
3 | 7:16.30 | 3:19.51 | 32730 | 47705
4 | 10:36.06 | 4:10.29 | 47706 | 66484
5 | 14:46.35 | 2:47.70 | 66485 | 79079
6 | 17:34.30 | 3:15.42 | 79080 | 93746
7 | 20:49.72 | 2:20.27 | 93747 | 104273
8 | 23:10.24 | 2:45.14 | 104274 | 116662
9 | 25:55.38 | 2:52.68 | 116663 | 129630
10 | 28:48.31 | 3:17.16 | 129631 | 144421
11 | 32:05.47 | 2:58.17 | 144422 | 157788
12 | 35:03.64 | 3:18.26 | 157789 | 172664
13 | 38:22.15 | 2:09.01 | 172665 | 182340
14 | 40:31.16 | 3:44.34 | 182341 | 199174
15 | 44:15.50 | 2:33.68 | 199175 | 210717
16 | 46:49.43 | 3:04.38 | 210718 | 224555
17 | 49:54.06 | 2:50.63 | 224556 | 237368
18 | 52:44.69 | 3:14.00 | 237369 | 251918
19 | 55:58.69 | 2:48.54 | 251919 | 264572
20 | 58:47.48 | 3:01.09 | 264573 | 278156


Track 1

Filename F:\ЗАГРУЗКИ\ Best Of Lounge Music 6CD (2012)\CD3 - Vintage Lounge\01. Nina Simone - My Babe Just Cares For Me.wav

Pre-gap length 0:00:02.00

Peak level 97.7 %
Extraction speed 3.8 X
Track quality 100.0 %
Test CRC FD9EB31F
Copy CRC FD9EB31F
Track not present in AccurateRip database
Copy OK

Track 2

Filename F:\ЗАГРУЗКИ\ Best Of Lounge Music 6CD (2012)\CD3 - Vintage Lounge\02. Frank Sinatra - I've Got You Under My Skin.wav

Peak level 97.7 %
Extraction speed 4.1 X
Track quality 100.0 %
Test CRC D9097F70
Copy CRC D9097F70
Track not present in AccurateRip database
Copy OK

Track 3

Filename F:\ЗАГРУЗКИ\ Best Of Lounge Music 6CD (2012)\CD3 - Vintage Lounge\03. Peggy Lee - Fever.wav

Peak level 97.8 %
Extraction speed 4.3 X
Track quality 100.0 %
Test CRC CCF9F806
Copy CRC CCF9F806
Track not present in AccurateRip database
Copy OK

Track 4

Filename F:\ЗАГРУЗКИ\ Best Of Lounge Music 6CD (2012)\CD3 - Vintage Lounge\04. Louis Armstrong & Ella Fitzgerald - Let's Call The Whole Thing Off.wav

Peak level 97.7 %
Extraction speed 3.8 X
Track quality 99.9 %
Test CRC 60542DC0
Copy CRC 60542DC0
Track not present in AccurateRip database
Copy OK

Track 5

Filename F:\ЗАГРУЗКИ\ Best Of Lounge Music 6CD (2012)\CD3 - Vintage Lounge\05. Billie Holiday - Them There Eyes.wav

Peak level 97.7 %
Extraction speed 4.7 X
Track quality 100.0 %
Test CRC 96B444E5
Copy CRC 96B444E5
Track not present in AccurateRip database
Copy OK

Track 6

Filename F:\ЗАГРУЗКИ\ Best Of Lounge Music 6CD (2012)\CD3 - Vintage Lounge\06. Sarah Vaughan - Summertime.wav

Peak level 97.7 %
Extraction speed 5.0 X
Track quality 100.0 %
Test CRC D438B073
Copy CRC D438B073
Track not present in AccurateRip database
Copy OK

Track 7

Filename F:\ЗАГРУЗКИ\ Best Of Lounge Music 6CD (2012)\CD3 - Vintage Lounge\07. Chet Baker - My Funny Valentine.wav

Peak level 65.1 %
Extraction speed 4.8 X
Track quality 100.0 %
Test CRC 22989B64
Copy CRC 22989B64
Track not present in AccurateRip database
Copy OK

Track 8

Filename F:\ЗАГРУЗКИ\ Best Of Lounge Music 6CD (2012)\CD3 - Vintage Lounge\08. Julie London - Cry Me A River.wav

Peak level 97.7 %
Extraction speed 5.2 X
Track quality 100.0 %
Test CRC 22FF3509
Copy CRC 22FF3509
Track not present in AccurateRip database
Copy OK

Track 9

Filename F:\ЗАГРУЗКИ\ Best Of Lounge Music 6CD (2012)\CD3 - Vintage Lounge\09. Duke Ellington - Take The 'A' Train.wav

Peak level 97.7 %
Extraction speed 5.4 X
Track quality 100.0 %
Test CRC 3CECA662
Copy CRC 3CECA662
Track not present in AccurateRip database
Copy OK

Track 10

Filename F:\ЗАГРУЗКИ\ Best Of Lounge Music 6CD (2012)\CD3 - Vintage Lounge\10. Sidney Bechet - Petite Fleur.wav

Peak level 97.7 %
Extraction speed 4.3 X
Track quality 99.9 %
Test CRC 3B510007
Copy CRC 3B510007
Track not present in AccurateRip database
Copy OK

Track 11

Filename F:\ЗАГРУЗКИ\ Best Of Lounge Music 6CD (2012)\CD3 - Vintage Lounge\11. Miles Davis & Charlie Parker - Chery!.wav

Peak level 97.7 %
Extraction speed 5.7 X
Track quality 100.0 %
Test CRC 79088F76
Copy CRC 79088F76
Track not present in AccurateRip database
Copy OK

Track 12

Filename F:\ЗАГРУЗКИ\ Best Of Lounge Music 6CD (2012)\CD3 - Vintage Lounge\12. Billie Holiday - Love Me Or Leave Me.wav

Peak level 97.7 %
Extraction speed 6.1 X
Track quality 100.0 %
Test CRC 66E62E2D
Copy CRC 66E62E2D
Track not present in AccurateRip database
Copy OK

Track 13

Filename F:\ЗАГРУЗКИ\ Best Of Lounge Music 6CD (2012)\CD3 - Vintage Lounge\13. Serge Gainsbourg - Du Jazz Dans Le Ravin.wav

Peak level 97.7 %
Extraction speed 5.6 X
Track quality 100.0 %
Test CRC 45A62F9D
Copy CRC 45A62F9D
Track not present in AccurateRip database
Copy OK

Track 14

Filename F:\ЗАГРУЗКИ\ Best Of Lounge Music 6CD (2012)\CD3 - Vintage Lounge\14. Michel Legrand - Stompin' At The Savoy.wav

Peak level 93.5 %
Extraction speed 4.9 X
Track quality 99.9 %
Test CRC 5EBB495C
Copy CRC 5EBB495C
Track not present in AccurateRip database
Copy OK

Track 15

Filename F:\ЗАГРУЗКИ\ Best Of Lounge Music 6CD (2012)\CD3 - Vintage Lounge\15. Ray Charles - Hallelujah I Love Her So.wav

Peak level 97.7 %
Extraction speed 6.2 X
Track quality 100.0 %
Test CRC 678B0126
Copy CRC 678B0126
Track not present in AccurateRip database
Copy OK

Track 16

Filename F:\ЗАГРУЗКИ\ Best Of Lounge Music 6CD (2012)\CD3 - Vintage Lounge\16. Nat King Gole - It's Only A Paper Moon.wav

Peak level 97.7 %
Extraction speed 6.5 X
Track quality 100.0 %
Test CRC 7992B657
Copy CRC 7992B657
Track not present in AccurateRip database
Copy OK

Track 17

Filename F:\ЗАГРУЗКИ\ Best Of Lounge Music 6CD (2012)\CD3 - Vintage Lounge\17. Rosemary Clooney - You Make Me Feel So Young.wav

Peak level 97.7 %
Extraction speed 6.6 X
Track quality 100.0 %
Test CRC 7052F9A4
Copy CRC 7052F9A4
Track not present in AccurateRip database
Copy OK

Track 18

Filename F:\ЗАГРУЗКИ\ Best Of Lounge Music 6CD (2012)\CD3 - Vintage Lounge\18. Sara Vaughan - Black Coffee.wav

Peak level 97.7 %
Extraction speed 6.9 X
Track quality 100.0 %
Test CRC A0DE68C6
Copy CRC A0DE68C6
Track not present in AccurateRip database
Copy OK

Track 19

Filename F:\ЗАГРУЗКИ\ Best Of Lounge Music 6CD (2012)\CD3 - Vintage Lounge\19. Ella Fitzgerald - Lullaby Of Birdland.wav

Peak level 97.7 %
Extraction speed 6.8 X
Track quality 100.0 %
Test CRC 0A1CCB02
Copy CRC 0A1CCB02
Track not present in AccurateRip database
Copy OK

Track 20

Filename F:\ЗАГРУЗКИ\ Best Of Lounge Music 6CD (2012)\CD3 - Vintage Lounge\20. Pearl Bailey - It Takes Two To Tango.wav

Peak level 97.7 %
Extraction speed 7.0 X
Track quality 100.0 %
Test CRC A217732D
Copy CRC A217732D
Track not present in AccurateRip database
Copy OK


None of the tracks are present in the AccurateRip database

No errors occurred

End of status report

==== Log checksum 32F0E3D741E404C2116BC1B72DDB15F30DDA0D8D009E93274379032DD752AB03 ====

foobar2000 1.2 / Dynamic Range Meter 1.1.1
log date: 2013-04-29 21:05:08

––––––––––––––––––––––––––––––––––––––––
Analyzed: Billie Holiday / Best Of Lounge Music - CD3 - Vintage Lounge (1-2)
Chet Baker / Best Of Lounge Music - CD3 - Vintage Lounge (3)
Duke Ellington / Best Of Lounge Music - CD3 - Vintage Lounge (4)
Ella Fitzgerald / Best Of Lounge Music - CD3 - Vintage Lounge (5)
Frank Sinatra / Best Of Lounge Music - CD3 - Vintage Lounge (6)
Julie London / Best Of Lounge Music - CD3 - Vintage Lounge (7)
Louis Armstrong & Ella Fitzgerald / Best Of Lounge Music - CD3 - Vintage Lounge (8)
Michel Legrand / Best Of Lounge Music - CD3 - Vintage Lounge (9)
Miles Davis & Charlie Parker / Best Of Lounge Music - CD3 - Vintage Lounge (10)
Nat King Gole / Best Of Lounge Music - CD3 - Vintage Lounge (11)
Nina Simone / Best Of Lounge Music - CD3 - Vintage Lounge (12)
Pearl Bailey / Best Of Lounge Music - CD3 - Vintage Lounge (13)
Peggy Lee / Best Of Lounge Music - CD3 - Vintage Lounge (14)
Ray Charles / Best Of Lounge Music - CD3 - Vintage Lounge (15)
Rosemary Clooney / Best Of Lounge Music - CD3 - Vintage Lounge (16)
Sara Vaughan / Best Of Lounge Music - CD3 - Vintage Lounge (17)
Sarah Vaughan / Best Of Lounge Music - CD3 - Vintage Lounge (18)
Serge Gainsbourg / Best Of Lounge Music - CD3 - Vintage Lounge (19)
Sidney Bechet / Best Of Lounge Music - CD3 - Vintage Lounge (20)
––––––––––––––––––––––––––––––––––––––––

DR Peak RMS Duration Track
––––––––––––––––––––––––––––––––––––––––
DR6 -0.19 dB -8.50 dB 2:48 05-Them There Eyes
DR7 -0.20 dB -9.33 dB 3:18 12-Love Me Or Leave Me
DR12 -3.73 dB -19.46 dB 2:20 07-My Funny Valentine
DR5 -0.20 dB -6.38 dB 2:53 09-Take The 'A' Train
DR6 -0.20 dB -8.01 dB 2:49 19-Lullaby Of Birdland
DR6 -0.20 dB -9.13 dB 3:41 02-I've Got You Under My Skin
DR7 -0.20 dB -8.88 dB 2:45 08-Cry Me A River
DR8 -0.20 dB -9.60 dB 4:10 04-Let's Call The Whole Thing Off
DR9 -0.58 dB -11.62 dB 3:44 14-Stompin' At The Savoy
DR9 -0.20 dB -10.03 dB 2:58 11-Chery!
DR9 -0.20 dB -11.04 dB 3:05 16-It's Only A Paper Moon
DR6 -0.20 dB -8.82 dB 3:36 01-My Babe Just Cares For Me
DR6 -0.20 dB -8.02 dB 3:01 20-It Takes Two To Tango
DR8 -0.19 dB -9.69 dB 3:20 03-Fever
DR7 -0.20 dB -9.87 dB 2:34 15-Hallelujah I Love Her So
DR7 -0.20 dB -9.51 dB 2:51 17-You Make Me Feel So Young
DR8 -0.20 dB -10.68 dB 3:14 18-Black Coffee
DR5 -0.20 dB -7.76 dB 3:16 06-Summertime
DR10 -0.20 dB -12.16 dB 2:09 13-Du Jazz Dans Le Ravin
DR8 -0.20 dB -10.44 dB 3:17 10-Petite Fleur
––––––––––––––––––––––––––––––––––––––––

Number of tracks: 20
Official DR value: DR7

Samplerate: 44100 Hz
Channels: 2
Bits per sample: 16
Bitrate: 793 kbps
Codec: FLAC
================================================================================



Tracklist CD4 'Brazilian Sounds':

01. Bebel Gilberto - Cada Beijo (Thievery Corporation Remix) (4:19)
02. Cibelle - So Sie Viver No Samba (4:43)
03. Zuco 103 - Outro Lado (4:32)
04. Salome De Bahia - Mas Que Nada (3:51)
05. Tom & Joyce - Para Bailar (3:45)
06. Bossacucanova Feat. Roberto Menescal - Feitinha Pro Poeta (3:30)
07. Carlos Lyra - Maria Moita (2:57)
08. Celso Fonseca - Bela (5:05)
09. Dj Dolores - De Dar Do (3:57)
10. Suba Feat. Cibelle - Felicidade (4:20)
11. Trio Mocoto - Beleza! Beleza!! Beleza!!! (4:45)
12. Luisa Pereira - Aqua De Beber (3:14)
13. Fernando Pacheco - Viva La Vida (4:24)
14. Carmen Pl - Africa (3:24)
15. Camila Sapin - What The Hell (3:42)
16. Camila Villagrin - Born The Way (4:36)
17. Aidita Martinez - Open Your Eyes (2:18)
18. Martin Revoir - Beautiful Girls (3:46)
19. Lys Gainza - Breakout (4:06)
20. Camila Villagrin - California Girls (2:53)


Exact Audio Copy V1.0 beta 1 from 15. November 2010

EAC extraction logfile from 4. April 2013, 12:49

Various / Best Of Lounge Music - CD4 - Brazilian Sounds

Used drive : ASUS SBW-06D2X-U Adapter: 2 ID: 1

Read mode : Secure
Utilize accurate stream : Yes
Defeat audio cache : Yes
Make use of C2 pointers : No

Read offset correction : 48
Overread into Lead-In and Lead-Out : No
Fill up missing offset samples with silence : Yes
Delete leading and trailing silent blocks : No
Null samples used in CRC calculations : Yes
Used interface : Native Win32 interface for Win NT & 2000
Gap handling : Appended to previous track

Used output format : User Defined Encoder
Selected bitrate : 896 kBit/s
Quality : High
Add ID3 tag : No
Command line compressor : C:\Program Files (x86)\Exact Audio Copy\Flac\flac.exe
Additional command line options : -8 -V -T "ARTIST=%a" -T "TITLE=%t" -T "ALBUM=%g" -T "DATE=%y" -T "TRACKNUMBER=%n" -T "GENRE=%m" -T "COMMENT=ripped by Oleandris" %s


TOC of the extracted CD

Track | Start | Length | Start sector | End sector
––––––––––––––––––––––––––––-
1 | 0:00.00 | 4:18.42 | 0 | 19391
2 | 4:18.42 | 4:42.52 | 19392 | 40593
3 | 9:01.19 | 4:31.65 | 40594 | 60983
4 | 13:33.09 | 3:51.11 | 60984 | 78319
5 | 17:24.20 | 3:44.48 | 78320 | 95167
6 | 21:08.68 | 3:30.13 | 95168 | 110930
7 | 24:39.06 | 2:57.26 | 110931 | 124231
8 | 27:36.32 | 5:05.25 | 124232 | 147131
9 | 32:41.57 | 3:56.47 | 147132 | 164878
10 | 36:38.29 | 4:19.39 | 164879 | 184342
11 | 40:57.68 | 4:45.36 | 184343 | 205753
12 | 45:43.29 | 3:14.02 | 205754 | 220305
13 | 48:57.31 | 4:24.06 | 220306 | 240111
14 | 53:21.37 | 3:24.23 | 240112 | 255434
15 | 56:45.60 | 3:42.24 | 255435 | 272108
16 | 60:28.09 | 4:36.16 | 272109 | 292824
17 | 65:04.25 | 2:18.19 | 292825 | 303193
18 | 67:22.44 | 3:46.11 | 303194 | 320154
19 | 71:08.55 | 4:06.30 | 320155 | 338634
20 | 75:15.10 | 2:53.25 | 338635 | 351634


Track 1

Filename F:\ЗАГРУЗКИ\ Best Of Lounge Music 6CD (2012)\CD4 - Brazilian Sounds\01. Bebel Gilberto - Cada Beijo (Thievery Corporation Remix).wav

Pre-gap length 0:00:02.00

Peak level 83.7 %
Extraction speed 10.3 X
Track quality 100.0 %
Test CRC C9DD1C3B
Copy CRC C9DD1C3B
Track not present in AccurateRip database
Copy OK

Track 2

Filename F:\ЗАГРУЗКИ\ Best Of Lounge Music 6CD (2012)\CD4 - Brazilian Sounds\02. Cibelle - So Sie Viver No Samba.wav

Peak level 97.7 %
Extraction speed 11.4 X
Track quality 100.0 %
Test CRC 1660981C
Copy CRC 1660981C
Track not present in AccurateRip database
Copy OK

Track 3

Filename F:\ЗАГРУЗКИ\ Best Of Lounge Music 6CD (2012)\CD4 - Brazilian Sounds\03. Zuco 103 - Outro Lado.wav

Peak level 97.7 %
Extraction speed 12.3 X
Track quality 100.0 %
Test CRC EF7A6B01
Copy CRC EF7A6B01
Track not present in AccurateRip database
Copy OK

Track 4

Filename F:\ЗАГРУЗКИ\ Best Of Lounge Music 6CD (2012)\CD4 - Brazilian Sounds\04. Salome De Bahia - Mas Que Nada.wav

Peak level 95.2 %
Extraction speed 12.7 X
Track quality 100.0 %
Test CRC 742E95CF
Copy CRC 742E95CF
Track not present in AccurateRip database
Copy OK

Track 5

Filename F:\ЗАГРУЗКИ\ Best Of Lounge Music 6CD (2012)\CD4 - Brazilian Sounds\05. Tom & Joyce - Para Bailar.wav

Peak level 97.5 %
Extraction speed 13.4 X
Track quality 100.0 %
Test CRC 38A06B2B
Copy CRC 38A06B2B
Track not present in AccurateRip database
Copy OK

Track 6

Filename F:\ЗАГРУЗКИ\ Best Of Lounge Music 6CD (2012)\CD4 - Brazilian Sounds\06. Bossacucanova Feat. Roberto Menescal - Feitinha Pro Poeta.wav

Peak level 95.9 %
Extraction speed 12.3 X
Track quality 99.9 %
Test CRC B77BA793
Copy CRC B77BA793
Track not present in AccurateRip database
Copy OK

Track 7

Filename F:\ЗАГРУЗКИ\ Best Of Lounge Music 6CD (2012)\CD4 - Brazilian Sounds\07. Carlos Lyra - Maria Moita.wav

Peak level 89.4 %
Extraction speed 13.8 X
Track quality 100.0 %
Test CRC 440EB066
Copy CRC 440EB066
Track not present in AccurateRip database
Copy OK

Track 8

Filename F:\ЗАГРУЗКИ\ Best Of Lounge Music 6CD (2012)\CD4 - Brazilian Sounds\08. Celso Fonseca - Bela.wav

Peak level 97.7 %
Extraction speed 15.2 X
Track quality 100.0 %
Test CRC 8900BCF5
Copy CRC 8900BCF5
Track not present in AccurateRip database
Copy OK

Track 9

Filename F:\ЗАГРУЗКИ\ Best Of Lounge Music 6CD (2012)\CD4 - Brazilian Sounds\09. Dj Dolores - De Dar Do.wav

Peak level 95.9 %
Extraction speed 15.4 X
Track quality 100.0 %
Test CRC B485C7F7
Copy CRC B485C7F7
Track not present in AccurateRip database
Copy OK

Track 10

Filename F:\ЗАГРУЗКИ\ Best Of Lounge Music 6CD (2012)\CD4 - Brazilian Sounds\10. Suba Feat. Cibelle - Felicidade.wav

Peak level 93.0 %
Extraction speed 15.6 X
Track quality 100.0 %
Test CRC 5CCB087C
Copy CRC 5CCB087C
Track not present in AccurateRip database
Copy OK

Track 11

Filename F:\ЗАГРУЗКИ\ Best Of Lounge Music 6CD (2012)\CD4 - Brazilian Sounds\11. Trio Mocoto - Beleza! Beleza!! Beleza!!!.wav

Peak level 90.1 %
Extraction speed 16.2 X
Track quality 100.0 %
Test CRC D52300E8
Copy CRC D52300E8
Track not present in AccurateRip database
Copy OK

Track 12

Filename F:\ЗАГРУЗКИ\ Best Of Lounge Music 6CD (2012)\CD4 - Brazilian Sounds\12. Luisa Pereira - Aqua De Beber.wav

Peak level 97.7 %
Extraction speed 16.0 X
Track quality 100.0 %
Test CRC 6482072F
Copy CRC 6482072F
Track not present in AccurateRip database
Copy OK

Track 13

Filename F:\ЗАГРУЗКИ\ Best Of Lounge Music 6CD (2012)\CD4 - Brazilian Sounds\13. Fernando Pacheco - Viva La Vida.wav

Peak level 97.7 %
Extraction speed 16.8 X
Track quality 100.0 %
Test CRC 76FE5727
Copy CRC 76FE5727
Track not present in AccurateRip database
Copy OK

Track 14

Filename F:\ЗАГРУЗКИ\ Best Of Lounge Music 6CD (2012)\CD4 - Brazilian Sounds\14. Carmen Pl - Africa.wav

Peak level 97.7 %
Extraction speed 16.6 X
Track quality 100.0 %
Test CRC 7F814663
Copy CRC 7F814663
Track not present in AccurateRip database
Copy OK

Track 15

Filename F:\ЗАГРУЗКИ\ Best Of Lounge Music 6CD (2012)\CD4 - Brazilian Sounds\15. Camila Sapin - What The Hell.wav

Peak level 97.7 %
Extraction speed 17.1 X
Track quality 100.0 %
Test CRC E5D0FB18
Copy CRC E5D0FB18
Track not present in AccurateRip database
Copy OK

Track 16

Filename F:\ЗАГРУЗКИ\ Best Of Lounge Music 6CD (2012)\CD4 - Brazilian Sounds\16. Camila Villagrin - Born The Way.wav

Peak level 97.7 %
Extraction speed 17.7 X
Track quality 100.0 %
Test CRC 6567BD6E
Copy CRC 6567BD6E
Track not present in AccurateRip database
Copy OK

Track 17

Filename F:\ЗАГРУЗКИ\ Best Of Lounge Music 6CD (2012)\CD4 - Brazilian Sounds\17. Aidita Martinez - Open Your Eyes.wav

Peak level 97.7 %
Extraction speed 16.3 X
Track quality 100.0 %
Test CRC F8B8BB9E
Copy CRC F8B8BB9E
Track not present in AccurateRip database
Copy OK

Track 18

Filename F:\ЗАГРУЗКИ\ Best Of Lounge Music 6CD (2012)\CD4 - Brazilian Sounds\18. Martin Revoir - Beautiful Girls.wav

Peak level 97.7 %
Extraction speed 15.4 X
Track quality 99.9 %
Test CRC 03D14BBB
Copy CRC 03D14BBB
Track not present in AccurateRip database
Copy OK

Track 19

Filename F:\ЗАГРУЗКИ\ Best Of Lounge Music 6CD (2012)\CD4 - Brazilian Sounds\19. Lys Gainza - Breakout.wav

Peak level 97.7 %
Extraction speed 16.0 X
Track quality 99.9 %
Test CRC 9AC4D353
Copy CRC 9AC4D353
Track not present in AccurateRip database
Copy OK

Track 20

Filename F:\ЗАГРУЗКИ\ Best Of Lounge Music 6CD (2012)\CD4 - Brazilian Sounds\20. Camila Villagrin - California Girls.wav

Peak level 97.7 %
Extraction speed 16.6 X
Track quality 99.9 %
Test CRC 0C11D33E
Copy CRC 0C11D33E
Track not present in AccurateRip database
Copy OK


None of the tracks are present in the AccurateRip database

No errors occurred

End of status report

==== Log checksum D7298CB1354482DD3A888C0A0FB651B584AC5140FA2E0D5A9E4DF7B8B2A4E51B ====

foobar2000 1.2 / Dynamic Range Meter 1.1.1
log date: 2013-04-29 21:05:33

––––––––––––––––––––––––––––––––––––––––
Analyzed: Aidita Martinez / Best Of Lounge Music - CD4 - Brazilian Sounds (1)
Bebel Gilberto / Best Of Lounge Music - CD4 - Brazilian Sounds (2)
Bossacucanova Feat. Roberto Menescal / Best Of Lounge Music - CD4 - Brazilian Sounds (3)
Camila Sapin / Best Of Lounge Music - CD4 - Brazilian Sounds (4)
Camila Villagrin / Best Of Lounge Music - CD4 - Brazilian Sounds (5-6)
Carlos Lyra / Best Of Lounge Music - CD4 - Brazilian Sounds (7)
Carmen Pl / Best Of Lounge Music - CD4 - Brazilian Sounds (8)
Celso Fonseca / Best Of Lounge Music - CD4 - Brazilian Sounds (9)
Cibelle / Best Of Lounge Music - CD4 - Brazilian Sounds (10)
Dj Dolores / Best Of Lounge Music - CD4 - Brazilian Sounds (11)
Fernando Pacheco / Best Of Lounge Music - CD4 - Brazilian Sounds (12)
Luisa Pereira / Best Of Lounge Music - CD4 - Brazilian Sounds (13)
Lys Gainza / Best Of Lounge Music - CD4 - Brazilian Sounds (14)
Martin Revoir / Best Of Lounge Music - CD4 - Brazilian Sounds (15)
Salome De Bahia / Best Of Lounge Music - CD4 - Brazilian Sounds (16)
Suba Feat. Cibelle / Best Of Lounge Music - CD4 - Brazilian Sounds (17)
Tom & Joyce / Best Of Lounge Music - CD4 - Brazilian Sounds (18)
Trio Mocoto / Best Of Lounge Music - CD4 - Brazilian Sounds (19)
Zuco 103 / Best Of Lounge Music - CD4 - Brazilian Sounds (20)
––––––––––––––––––––––––––––––––––––––––

DR Peak RMS Duration Track
––––––––––––––––––––––––––––––––––––––––
DR7 -0.20 dB -8.82 dB 2:18 17-Open Your Eyes
DR6 -1.54 dB -9.57 dB 4:19 01-Cada Beijo (Thievery Corporation Remix)
DR7 -0.36 dB -8.14 dB 3:30 06-Feitinha Pro Poeta
DR7 -0.20 dB -7.36 dB 3:42 15-What The Hell
DR6 -0.20 dB -7.40 dB 4:36 16-Born The Way
DR7 -0.20 dB -8.05 dB 2:53 20-California Girls
DR8 -0.97 dB -10.39 dB 2:57 07-Maria Moita
DR6 -0.20 dB -7.84 dB 3:24 14-Africa
DR7 -0.20 dB -8.94 dB 5:05 08-Bela
DR8 -0.20 dB -9.81 dB 4:43 02-So Sie Viver No Samba
DR7 -0.36 dB -8.23 dB 3:57 09-De Dar Do
DR7 -0.20 dB -8.84 dB 4:24 13-Viva La Vida
DR7 -0.20 dB -7.83 dB 3:14 12-Aqua De Beber
DR7 -0.20 dB -8.02 dB 4:06 19-Breakout
DR8 -0.20 dB -9.53 dB 3:46 18-Beautiful Girls
DR6 -0.42 dB -7.39 dB 3:51 04-Mas Que Nada
DR9 -0.63 dB -11.31 dB 4:20 10-Felicidade
DR9 -0.21 dB -11.03 dB 3:45 05-Para Bailar
DR7 -0.91 dB -9.02 dB 4:45 11-Beleza! Beleza!! Beleza!!!
DR8 -0.20 dB -10.41 dB 4:32 03-Outro Lado
––––––––––––––––––––––––––––––––––––––––

Number of tracks: 20
Official DR value: DR7

Samplerate: 44100 Hz
Channels: 2
Bits per sample: 16
Bitrate: 880 kbps
Codec: FLAC
================================================================================



Tracklist CD5 'Chic & Glamour':

01. Kid Loco - She's My Lover (A Song For R.) (4:36)
02. Ennio Morricone - Come Madallena (Tom Middleton Cosmos Remix) (3:58)
03. The Sinematic Orchestra - Ode The Bing Sea (3:37)
04. Bob Sinclar - Kiss My Eyes (Reggae Version) (3:26)
05. Daiquiro - More (4:49)
06. The James Taylor Quartet - Light Up Your Soul (3:59)
07. Victor Maximiliano Feat. Jean Honeymoon - Deepa Nova (3:41)
08. Truby Trio - A Go Go (3:32)
09. Les Gammas - See The Sun (3:12)
10. Snooze - The Chase (Fila Brazila Remix) (3:53)
11. Allen Hoist - Inner City Blues (4:35)
12. Uptwon Funk Empire Feat. JRM I - Guess That You Dont'n Mind (3:30)
13. Jumbonics - Last Night (3:46)
14. Kylie Auldist - Everybody Here Wants You (4:26)
15. Woon - You're Not Alone (3:37)
16. Djinxx - In The Dark (4:29)
17. Tom Pooks - Don't Worry (3:55)
18. Fraeky - Odyssey (4:20)
19. Soldiers Of Twilight - City Life (4:27)
20. Something A La Mode Feat. Karl Lagerfeld - RondoParisiano (2:32)


Exact Audio Copy V1.0 beta 1 from 15. November 2010

EAC extraction logfile from 5. April 2013, 12:40

Various / Best Of Lounge - CD5 - Chic & Glamour

Used drive : ASUS DRW-24B3ST Adapter: 1 ID: 2

Read mode : Secure
Utilize accurate stream : Yes
Defeat audio cache : Yes
Make use of C2 pointers : No

Read offset correction : 6
Overread into Lead-In and Lead-Out : No
Fill up missing offset samples with silence : Yes
Delete leading and trailing silent blocks : No
Null samples used in CRC calculations : Yes
Used interface : Native Win32 interface for Win NT & 2000
Gap handling : Appended to previous track

Used output format : User Defined Encoder
Selected bitrate : 896 kBit/s
Quality : High
Add ID3 tag : No
Command line compressor : C:\Program Files (x86)\Exact Audio Copy\Flac\flac.exe
Additional command line options : -8 -V -T "ARTIST=%a" -T "TITLE=%t" -T "ALBUM=%g" -T "DATE=%y" -T "TRACKNUMBER=%n" -T "GENRE=%m" -T "COMMENT=ripped by Oleandris" %s


TOC of the extracted CD

Track | Start | Length | Start sector | End sector
––––––––––––––––––––––––––––-
1 | 0:00.00 | 4:35.61 | 0 | 20685
2 | 4:35.61 | 3:58.33 | 20686 | 38568
3 | 8:34.19 | 3:37.20 | 38569 | 54863
4 | 12:11.39 | 3:26.05 | 54864 | 70318
5 | 15:37.44 | 4:49.30 | 70319 | 92023
6 | 20:26.74 | 3:59.10 | 92024 | 109958
7 | 24:26.09 | 3:41.02 | 109959 | 126535
8 | 28:07.11 | 3:32.32 | 126536 | 142467
9 | 31:39.43 | 3:11.69 | 142468 | 156861
10 | 34:51.37 | 3:53.23 | 156862 | 174359
11 | 38:44.60 | 4:35.15 | 174360 | 194999
12 | 43:20.00 | 3:29.50 | 195000 | 210724
13 | 46:49.50 | 3:45.47 | 210725 | 227646
14 | 50:35.22 | 4:26.34 | 227647 | 247630
15 | 55:01.56 | 3:37.09 | 247631 | 263914
16 | 58:38.65 | 4:28.56 | 263915 | 284070
17 | 63:07.46 | 3:55.10 | 284071 | 301705
18 | 67:02.56 | 4:19.56 | 301706 | 321186
19 | 71:22.37 | 4:27.00 | 321187 | 341211
20 | 75:49.37 | 2:32.13 | 341212 | 352624


Track 1

Filename F:\ЗАГРУЗКИ\ Best Of Lounge Music 6CD (2012)\CD5 - Chic & Glamour\01. Kid Loco - She's My Lover (A Song For R.).wav

Pre-gap length 0:00:02.00

Peak level 94.4 %
Extraction speed 3.9 X
Track quality 100.0 %
Test CRC 04D2F9E2
Copy CRC 04D2F9E2
Track not present in AccurateRip database
Copy OK

Track 2

Filename F:\ЗАГРУЗКИ\ Best Of Lounge Music 6CD (2012)\CD5 - Chic & Glamour\02. Ennio Morricone - Come Madallena (Tom Middleton Cosmos Remix).wav

Peak level 97.7 %
Extraction speed 4.2 X
Track quality 100.0 %
Test CRC 9BD62D6E
Copy CRC 9BD62D6E
Track not present in AccurateRip database
Copy OK

Track 3

Filename F:\ЗАГРУЗКИ\ Best Of Lounge Music 6CD (2012)\CD5 - Chic & Glamour\03. The Sinematic Orchestra - Ode The Bing Sea.wav

Peak level 94.7 %
Extraction speed 4.5 X
Track quality 100.0 %
Test CRC C1653903
Copy CRC C1653903
Track not present in AccurateRip database
Copy OK

Track 4

Filename F:\ЗАГРУЗКИ\ Best Of Lounge Music 6CD (2012)\CD5 - Chic & Glamour\04. Bob Sinclar - Kiss My Eyes (Reggae Version).wav

Peak level 97.7 %
Extraction speed 4.7 X
Track quality 100.0 %
Test CRC 45FABEEA
Copy CRC 45FABEEA
Track not present in AccurateRip database
Copy OK

Track 5

Filename F:\ЗАГРУЗКИ\ Best Of Lounge Music 6CD (2012)\CD5 - Chic & Glamour\05. Daiquiro - More.wav

Peak level 92.5 %
Extraction speed 5.2 X
Track quality 100.0 %
Test CRC ECADE403
Copy CRC ECADE403
Track not present in AccurateRip database
Copy OK

Track 6

Filename F:\ЗАГРУЗКИ\ Best Of Lounge Music 6CD (2012)\CD5 - Chic & Glamour\06. The James Taylor Quartet - Light Up Your Soul.wav

Peak level 96.7 %
Extraction speed 5.4 X
Track quality 100.0 %
Test CRC 8B160171
Copy CRC 8B160171
Track not present in AccurateRip database
Copy OK

Track 7

Filename F:\ЗАГРУЗКИ\ Best Of Lounge Music 6CD (2012)\CD5 - Chic & Glamour\07. Victor Maximiliano Feat. Jean Honeymoon - Deepa Nova.wav

Peak level 97.7 %
Extraction speed 5.6 X
Track quality 100.0 %
Test CRC 8979D67A
Copy CRC 8979D67A
Track not present in AccurateRip database
Copy OK

Track 8

Filename F:\ЗАГРУЗКИ\ Best Of Lounge Music 6CD (2012)\CD5 - Chic & Glamour\08. Truby Trio - A Go Go.wav

Peak level 90.0 %
Extraction speed 5.7 X
Track quality 100.0 %
Test CRC 4FED8E34
Copy CRC 4FED8E34
Track not present in AccurateRip database
Copy OK

Track 9

Filename F:\ЗАГРУЗКИ\ Best Of Lounge Music 6CD (2012)\CD5 - Chic & Glamour\09. Les Gammas - See The Sun.wav

Peak level 97.7 %
Extraction speed 4.4 X
Track quality 99.9 %
Test CRC AA600A3A
Copy CRC AA600A3A
Track not present in AccurateRip database
Copy OK

Track 10

Filename F:\ЗАГРУЗКИ\ Best Of Lounge Music 6CD (2012)\CD5 - Chic & Glamour\10. Snooze - The Chase (Fila Brazila Remix).wav

Peak level 97.7 %
Extraction speed 6.1 X
Track quality 100.0 %
Test CRC FBA6D4F1
Copy CRC FBA6D4F1
Track not present in AccurateRip database
Copy OK

Track 11

Filename F:\ЗАГРУЗКИ\ Best Of Lounge Music 6CD (2012)\CD5 - Chic & Glamour\11. Allen Hoist - Inner City Blues.wav

Peak level 97.7 %
Extraction speed 6.6 X
Track quality 100.0 %
Test CRC 0867A87A
Copy CRC 0867A87A
Track not present in AccurateRip database
Copy OK

Track 12

Filename F:\ЗАГРУЗКИ\ Best Of Lounge Music 6CD (2012)\CD5 - Chic & Glamour\12. Uptwon Funk Empire Feat. JRM I - Guess That You Dont'n Mind.wav

Peak level 97.7 %
Extraction speed 6.5 X
Track quality 100.0 %
Test CRC F008BCA3
Copy CRC F008BCA3
Track not present in AccurateRip database
Copy OK

Track 13

Filename F:\ЗАГРУЗКИ\ Best Of Lounge Music 6CD (2012)\CD5 - Chic & Glamour\13. Jumbonics - Last Night.wav

Peak level 87.2 %
Extraction speed 6.8 X
Track quality 100.0 %
Test CRC 746691F5
Copy CRC 746691F5
Track not present in AccurateRip database
Copy OK

Track 14

Filename F:\ЗАГРУЗКИ\ Best Of Lounge Music 6CD (2012)\CD5 - Chic & Glamour\14. Kylie Auldist - Everybody Here Wants You.wav

Peak level 97.7 %
Extraction speed 7.1 X
Track quality 100.0 %
Test CRC A7868ADE
Copy CRC A7868ADE
Track not present in AccurateRip database
Copy OK

Track 15

Filename F:\ЗАГРУЗКИ\ Best Of Lounge Music 6CD (2012)\CD5 - Chic & Glamour\15. Woon - You're Not Alone.wav

Peak level 97.7 %
Extraction speed 7.1 X
Track quality 100.0 %
Test CRC F9C67B1F
Copy CRC F9C67B1F
Track not present in AccurateRip database
Copy OK

Track 16

Filename F:\ЗАГРУЗКИ\ Best Of Lounge Music 6CD (2012)\CD5 - Chic & Glamour\16. Djinxx - In The Dark.wav

Peak level 97.7 %
Extraction speed 7.6 X
Track quality 100.0 %
Test CRC 1039EBC3
Copy CRC 1039EBC3
Track not present in AccurateRip database
Copy OK

Track 17

Filename F:\ЗАГРУЗКИ\ Best Of Lounge Music 6CD (2012)\CD5 - Chic & Glamour\17. Tom Pooks - Don't Worry.wav

Peak level 97.7 %
Extraction speed 7.4 X
Track quality 100.0 %
Test CRC D7D06CD1
Copy CRC D7D06CD1
Track not present in AccurateRip database
Copy OK

Track 18

Filename F:\ЗАГРУЗКИ\ Best Of Lounge Music 6CD (2012)\CD5 - Chic & Glamour\18. Fraeky - Odyssey.wav

Peak level 97.7 %
Extraction speed 7.9 X
Track quality 100.0 %
Test CRC 8C429BA9
Copy CRC 8C429BA9
Track not present in AccurateRip database
Copy OK

Track 19

Filename F:\ЗАГРУЗКИ\ Best Of Lounge Music 6CD (2012)\CD5 - Chic & Glamour\19. Soldiers Of Twilight - City Life.wav

Peak level 97.7 %
Extraction speed 8.0 X
Track quality 100.0 %
Test CRC 26A6D07A
Copy CRC 26A6D07A
Track not present in AccurateRip database
Copy OK

Track 20

Filename F:\ЗАГРУЗКИ\ Best Of Lounge Music 6CD (2012)\CD5 - Chic & Glamour\20. Something A La Mode Feat. Karl Lagerfeld - RondoParisiano.wav

Peak level 69.0 %
Extraction speed 7.5 X
Track quality 100.0 %
Test CRC C26914D6
Copy CRC C26914D6
Track not present in AccurateRip database
Copy OK


None of the tracks are present in the AccurateRip database

No errors occurred

End of status report

==== Log checksum C13AAA1B9ED0084F50C51EFF55D6B7543C2034FB5FF13B560305D298C951A839 ====

foobar2000 1.2 / Dynamic Range Meter 1.1.1
log date: 2013-04-29 21:05:59

––––––––––––––––––––––––––––––––––––––––
Analyzed: Allen Hoist / Best Of Lounge - CD5 - Chic & Glamour (1)
Bob Sinclar / Best Of Lounge - CD5 - Chic & Glamour (2)
Daiquiro / Best Of Lounge - CD5 - Chic & Glamour (3)
Djinxx / Best Of Lounge - CD5 - Chic & Glamour (4)
Ennio Morricone / Best Of Lounge - CD5 - Chic & Glamour (5)
Fraeky / Best Of Lounge - CD5 - Chic & Glamour (6)
Jumbonics / Best Of Lounge - CD5 - Chic & Glamour (7)
Kid Loco / Best Of Lounge - CD5 - Chic & Glamour (8)
Kylie Auldist / Best Of Lounge - CD5 - Chic & Glamour (9)
Les Gammas / Best Of Lounge - CD5 - Chic & Glamour (10)
Snooze / Best Of Lounge - CD5 - Chic & Glamour (11)
Soldiers Of Twilight / Best Of Lounge - CD5 - Chic & Glamour (12)
Something A La Mode Feat. Karl Lagerfeld / Best Of Lounge - CD5 - Chic & Glamour (13)
The James Taylor Quartet / Best Of Lounge - CD5 - Chic & Glamour (14)
The Sinematic Orchestra / Best Of Lounge - CD5 - Chic & Glamour (15)
Tom Pooks / Best Of Lounge - CD5 - Chic & Glamour (16)
Truby Trio / Best Of Lounge - CD5 - Chic & Glamour (17)
Uptwon Funk Empire Feat. JRM I / Best Of Lounge - CD5 - Chic & Glamour (18)
Victor Maximiliano Feat. Jean Honeymoon / Best Of Lounge - CD5 - Chic & Glamour (19)
Woon / Best Of Lounge - CD5 - Chic & Glamour (20)
––––––––––––––––––––––––––––––––––––––––

DR Peak RMS Duration Track
––––––––––––––––––––––––––––––––––––––––
DR7 -0.20 dB -8.67 dB 4:35 11-Inner City Blues
DR8 -0.20 dB -8.79 dB 3:26 04-Kiss My Eyes (Reggae Version)
DR7 -0.68 dB -8.82 dB 4:49 05-More
DR8 -0.20 dB -9.50 dB 4:29 16-In The Dark
DR6 -0.20 dB -8.41 dB 3:58 02-Come Madallena (Tom Middleton Cosmos Remix)
DR9 -0.20 dB -10.77 dB 4:20 18-Odyssey
DR6 -1.18 dB -8.38 dB 3:46 13-Last Night
DR7 -0.50 dB -10.08 dB 4:36 01-She's My Lover (A Song For R.)
DR7 -0.20 dB -9.09 dB 4:26 14-Everybody Here Wants You
DR7 -0.20 dB -8.55 dB 3:12 09-See The Sun
DR8 -0.20 dB -9.47 dB 3:53 10-The Chase (Fila Brazila Remix)
DR7 -0.20 dB -9.18 dB 4:27 19-City Life
DR5 -3.21 dB -10.71 dB 2:32 20-RondoParisiano
DR7 -0.28 dB -8.64 dB 3:59 06-Light Up Your Soul
DR7 -0.47 dB -8.91 dB 3:37 03-Ode The Bing Sea
DR8 -0.20 dB -10.40 dB 3:55 17-Don't Worry
DR5 -0.91 dB -7.47 dB 3:32 08-A Go Go
DR8 -0.20 dB -9.52 dB 3:30 12-Guess That You Dont'n Mind
DR9 -0.20 dB -10.12 dB 3:41 07-Deepa Nova
DR6 -0.20 dB -9.49 dB 3:37 15-You're Not Alone
––––––––––––––––––––––––––––––––––––––––

Number of tracks: 20
Official DR value: DR7

Samplerate: 44100 Hz
Channels: 2
Bits per sample: 16
Bitrate: 782 kbps
Codec: FLAC
================================================================================



Tracklist CD6 'Spirit Of Chill-Out':

01. Cocoon - Hey Ya (2:54)
02. Hey Hey My My - I Need Some Time (2:45)
03. Lonely Drifter Karen - This World Is Crazy (3:33)
04. Alex Gopher - You, My Baby & I (4:13)
05. Mark Ronson Feat. Alex Greenwald - Just (3:47)
06. Howie B - I Need Light (3:16)
07. Vikter Duplaix - Sensuality (4:22)
08. Kruder & Dorfmeister - High Moon (2:59)
09. Thievery Corporation - It Takes A Thief (4:08)
10. Dj Cam - Bronx Theme (4:38)
11. Tosca - Pyjama (3:52)
12. Ty - Wait A Minute (3:21)
13. Roots Manuva - Witness Dub (3:52)
14. Dj Food - Turtle Soup (Wagon Christ Mix) (4:57)
15. Spanky Wilson & The Quantic Soul Orchestra Vs Lanu - Don't Joke With A Hungry Mother (3:26)
16. Quantic - Mishaps Happening (Prins Tomas Edit) (3:37)
17. Diplo Feat. Martina Topley Bird - Into The Sun (5:53)
18. Kid Koala & Money Mark - Carpal Tunnel Syndrome (4:43)
19. Reminiscence Quartet - Jazz Thing (4:09)
20. The Mighty Bop - Feeling Good (4:12)


Exact Audio Copy V1.0 beta 1 from 15. November 2010

EAC extraction logfile from 5. April 2013, 12:40

Various / Best Of Lounge - CD6 - Spirit Of Chill-Out

Used drive : PLEXTOR DVDR PX-L890SA Adapter: 1 ID: 4

Read mode : Secure
Utilize accurate stream : Yes
Defeat audio cache : Yes
Make use of C2 pointers : No

Read offset correction : 6
Overread into Lead-In and Lead-Out : No
Fill up missing offset samples with silence : Yes
Delete leading and trailing silent blocks : No
Null samples used in CRC calculations : Yes
Used interface : Native Win32 interface for Win NT & 2000
Gap handling : Appended to previous track

Used output format : User Defined Encoder
Selected bitrate : 896 kBit/s
Quality : High
Add ID3 tag : No
Command line compressor : C:\Program Files (x86)\Exact Audio Copy\Flac\flac.exe
Additional command line options : -8 -V -T "ARTIST=%a" -T "TITLE=%t" -T "ALBUM=%g" -T "DATE=%y" -T "TRACKNUMBER=%n" -T "GENRE=%m" -T "COMMENT=ripped by Oleandris" %s


TOC of the extracted CD

Track | Start | Length | Start sector | End sector
––––––––––––––––––––––––––––-
1 | 0:00.00 | 2:53.50 | 0 | 13024
2 | 2:53.50 | 2:44.67 | 13025 | 25391
3 | 5:38.42 | 3:33.26 | 25392 | 41392
4 | 9:11.68 | 4:12.42 | 41393 | 60334
5 | 13:24.35 | 3:47.36 | 60335 | 77395
6 | 17:11.71 | 3:15.46 | 77396 | 92066
7 | 20:27.42 | 4:22.06 | 92067 | 111722
8 | 24:49.48 | 2:58.68 | 111723 | 125140
9 | 27:48.41 | 4:07.68 | 125141 | 143733
10 | 31:56.34 | 4:37.52 | 143734 | 164560
11 | 36:34.11 | 3:51.64 | 164561 | 181949
12 | 40:26.00 | 3:21.18 | 181950 | 197042
13 | 43:47.18 | 3:52.06 | 197043 | 214448
14 | 47:39.24 | 4:56.60 | 214449 | 236708
15 | 52:36.09 | 3:25.71 | 236709 | 252154
16 | 56:02.05 | 3:37.10 | 252155 | 268439
17 | 59:39.15 | 5:52.61 | 268440 | 294900
18 | 65:32.01 | 4:42.58 | 294901 | 316108
19 | 70:14.59 | 4:08.67 | 316109 | 334775
20 | 74:23.51 | 4:11.65 | 334776 | 353665


Track 1

Filename F:\ЗАГРУЗКИ\ Best Of Lounge Music 6CD (2012)\CD6 - Spirit Of Chill-Out\01. Cocoon - Hey Ya.wav

Pre-gap length 0:00:02.00

Peak level 97.7 %
Extraction speed 1.3 X
Track quality 99.9 %
Test CRC E264098B
Copy CRC E264098B
Track not present in AccurateRip database
Copy OK

Track 2

Filename F:\ЗАГРУЗКИ\ Best Of Lounge Music 6CD (2012)\CD6 - Spirit Of Chill-Out\02. Hey Hey My My - I Need Some Time.wav

Peak level 87.5 %
Extraction speed 2.0 X
Track quality 100.0 %
Test CRC CECB716F
Copy CRC CECB716F
Track not present in AccurateRip database
Copy OK

Track 3

Filename F:\ЗАГРУЗКИ\ Best Of Lounge Music 6CD (2012)\CD6 - Spirit Of Chill-Out\03. Lonely Drifter Karen - This World Is Crazy.wav

Peak level 97.7 %
Extraction speed 2.3 X
Track quality 100.0 %
Test CRC 3E167928
Copy CRC 3E167928
Track not present in AccurateRip database
Copy OK

Track 4

Filename F:\ЗАГРУЗКИ\ Best Of Lounge Music 6CD (2012)\CD6 - Spirit Of Chill-Out\04. Alex Gopher - You, My Baby & I.wav

Peak level 97.2 %
Extraction speed 2.5 X
Track quality 100.0 %
Test CRC 2931D286
Copy CRC 2931D286
Track not present in AccurateRip database
Copy OK

Track 5

Filename F:\ЗАГРУЗКИ\ Best Of Lounge Music 6CD (2012)\CD6 - Spirit Of Chill-Out\05. Mark Ronson Feat. Alex Greenwald - Just.wav

Peak level 95.3 %
Extraction speed 1.9 X
Track quality 99.9 %
Test CRC B36B5F04
Copy CRC B36B5F04
Track not present in AccurateRip database
Copy OK

Track 6

Filename F:\ЗАГРУЗКИ\ Best Of Lounge Music 6CD (2012)\CD6 - Spirit Of Chill-Out\06. Howie B - I Need Light.wav

Peak level 97.7 %
Extraction speed 1.8 X
Track quality 99.9 %
Test CRC A03AF763
Copy CRC A03AF763
Track not present in AccurateRip database
Copy OK

Track 7

Filename F:\ЗАГРУЗКИ\ Best Of Lounge Music 6CD (2012)\CD6 - Spirit Of Chill-Out\07. Vikter Duplaix - Sensuality.wav

Peak level 97.2 %
Extraction speed 3.0 X
Track quality 100.0 %
Test CRC 4BB695BB
Copy CRC 4BB695BB
Track not present in AccurateRip database
Copy OK

Track 8

Filename F:\ЗАГРУЗКИ\ Best Of Lounge Music 6CD (2012)\CD6 - Spirit Of Chill-Out\08. Kruder & Dorfmeister - High Moon.wav

Peak level 97.7 %
Extraction speed 2.9 X
Track quality 100.0 %
Test CRC AA3B4100
Copy CRC AA3B4100
Track not present in AccurateRip database
Copy OK

Track 9

Filename F:\ЗАГРУЗКИ\ Best Of Lounge Music 6CD (2012)\CD6 - Spirit Of Chill-Out\09. Thievery Corporation - It Takes A Thief.wav

Peak level 97.2 %
Extraction speed 3.2 X
Track quality 100.0 %
Test CRC 178359B3
Copy CRC 178359B3
Track not present in AccurateRip database
Copy OK

Track 10

Filename F:\ЗАГРУЗКИ\ Best Of Lounge Music 6CD (2012)\CD6 - Spirit Of Chill-Out\10. Dj Cam - Bronx Theme.wav

Peak level 97.7 %
Extraction speed 3.4 X
Track quality 100.0 %
Test CRC 28A12AE9
Copy CRC 28A12AE9
Track not present in AccurateRip database
Copy OK

Track 11

Filename F:\ЗАГРУЗКИ\ Best Of Lounge Music 6CD (2012)\CD6 - Spirit Of Chill-Out\11. Tosca - Pyjama.wav

Peak level 97.7 %
Extraction speed 3.4 X
Track quality 100.0 %
Test CRC D1FA61B4
Copy CRC D1FA61B4
Track not present in AccurateRip database
Copy OK

Track 12

Filename F:\ЗАГРУЗКИ\ Best Of Lounge Music 6CD (2012)\CD6 - Spirit Of Chill-Out\12. Ty - Wait A Minute.wav

Peak level 86.6 %
Extraction speed 2.4 X
Track quality 99.9 %
Test CRC EF8CA7DE
Copy CRC EF8CA7DE
Track not present in AccurateRip database
Copy OK

Track 13

Filename F:\ЗАГРУЗКИ\ Best Of Lounge Music 6CD (2012)\CD6 - Spirit Of Chill-Out\13. Roots Manuva - Witness Dub.wav

Peak level 96.0 %
Extraction speed 2.5 X
Track quality 99.9 %
Test CRC 8F64360F
Copy CRC 8F64360F
Track not present in AccurateRip database
Copy OK

Track 14

Filename F:\ЗАГРУЗКИ\ Best Of Lounge Music 6CD (2012)\CD6 - Spirit Of Chill-Out\14. Dj Food - Turtle Soup (Wagon Christ Mix).wav

Peak level 97.7 %
Extraction speed 3.8 X
Track quality 100.0 %
Test CRC 0192D7E6
Copy CRC 0192D7E6
Track not present in AccurateRip database
Copy OK

Track 15

Filename F:\ЗАГРУЗКИ\ Best Of Lounge Music 6CD (2012)\CD6 - Spirit Of Chill-Out\15. Spanky Wilson & The Quantic Soul Orchestra Vs Lanu - Don't Joke With A Hungry Mother.wav

Peak level 97.7 %
Extraction speed 3.8 X
Track quality 100.0 %
Test CRC DDB1F0B5
Copy CRC DDB1F0B5
Track not present in AccurateRip database
Copy OK

Track 16

Filename F:\ЗАГРУЗКИ\ Best Of Lounge Music 6CD (2012)\CD6 - Spirit Of Chill-Out\16. Quantic - Mishaps Happening (Prins Tomas Edit).wav

Peak level 97.7 %
Extraction speed 2.7 X
Track quality 99.9 %
Test CRC 28F4484A
Copy CRC 28F4484A
Track not present in AccurateRip database
Copy OK

Track 17

Filename F:\ЗАГРУЗКИ\ Best Of Lounge Music 6CD (2012)\CD6 - Spirit Of Chill-Out\17. Diplo Feat. Martina Topley Bird - Into The Sun.wav

Peak level 93.8 %
Extraction speed 4.2 X
Track quality 100.0 %
Test CRC 7A424F3A
Copy CRC 7A424F3A
Track not present in AccurateRip database
Copy OK

Track 18

Filename F:\ЗАГРУЗКИ\ Best Of Lounge Music 6CD (2012)\CD6 - Spirit Of Chill-Out\18. Kid Koala & Money Mark - Carpal Tunnel Syndrome.wav

Peak level 88.6 %
Extraction speed 4.3 X
Track quality 100.0 %
Test CRC 213F5634
Copy CRC 213F5634
Track not present in AccurateRip database
Copy OK

Track 19

Filename F:\ЗАГРУЗКИ\ Best Of Lounge Music 6CD (2012)\CD6 - Spirit Of Chill-Out\19. Reminiscence Quartet - Jazz Thing.wav

Peak level 97.7 %
Extraction speed 4.3 X
Track quality 100.0 %
Test CRC 4D85EE67
Copy CRC 4D85EE67
Track not present in AccurateRip database
Copy OK

Track 20

Filename F:\ЗАГРУЗКИ\ Best Of Lounge Music 6CD (2012)\CD6 - Spirit Of Chill-Out\20. The Mighty Bop - Feeling Good.wav

Peak level 96.7 %
Extraction speed 4.4 X
Track quality 100.0 %
Test CRC CCD31147
Copy CRC CCD31147
Track not present in AccurateRip database
Copy OK


None of the tracks are present in the AccurateRip database

No errors occurred

End of status report

==== Log checksum CB54303A3DB39B0734B9725258A83F5F41F69C675269BB9ED1BDD4BD3A700280 ====

foobar2000 1.2 / Dynamic Range Meter 1.1.1
log date: 2013-04-29 21:06:29

––––––––––––––––––––––––––––––––––––––––
Analyzed: Alex Gopher / Best Of Lounge - CD6 - Spirit Of Chill-Out (1)
Cocoon / Best Of Lounge - CD6 - Spirit Of Chill-Out (2)
Diplo Feat. Martina Topley Bird / Best Of Lounge - CD6 - Spirit Of Chill-Out (3)
Dj Cam / Best Of Lounge - CD6 - Spirit Of Chill-Out (4)
Dj Food / Best Of Lounge - CD6 - Spirit Of Chill-Out (5)
Hey Hey My My / Best Of Lounge - CD6 - Spirit Of Chill-Out (6)
Howie B / Best Of Lounge - CD6 - Spirit Of Chill-Out (7)
Kid Koala & Money Mark / Best Of Lounge - CD6 - Spirit Of Chill-Out (8)
Kruder & Dorfmeister / Best Of Lounge - CD6 - Spirit Of Chill-Out (9)
Lonely Drifter Karen / Best Of Lounge - CD6 - Spirit Of Chill-Out (10)
Mark Ronson Feat. Alex Greenwald / Best Of Lounge - CD6 - Spirit Of Chill-Out (11)
Quantic / Best Of Lounge - CD6 - Spirit Of Chill-Out (12)
Reminiscence Quartet / Best Of Lounge - CD6 - Spirit Of Chill-Out (13)
Roots Manuva / Best Of Lounge - CD6 - Spirit Of Chill-Out (14)
Spanky Wilson & The Quantic Soul Orchestra Vs Lanu / Best Of Lounge - CD6 - Spirit Of Chill-Out (15)
The Mighty Bop / Best Of Lounge - CD6 - Spirit Of Chill-Out (16)
Thievery Corporation / Best Of Lounge - CD6 - Spirit Of Chill-Out (17)
Tosca / Best Of Lounge - CD6 - Spirit Of Chill-Out (18)
Ty / Best Of Lounge - CD6 - Spirit Of Chill-Out (19)
Vikter Duplaix / Best Of Lounge - CD6 - Spirit Of Chill-Out (20)
––––––––––––––––––––––––––––––––––––––––

DR Peak RMS Duration Track
––––––––––––––––––––––––––––––––––––––––
DR9 -0.25 dB -11.60 dB 4:13 04-You, My Baby & I
DR8 -0.20 dB -10.62 dB 2:54 01-Hey Ya
DR5 -0.55 dB -8.56 dB 5:53 17-Into The Sun
DR7 -0.20 dB -8.97 dB 4:38 10-Bronx Theme
DR5 -0.19 dB -7.76 dB 4:57 14-Turtle Soup (Wagon Christ Mix)
DR6 -1.16 dB -7.81 dB 2:45 02-I Need Some Time
DR7 -0.20 dB -9.50 dB 3:16 06-I Need Light
DR7 -1.04 dB -10.43 dB 4:43 18-Carpal Tunnel Syndrome
DR6 -0.20 dB -7.39 dB 2:59 08-High Moon
DR7 -0.20 dB -10.54 dB 3:33 03-This World Is Crazy
DR8 -0.41 dB -9.04 dB 3:47 05-Just
DR10 -0.20 dB -12.19 dB 3:37 16-Mishaps Happening (Prins Tomas Edit)
DR8 -0.20 dB -9.70 dB 4:09 19-Jazz Thing
DR6 -0.35 dB -7.32 dB 3:52 13-Witness Dub
DR7 -0.19 dB -7.49 dB 3:26 15-Don't Joke With A Hungry Mother
DR7 -0.29 dB -8.45 dB 4:12 20-Feeling Good
DR8 -0.25 dB -9.07 dB 4:08 09-It Takes A Thief
DR8 -0.20 dB -9.36 dB 3:52 11-Pyjama
DR7 -1.24 dB -9.00 dB 3:21 12-Wait A Minute
DR7 -0.25 dB -9.56 dB 4:22 07-Sensuality
––––––––––––––––––––––––––––––––––––––––

Number of tracks: 20
Official DR value: DR7

Samplerate: 44100 Hz
Channels: 2
Bits per sample: 16
Bitrate: 753 kbps
Codec: FLAC
================================================================================

VA - Best Of Lounge Music (2012) 6 CD Box Set