Subcategories

VA - Big Surf (1991)

Posted By: popsakov
VA - Big Surf (1991)

VA - Big Surf (1991)
EAC Rip | FLAC (Img) + Cue + Log ~ 413 Mb | MP3 CBR320 ~ 188 Mb
Full Scans | 01:15:30 | RAR 5% Recovery
Surf Rock | Ace Records #CDCHD 319

On this CD you get the cream of five great Surf bands. Del-Fi artists the Sentinals, the Impacts, the Centurions, the Lively Ones and Dave Myers and the Surftones. These bands were some of the best and most faithful to the instrumental Surf music genre. These guys played awesome Surf music, but were mostly not well-known! So this disc is a real find for the Surf fan who has lots of Ventures, Surfaris and Dick Dale and is looking for something a bit more pure and exotic.

***************

VA - Big Surf (1991)

VA - Big Surf (1991)

Track List:

01. The Lively Ones - Pipeline [2:13]
02. Dave Meyers And The Surftones - Church Key [2:18]
03. The Centurions - Bullwinkle Part 2 [2:19]
04. The Impacts - Steel Pier [2:22]
05. The Lively Ones - Surf Rider [2:28]
06. The Sentinals - Exotic [2:03]
07. The Centurions - Sano [2:46]
08. The Lively Ones - Scratch [2:58]
09. The Impacts - Impact [1:51]
10. The Sentinals - The Pipe [2:07]
11. The Lively Ones - Misirlou [2:33]
12. The Sentinals - Latin'ia [2:30]
13. The Impacts - Blue Surf [3:20]
14. The Centurions - Surfin' At Mazatland [3:16]
15. The Lively Ones - Surf Beat [2:28]
16. The Centurions - Body Surfin' [1:59]
17. The Impacts - Wipe Out [2:29]
18. The Lively Ones - High Tide [1:53]
19. The Sentinals - Latin Soul [2:04]
20. The Centurions - Church Key [1:54]
21. Dave Meyers And The Surftones - Moment Of Truth [2:49]
22. The Sentinals - Tor Chula [2:12]
23. The Centurions - Vesuvius [2:29]
24. The Lively Ones - Baja [2:10]
25. The Impacts - Fort Lauderdale [1:41]
26. The Lively Ones - Torquay [2:13]
27. The Centurions - Latin'ia [2:22]
28. The Lively Ones - Soul Surfer [2:32]
29. The Impacts - Church Key [2:04]
30. The Centurions - Intoxica [1:50]
31. The Lively Ones - Rik-A-Tik [3:02]
32. The Sentinals - Big Surf [2:15]

Exact Audio Copy V0.99 prebeta 5 from 4. May 2009

EAC extraction logfile from 29. April 2010, 16:41

Various / Big Surf

Used drive : PIONEER DVD-RW DVR-111D Adapter: 1 ID: 1

Read mode : Secure
Utilize accurate stream : Yes
Defeat audio cache : Yes
Make use of C2 pointers : No

Read offset correction : 48
Overread into Lead-In and Lead-Out : No
Fill up missing offset samples with silence : Yes
Delete leading and trailing silent blocks : No
Null samples used in CRC calculations : Yes
Used interface : Native Win32 interface for Win NT & 2000

Used output format : User Defined Encoder
Selected bitrate : 1024 kBit/s
Quality : High
Add ID3 tag : No
Command line compressor : C:\Program Files\Exact Audio Copy\Flac\flac.exe
Additional command line options : -8 -T "artist=%a" -T "title=%t" -T "album=%g" -T "date=%y" -T "tracknumber=%n" -T "genre=%m" %s


TOC of the extracted CD

Track | Start | Length | Start sector | End sector
––––––––––––––––––––––––––––-
1 | 0:00.00 | 2:13.22 | 0 | 9996
2 | 2:13.22 | 2:17.40 | 9997 | 20311
3 | 4:30.62 | 2:19.18 | 20312 | 30754
4 | 6:50.05 | 2:21.67 | 30755 | 41396
5 | 9:11.72 | 2:27.73 | 41397 | 52494
6 | 11:39.70 | 2:03.37 | 52495 | 61756
7 | 13:43.32 | 2:45.45 | 61757 | 74176
8 | 16:29.02 | 2:58.20 | 74177 | 87546
9 | 19:27.22 | 1:51.30 | 87547 | 95901
10 | 21:18.52 | 2:07.15 | 95902 | 105441
11 | 23:25.67 | 2:33.08 | 105442 | 116924
12 | 25:59.00 | 2:29.40 | 116925 | 128139
13 | 28:28.40 | 3:20.15 | 128140 | 143154
14 | 31:48.55 | 3:15.62 | 143155 | 157841
15 | 35:04.42 | 2:28.33 | 157842 | 168974
16 | 37:33.00 | 1:59.25 | 168975 | 177924
17 | 39:32.25 | 2:28.52 | 177925 | 189076
18 | 42:01.02 | 1:53.30 | 189077 | 197581
19 | 43:54.32 | 2:03.48 | 197582 | 206854
20 | 45:58.05 | 1:53.57 | 206855 | 215386
21 | 47:51.62 | 2:48.55 | 215387 | 228041
22 | 50:40.42 | 2:11.43 | 228042 | 237909
23 | 52:52.10 | 2:29.22 | 237910 | 249106
24 | 55:21.32 | 2:10.35 | 249107 | 258891
25 | 57:31.67 | 1:40.43 | 258892 | 266434
26 | 59:12.35 | 2:12.72 | 266435 | 276406
27 | 61:25.32 | 2:21.53 | 276407 | 287034
28 | 63:47.10 | 2:31.50 | 287035 | 298409
29 | 66:18.60 | 2:03.57 | 298410 | 307691
30 | 68:22.42 | 1:50.13 | 307692 | 315954
31 | 70:12.55 | 3:02.07 | 315955 | 329611
32 | 73:14.62 | 2:15.15 | 329612 | 339751


Range status and errors

Selected range

Filename D:\Downloads\VA - 32 Hot Rod Hits (1990)\VA - Big Surf (1991)\VA - Big Surf.wav

Peak level 100.0 %
Range quality 99.9 %
Copy CRC BC7E47FA
Copy OK

No errors occurred


AccurateRip summary

Track 1 accurately ripped (confidence 1) [DB84B72D]
Track 2 accurately ripped (confidence 1) [60A215CD]
Track 3 accurately ripped (confidence 1) [3E1652A3]
Track 4 accurately ripped (confidence 1) [30E64E83]
Track 5 accurately ripped (confidence 1) [C7A92238]
Track 6 accurately ripped (confidence 1) [CEBAF164]
Track 7 accurately ripped (confidence 1) [85FE3E8E]
Track 8 accurately ripped (confidence 1) [DA87E4D5]
Track 9 accurately ripped (confidence 1) [DCEAE925]
Track 10 accurately ripped (confidence 1) [1FDF8449]
Track 11 accurately ripped (confidence 1) [4925324F]
Track 12 accurately ripped (confidence 1) [86816495]
Track 13 accurately ripped (confidence 1) [125ABF5F]
Track 14 accurately ripped (confidence 1) [FFC5A208]
Track 15 accurately ripped (confidence 1) [643BD7F4]
Track 16 accurately ripped (confidence 1) [465A044C]
Track 17 accurately ripped (confidence 1) [69F9DE19]
Track 18 accurately ripped (confidence 1) [7606B2A0]
Track 19 accurately ripped (confidence 1) [E6DDF5BA]
Track 20 accurately ripped (confidence 1) [185AF9B7]
Track 21 accurately ripped (confidence 1) [1DB02F25]
Track 22 accurately ripped (confidence 1) [0F54F30C]
Track 23 accurately ripped (confidence 1) [669EA08F]
Track 24 accurately ripped (confidence 1) [5609B0DB]
Track 25 accurately ripped (confidence 1) [C7EA9D71]
Track 26 accurately ripped (confidence 1) [710E092E]
Track 27 accurately ripped (confidence 1) [FF49F245]
Track 28 accurately ripped (confidence 1) [D0A4A322]
Track 29 accurately ripped (confidence 1) [FD153F7A]
Track 30 accurately ripped (confidence 1) [06845599]
Track 31 accurately ripped (confidence 1) [BC965D7B]
Track 32 accurately ripped (confidence 1) [3654EC46]

All tracks accurately ripped

End of status report

[CUETools log; Date: 18.05.2020 11:20:03; Version: 2.1.6]
[CTDB TOCID: y_ilI05umOYM2sfxGYf1o0_WUIc-] found.
Track | CTDB Status
1 | (4/4) Accurately ripped
2 | (4/4) Accurately ripped
3 | (4/4) Accurately ripped
4 | (4/4) Accurately ripped
5 | (4/4) Accurately ripped
6 | (4/4) Accurately ripped
7 | (4/4) Accurately ripped
8 | (4/4) Accurately ripped
9 | (4/4) Accurately ripped
10 | (4/4) Accurately ripped
11 | (4/4) Accurately ripped
12 | (4/4) Accurately ripped
13 | (4/4) Accurately ripped
14 | (4/4) Accurately ripped
15 | (4/4) Accurately ripped
16 | (4/4) Accurately ripped
17 | (4/4) Accurately ripped
18 | (4/4) Accurately ripped
19 | (4/4) Accurately ripped
20 | (4/4) Accurately ripped
21 | (4/4) Accurately ripped
22 | (4/4) Accurately ripped
23 | (4/4) Accurately ripped
24 | (4/4) Accurately ripped
25 | (4/4) Accurately ripped
26 | (4/4) Accurately ripped
27 | (4/4) Accurately ripped
28 | (4/4) Accurately ripped
29 | (4/4) Accurately ripped
30 | (4/4) Accurately ripped
31 | (4/4) Accurately ripped
32 | (4/4) Accurately ripped
[AccurateRip ID: 00569f5d-07a800ee-b411b220] found.
Track [ CRC | V2 ] Status
01 [db84b72d|e32386e7] (2+0/2) Accurately ripped
02 [60a215cd|31f59d67] (2+0/2) Accurately ripped
03 [3e1652a3|71f922ae] (2+0/2) Accurately ripped
04 [30e64e83|fb234fe4] (2+0/2) Accurately ripped
05 [c7a92238|c5e798ba] (2+0/2) Accurately ripped
06 [cebaf164|8f06d361] (2+0/2) Accurately ripped
07 [85fe3e8e|5a4b8318] (2+0/2) Accurately ripped
08 [da87e4d5|a0c2b67d] (2+0/2) Accurately ripped
09 [dceae925|07e6c038] (2+0/2) Accurately ripped
10 [1fdf8449|8041291a] (2+0/2) Accurately ripped
11 [4925324f|773b42ed] (2+0/2) Accurately ripped
12 [86816495|08b3d3a8] (2+0/2) Accurately ripped
13 [125abf5f|bb91453e] (2+0/2) Accurately ripped
14 [ffc5a208|e67534b4] (2+0/2) Accurately ripped
15 [643bd7f4|d426d79c] (2+0/2) Accurately ripped
16 [465a044c|50048f5c] (2+0/2) Accurately ripped
17 [69f9de19|83128bc7] (2+0/2) Accurately ripped
18 [7606b2a0|9be6f86a] (2+0/2) Accurately ripped
19 [e6ddf5ba|7d35d40c] (2+0/2) Accurately ripped
20 [185af9b7|6dd3e30d] (2+0/2) Accurately ripped
21 [1db02f25|198bed64] (2+0/2) Accurately ripped
22 [0f54f30c|85eb0d58] (2+0/2) Accurately ripped
23 [669ea08f|339c801d] (2+0/2) Accurately ripped
24 [5609b0db|ce8e9f19] (2+0/2) Accurately ripped
25 [c7ea9d71|8ade41f2] (2+0/2) Accurately ripped
26 [710e092e|48be5f56] (2+0/2) Accurately ripped
27 [ff49f245|aea40e99] (2+0/2) Accurately ripped
28 [d0a4a322|7113d446] (2+0/2) Accurately ripped
29 [fd153f7a|ac9b9be1] (2+0/2) Accurately ripped
30 [06845599|3d6fb88c] (2+0/2) Accurately ripped
31 [bc965d7b|c27038b6] (2+0/2) Accurately ripped
32 [3654ec46|8f969bc2] (2+0/2) Accurately ripped

Track Peak [ CRC32 ] [W/O NULL] [ LOG ]
– 100,0 [BC7E47FA] [37C03AF6] CRC32
01 89,8 [6580D73E] [10973FF7]
02 86,3 [9020998D] [35219800]
03 78,9 [9ECEAB82] [9975E95B]
04 96,4 [1744292D] [30838735]
05 86,2 [DB196B18] [08483049]
06 92,0 [4D04461D] [18939EDC]
07 79,3 [2EEAEA4D] [AB7038AF]
08 90,5 [06673DB4] [9AB15F6E]
09 87,4 [6026DEA7] [EDAB7563]
10 77,3 [365761DC] [81F5185A]
11 79,3 [D3AEF621] [7D4D7EFE]
12 69,8 [18986280] [20F56330]
13 86,5 [D13DBBAA] [40B0A7CD]
14 88,9 [591BCCCC] [2458ABF9]
15 93,8 [CFA88CBB] [2FFC4C85]
16 86,4 [20802A31] [D9485798]
17 91,2 [1590C244] [21BBC753]
18 92,9 [4935FA2B] [BC9C3E7C]
19 86,1 [A37CD92C] [D19252B2]
20 85,8 [E345BB48] [1C296650]
21 93,6 [4F5863CB] [35251979]
22 97,0 [E655893D] [12A1A45C]
23 90,7 [D3C5CD62] [C4B96C08]
24 91,1 [390C0962] [C9168DF9]
25 95,2 [C8996ACE] [35036178]
26 94,7 [E4F619EA] [4C9D2B04]
27 100,0 [D43D1CC5] [F36BE092]
28 87,2 [2C0948C4] [68C95AEA]
29 99,3 [1377F0BD] [3A4E7F91]
30 86,5 [8AF27178] [9C8E4C85]
31 81,7 [F1B0BBF1] [A4722665]
32 80,8 [05135B9D] [16470781]

VA - Big Surf (1991)


All thanks go to the original ripper(s) …

>>> My Blog <<<

DOWNLOAD: