Subcategories

VA - Blue Note Plays Prince (2015)

Posted By: Designol
VA - Blue Note Plays Prince (2015)

VA - Blue Note Plays Prince (2015)
EAC | FLAC | Image (Cue&Log) ~ 404 Mb | Mp3 (CBR320) ~ 143 Mb | Scans ~ 86 Mb | 01:03:58
Tribute, Jazz, R&B | Label: Blue Note | # 7243 8 63827 2 6

2006 collection that contains Jazz musicians performing the classic, unforgettable music of R&B/Rock icon Prince. Prince has been among the most original and influential artists to emerge in the second half of the 20th century. Jazz musicians have always had a keen ear for Pop tunes of lasting quality since Coleman Hawkins covered 'Body And Soul'. Blue Note celebrates the work of Prince with this collection of tracks that features cover versions of Prince classics by the Bob Belden Project featuring guest vocals by Cassandra Wilson, Venus de Milo, Phil Perry, Holly Cole and Jimi Tunnell.


Tracklist:

01. Cassandra Wilson, Greg Osby & Bob Belden - When Doves Cry (5:42)
02. Bob Belden & Tim Hagans - Venus De Milo (6:59)
03. Phil Perry, Everette Harp & Bob Belden - Diamonds And Pearls (4:28)
04. Bob Belden & Peter Bernstein - 1999 (7:53)
05. Holly Cole & Bob Belden - Purple Rain (4:27)
06. Jimi Tunnell & Bob Belden - Kiss (5:02)
07. Wallace Roney, Kenny Garrett & Bob Belden - Electric Chair (9:24)
08. Bob Belden & Tim Hagans - The Ballad Of Dorothy Parker (7:59)
09. Holly Cole & Bob Belden - Question Of U (3:43)
10. Bob Belden & Tim Hagans - Power Fantastic (8:20)


Exact Audio Copy V0.99 prebeta 4 from 23. January 2008

EAC extraction logfile from 29. June 2011, 11:05

Various Artists / Blue Note Plays Prince

Used drive : TSSTcorpDVD+-RW TS-L632D Adapter: 1 ID: 0

Read mode : Secure
Utilize accurate stream : Yes
Defeat audio cache : Yes
Make use of C2 pointers : No

Read offset correction : 6
Overread into Lead-In and Lead-Out : No
Fill up missing offset samples with silence : Yes
Delete leading and trailing silent blocks : No
Null samples used in CRC calculations : Yes
Used interface : Native Win32 interface for Win NT & 2000

Used output format : User Defined Encoder
Selected bitrate : 320 kBit/s
Quality : High
Add ID3 tag : No
Command line compressor : C:\Program Files\Exact Audio Copy\FLAC\FLAC.EXE
Additional command line options : -8 -V %s


TOC of the extracted CD

Track | Start | Length | Start sector | End sector
––––––––––––––––––––––––––––-
1 | 0:00.00 | 5:41.67 | 0 | 25641
2 | 5:41.67 | 6:59.18 | 25642 | 57084
3 | 12:41.10 | 4:28.05 | 57085 | 77189
4 | 17:09.15 | 7:53.22 | 77190 | 112686
5 | 25:02.37 | 4:26.60 | 112687 | 132696
6 | 29:29.22 | 5:01.63 | 132697 | 155334
7 | 34:31.10 | 9:24.37 | 155335 | 197671
8 | 43:55.47 | 7:58.60 | 197672 | 233581
9 | 51:54.32 | 3:43.30 | 233582 | 250336
10 | 55:37.62 | 8:20.18 | 250337 | 287854


Range status and errors

Selected range

Filename C:\Music\Раздачи\Various Artists - Blue Note Plays Prince\Various Artists - Blue Note Plays Prince.wav

Peak level 100.0 %
Range quality 99.9 %
Test CRC 115E751D
Copy CRC 115E751D
Copy OK

No errors occurred


AccurateRip summary

Track 1 accurately ripped (confidence 1) [5AEC922B]
Track 2 accurately ripped (confidence 1) [22C004F2]
Track 3 accurately ripped (confidence 1) [18C4A603]
Track 4 accurately ripped (confidence 1) [4F2A046A]
Track 5 accurately ripped (confidence 1) [BFC84C21]
Track 6 accurately ripped (confidence 1) [A840DE04]
Track 7 accurately ripped (confidence 1) [8C4151EA]
Track 8 accurately ripped (confidence 1) [EB814AE0]
Track 9 accurately ripped (confidence 1) [EE9DE653]
Track 10 cannot be verified as accurate (confidence 1) [8098C915], AccurateRip returned [088F213A]

9 track(s) accurately ripped
1 track(s) could not be verified as accurate

Some tracks could not be verified as accurate

End of status report

[CUETools log; Date: 07.01.2018 20:38:46; Version: 2.1.4]
[CTDB TOCID: 2s2HwMjCsYWOMc5u2SFRucZ7veM-] found.
Track | CTDB Status
1 | (12/15) Accurately ripped
2 | (10/15) Accurately ripped
3 | (12/15) Accurately ripped
4 | (12/15) Accurately ripped
5 | (13/15) Accurately ripped
6 | (13/15) Accurately ripped
7 | (12/15) Accurately ripped
8 | (11/15) Accurately ripped
9 | (13/15) Accurately ripped
10 | ( 8/15) Differs in 126 samples @06:58:36-06:58:37, or (1/15) differs in 126 samples @06:58:36-06:58:37
[AccurateRip ID: 001758e2-00bc2a83-760efe0a] found.
Track [ CRC | V2 ] Status
01 [5aec922b|7fa687c0] (0+0/5) No match
02 [22c004f2|859f9ca6] (0+0/5) No match
03 [18c4a603|b2ff8778] (0+0/5) No match
04 [4f2a046a|6aa3bd0e] (0+0/5) No match
05 [bfc84c21|eb0f503b] (0+0/5) No match
06 [a840de04|3f260b24] (0+0/5) No match
07 [8c4151ea|c191e529] (0+0/5) No match
08 [eb814ae0|88f02b6c] (0+0/5) No match
09 [ee9de653|2dd17911] (0+0/5) No match
10 [8098c915|0bbf7e41] (0+0/5) No match
Offsetted by -676:
01 [d0c5cd33] (0/5) No match (V2 was not tested)
02 [67a47dca] (0/5) No match (V2 was not tested)
03 [f0b653cf] (0/5) No match (V2 was not tested)
04 [6c9e5526] (0/5) No match (V2 was not tested)
05 [7364ee01] (0/5) No match (V2 was not tested)
06 [ac781398] (0/5) No match (V2 was not tested)
07 [a0fee2aa] (0/5) No match (V2 was not tested)
08 [35c1d9ac] (0/5) No match (V2 was not tested)
09 [aa41396b] (0/5) No match (V2 was not tested)
10 [0eb39cd1] (0/5) No match (V2 was not tested)
Offsetted by -664:
01 [cba6addb] (0/5) No match (V2 was not tested)
02 [d98b3a82] (0/5) No match (V2 was not tested)
03 [d0190b0b] (0/5) No match (V2 was not tested)
04 [b34a7812] (0/5) No match (V2 was not tested)
05 [4bd9d161] (0/5) No match (V2 was not tested)
06 [7ef34f3c] (0/5) No match (V2 was not tested)
07 [d29d9a6a] (0/5) No match (V2 was not tested)
08 [99ee25e8] (0/5) No match (V2 was not tested)
09 [b6126563] (0/5) No match (V2 was not tested)
10 [3697debd] (0/5) No match (V2 was not tested)

Track Peak [ CRC32 ] [W/O NULL] [ LOG ]
– 100,0 [115E751D] [F4B3EB30] CRC32
01 99,8 [5F69E352] [3099C96C]
02 99,8 [3057A6A8] [085ADA96]
03 94,3 [12F2D9D3] [FAFE5E67]
04 100,0 [7544EA34] [4EDE9B5E]
05 99,8 [16CDB522] [F38136A5]
06 99,8 [77A1F5E4] [088C2927]
07 99,8 [4E427F70] [938DB148]
08 98,5 [089FBCEB] [1AD17B26]
09 98,3 [42F0F977] [62021F2D]
10 97,6 [35F7F759] [9A3BA85D]

foobar2000 1.2 / Dynamic Range Meter 1.1.1
log date: 2018-01-07 20:25:29

––––––––––––––––––––––––––––––––––––––––
Analyzed: Bob Belden & Tim Hagans / Blue Note Plays Prince
––––––––––––––––––––––––––––––––––––––––

DR Peak RMS Duration Track
––––––––––––––––––––––––––––––––––––––––
DR12 -0.01 dB -15.64 dB 6:59 02-Venus De Milo
DR11 -0.12 dB -14.58 dB 7:59 08-The Ballad Of Dorothy Parker
DR8 -0.21 dB -11.34 dB 8:20 10-Power Fantastic
––––––––––––––––––––––––––––––––––––––––

Number of tracks: 3
Official DR value: DR10

Samplerate: 44100 Hz
Channels: 2
Bits per sample: 16
Bitrate: 884 kbps
Codec: FLAC
================================================================================

––––––––––––––––––––––––––––––––––––––––
Analyzed: Cassandra Wilson, Greg Osby & Bob Belden / Blue Note Plays Prince (1)
Holly Cole & Bob Belden / Blue Note Plays Prince (2-3)
––––––––––––––––––––––––––––––––––––––––

DR Peak RMS Duration Track
––––––––––––––––––––––––––––––––––––––––
DR11 -0.01 dB -13.91 dB 5:42 01-When Doves Cry
DR11 -0.01 dB -14.88 dB 4:27 05-Purple Rain
DR13 -0.14 dB -16.17 dB 3:43 09-Question Of U
––––––––––––––––––––––––––––––––––––––––

Number of tracks: 3
Official DR value: DR12

Samplerate: 44100 Hz
Channels: 2
Bits per sample: 16
Bitrate: 884 kbps
Codec: FLAC
================================================================================

––––––––––––––––––––––––––––––––––––––––
Statistics for: 06-Kiss
Number of samples: 13311144
Duration: 5:02
––––––––––––––––––––––––––––––––––––––––

Left Right

Peak Value: -0.01 dB –- -0.01 dB
Avg RMS: -12.45 dB –- -12.54 dB
DR channel: 10.50 dB –- 10.69 dB
––––––––––––––––––––––––––––––––––––––––

Official DR Value: DR11

Samplerate: 44100 Hz
Channels: 2
Bits per sample: 16
Bitrate: 884 kbps
Codec: FLAC
================================================================================
––––––––––––––––––––––––––––––––––––––––
Analyzed: Phil Perry, Everette Harp & Bob Belden / Blue Note Plays Prince (1)
Wallace Roney, Kenny Garrett & Bob Belden / Blue Note Plays Prince (2)
––––––––––––––––––––––––––––––––––––––––

DR Peak RMS Duration Track
––––––––––––––––––––––––––––––––––––––––
DR9 -0.51 dB -12.02 dB 4:28 03-Diamonds And Pearls
DR11 -0.01 dB -13.37 dB 9:24 07-Electric Chair
––––––––––––––––––––––––––––––––––––––––

Number of tracks: 2
Official DR value: DR10

Samplerate: 44100 Hz
Channels: 2
Bits per sample: 16
Bitrate: 884 kbps
Codec: FLAC
================================================================================
foobar2000 1.2 / Dynamic Range Meter 1.1.1
log date: 2018-01-07 20:25:14

––––––––––––––––––––––––––––––––––––––––
Statistics for: 04-1999
Number of samples: 20872236
Duration: 7:53
––––––––––––––––––––––––––––––––––––––––

Left Right

Peak Value: 0.00 dB –- 0.00 dB
Avg RMS: -13.92 dB –- -13.40 dB
DR channel: 12.23 dB –- 11.67 dB
––––––––––––––––––––––––––––––––––––––––

Official DR Value: DR12

Samplerate: 44100 Hz
Channels: 2
Bits per sample: 16
Bitrate: 884 kbps
Codec: FLAC
================================================================================

VA - Blue Note Plays Prince (2015)

VA - Blue Note Plays Prince (2015)

All thanks to original releaser - nkomissar

More interesting music in My Blog