Subcategories

VA - Breaking The Law: A Tribute To Judas Priest's Greatest Hits (2017)

Posted By: popsakov
VA - Breaking The Law: A Tribute To Judas Priest's Greatest Hits (2017)

VA - Breaking The Law: A Tribute To Judas Priest's Greatest Hits (2017)
2CD | EAC Rip | FLAC (Img) + Cue + Log ~ 1,15 Gb | MP3 CBR320 ~ 380 Mb
Full Scans (PNG, 400 dpi) ~ 261 Mb | RAR 5% Recovery
Hard Rock, Heavy Metal | Versailles Records / MVD #689240202117

Judas Priest was one of the most influential heavy metal bands of the '70s, spearheading the New Wave of British Heavy Metal late in the decade. Decked out in leather and chains, the band fused the gothic doom of Black Sabbath with the riffs and speed of Led Zeppelin, as well as adding a vicious two-lead guitar attack; in doing so, they set the pace for much popular heavy metal from 1975 until 1985, as well as laying the groundwork for the speed and death metal of the '80s.

BREAKING THE LAW gathers current/former members of Judas Priest, Whitesnake, Trans-Siberian Orchestra, Night Ranger, CAGE etc alongside Millennial metal bands like Leaving Eden, Sinful Lilly, MYSTIC FORCE, Shadowbomb and some of Priest's best tribute bands including British Steel, Iron Priest, Judas Rising, Painkiller and Sin after Sin celebrating heavy metal pioneers Judas Priests' Greatest Hits!
VA - Breaking The Law: A Tribute To Judas Priest's Greatest Hits (2017)

Track List CD1:

01. Cage - Freewheel Burning [4:14]
02. Sin After Sin - Beyond The Realms Of Death [4:35]
03. Joel Hoakstra, Jason McMaster, Richard Kendrick, Kurtis E. Phlush - The Sentinel [4:55]
04. Fierce Atmospheres - Screaming For Vengeance [4:39]
05. Jeffery Marcello Featuring Derrick LeFevre - Hell Bent For Leather [2:38]
06. Iconic Tonic - You Got Another Thing Coming [5:07]
07. Charlie Bonnet III - Devil's Child [4:52]
08. Painkiller - Metal Meltdown [4:11]
09. Drawzznikk - Reckless [4:04]
10. Monkeysoop Featuring Snowy Shaw - Sinner I [4:16]
11. Wicked Sins - Breaking The Law [3:12]
12. Justus - Diamonds And Rust [3:17]
13. Forward Momentum Prophecy - Living After Midnight [3:36]
14. Adventures Of Leonid - Electric Eye [3:21]
15. Erling Solem - Rocka Rolla [2:53]
16. Leaving Eden - You Got Another Thing Coming (Live) [3:46]
17. British Steel - Green Manalishi [3:15]
18. Iron Priest - The Ripper [3:02]
19. Berzon - Love Bites [3:21]
20. Judas Rising - Rock Hard, Ride Free [5:21]

Exact Audio Copy V1.0 beta 3 from 29. August 2011

EAC extraction logfile from 25. October 2017, 2:12

Judas Priest / A Tribute To Judas Priest's Greatest Hits CD1

Used drive : PIONEER BD-RW BDR-TD03 Adapter: 0 ID: 1

Read mode : Secure
Utilize accurate stream : Yes
Defeat audio cache : Yes
Make use of C2 pointers : No

Read offset correction : 667
Overread into Lead-In and Lead-Out : No
Fill up missing offset samples with silence : Yes
Delete leading and trailing silent blocks : No
Null samples used in CRC calculations : Yes
Used interface : Native Win32 interface for Win NT & 2000

Used output format : User Defined Encoder
Selected bitrate : 768 kBit/s
Quality : High
Add ID3 tag : No
Command line compressor : C:\Program Files (x86)\Exact Audio Copy\FLAC\FLAC.EXE
Additional command line options : -6 -V -T "ARTIST=%artist%" -T "TITLE=%title%" -T "ALBUM=%albumtitle%" -T "DATE=%year%" -T "TRACKNUMBER=%tracknr%" -T "GENRE=%genre%" -T "COMMENT=%comment%" -T "BAND=%albuminterpret%" -T "ALBUMARTIST=%albuminterpret%" -T "COMPOSER=%composer%" %haslyrics%–tag-from-file=LYRICS="%lyricsfile%"%haslyrics% -T "DISCNUMBER=%cdnumber%" -T "TOTALDISCS=%totalcds%" -T "TOTALTRACKS=%numtracks%" %hascover%–picture="%coverfile%"%hascover% %source% -o %dest%


TOC of the extracted CD

Track | Start | Length | Start sector | End sector
––––––––––––––––––––––––––––-
1 | 0:00.00 | 4:14.17 | 0 | 19066
2 | 4:14.17 | 4:35.37 | 19067 | 39728
3 | 8:49.54 | 4:55.24 | 39729 | 61877
4 | 13:45.03 | 4:39.28 | 61878 | 82830
5 | 18:24.31 | 2:37.65 | 82831 | 94670
6 | 21:02.21 | 5:07.37 | 94671 | 117732
7 | 26:09.58 | 4:52.02 | 117733 | 139634
8 | 31:01.60 | 4:10.53 | 139635 | 158437
9 | 35:12.38 | 4:03.56 | 158438 | 176718
10 | 39:16.19 | 4:16.34 | 176719 | 195952
11 | 43:32.53 | 3:12.28 | 195953 | 210380
12 | 46:45.06 | 3:16.53 | 210381 | 225133
13 | 50:01.59 | 3:36.34 | 225134 | 241367
14 | 53:38.18 | 3:20.48 | 241368 | 256415
15 | 56:58.66 | 2:53.13 | 256416 | 269403
16 | 59:52.04 | 3:45.65 | 269404 | 286343
17 | 63:37.69 | 3:15.22 | 286344 | 300990
18 | 66:53.16 | 3:01.42 | 300991 | 314607
19 | 69:54.58 | 3:21.00 | 314608 | 329682
20 | 73:15.58 | 5:21.14 | 329683 | 353771


Range status and errors

Selected range

Filename C:\Users\Deris\Desktop\JudPriTrib\CD1\Judas Priest - A Tribute To Judas Priest's Greatest Hits CD1.wav

Peak level 100.0 %
Extraction speed 5.1 X
Range quality 100.0 %
Test CRC CFDE74D2
Copy CRC CFDE74D2
Copy OK

No errors occurred


AccurateRip summary

Track 1 not present in database
Track 2 not present in database
Track 3 not present in database
Track 4 not present in database
Track 5 not present in database
Track 6 not present in database
Track 7 not present in database
Track 8 not present in database
Track 9 not present in database
Track 10 not present in database
Track 11 not present in database
Track 12 not present in database
Track 13 not present in database
Track 14 not present in database
Track 15 not present in database
Track 16 not present in database
Track 17 not present in database
Track 18 not present in database
Track 19 not present in database
Track 20 not present in database

None of the tracks are present in the AccurateRip database

End of status report

–– CUETools DB Plugin V2.1.3

[CTDB TOCID: JcBEFQjDzUiCKDTAWsJ7jmVqIJ8-] disk not present in database, Submit result: JcBEFQjDzUiCKDTAWsJ7jmVqIJ8- has been uploaded


==== Log checksum DA1210B837C42D87F7C17E656F9EAF23B3292DB0C4CA16CCBE0FAFD7DA1F296F ====

VA - Breaking The Law: A Tribute To Judas Priest's Greatest Hits (2017)

Track List CD2:

01. PayneKilla - A Touch Of Evil [5:39]
02. The Suicide Kingz - Green Manalishi II [3:18]
03. Sinful Lilly - Sinner II [5:42]
04. Mystic-Force - Painkiller [4:02]
05. Leaving Eden - Leaving Eden [3:40]
06. Xander Demos - White Knuckle Driving [3:17]
07. Brace4Impact - Chasing The Dragon [4:07]
08. The Furnace - The One That Bleeds [3:45]
09. PayneKilla - Dr.Death [3:43]
10. The Gost Peppers - Electify [4:12]
11. Erling Solem - Never Say Never [3:33]
12. The Techtonix - Seraphim 6 [4:50]
13. Loaded Dice - Angry [3:35]
14. Katet - Addicted To Sin [2:47]
15. Garden Of Eden - Stormy Winter [3:40]
16. Tim 'Ripper' Owens, Richard Kenrick, Ira Black, Kurtis E. Phlush - Aces High [3:37]
17. Aaron Seals - Call Of Duty (Live) [3:45]
18. The Beer Brothers - The Roscoe Stomp [2:33]
19. Chris Johnsosn - Return [3:54]
20. Johnnie Kaylor - Black Rose [3:38]
21. Soupbone - Fight For Your Right To Rock (21st Century Blues) [2:22]

Exact Audio Copy V1.0 beta 3 from 29. August 2011

EAC extraction logfile from 26. October 2017, 22:31

Judas Prist / A Tribute To Judas Priest's Greatest Hits CD2

Used drive : PIONEER BD-RW BDR-TD03 Adapter: 0 ID: 1

Read mode : Secure
Utilize accurate stream : Yes
Defeat audio cache : Yes
Make use of C2 pointers : No

Read offset correction : 667
Overread into Lead-In and Lead-Out : No
Fill up missing offset samples with silence : Yes
Delete leading and trailing silent blocks : No
Null samples used in CRC calculations : Yes
Used interface : Native Win32 interface for Win NT & 2000

Used output format : User Defined Encoder
Selected bitrate : 768 kBit/s
Quality : High
Add ID3 tag : No
Command line compressor : C:\Program Files (x86)\Exact Audio Copy\FLAC\FLAC.EXE
Additional command line options : -6 -V -T "ARTIST=%artist%" -T "TITLE=%title%" -T "ALBUM=%albumtitle%" -T "DATE=%year%" -T "TRACKNUMBER=%tracknr%" -T "GENRE=%genre%" -T "COMMENT=%comment%" -T "BAND=%albuminterpret%" -T "ALBUMARTIST=%albuminterpret%" -T "COMPOSER=%composer%" %haslyrics%–tag-from-file=LYRICS="%lyricsfile%"%haslyrics% -T "DISCNUMBER=%cdnumber%" -T "TOTALDISCS=%totalcds%" -T "TOTALTRACKS=%numtracks%" %hascover%–picture="%coverfile%"%hascover% %source% -o %dest%


TOC of the extracted CD

Track | Start | Length | Start sector | End sector
––––––––––––––––––––––––––––-
1 | 0:00.00 | 5:39.23 | 0 | 25447
2 | 5:39.23 | 3:17.43 | 25448 | 40265
3 | 8:56.66 | 5:42.26 | 40266 | 65941
4 | 14:39.17 | 4:02.35 | 65942 | 84126
5 | 18:41.52 | 3:39.41 | 84127 | 100592
6 | 22:21.18 | 3:16.52 | 100593 | 115344
7 | 25:37.70 | 4:06.59 | 115345 | 133853
8 | 29:44.54 | 3:45.28 | 133854 | 150756
9 | 33:30.07 | 3:43.07 | 150757 | 167488
10 | 37:13.14 | 4:12.08 | 167489 | 186396
11 | 41:25.22 | 3:33.00 | 186397 | 202371
12 | 44:58.22 | 4:50.14 | 202372 | 224135
13 | 49:48.36 | 3:35.00 | 224136 | 240260
14 | 53:23.36 | 2:47.27 | 240261 | 252812
15 | 56:10.63 | 3:40.06 | 252813 | 269318
16 | 59:50.69 | 3:37.17 | 269319 | 285610
17 | 63:28.11 | 3:45.18 | 285611 | 302503
18 | 67:13.29 | 2:32.48 | 302504 | 313951
19 | 69:46.02 | 3:53.39 | 313952 | 331465
20 | 73:39.41 | 3:38.21 | 331466 | 347836
21 | 77:17.62 | 2:22.00 | 347837 | 358486


Range status and errors

Selected range

Filename C:\Users\Deris\Desktop\JudPriTrib\CD2\Judas Prist - A Tribute To Judas Priest's Greatest Hits CD2.wav

Peak level 100.0 %
Extraction speed 5.1 X
Range quality 99.9 %
Test CRC 2F15891E
Copy CRC 2F15891E
Copy OK

No errors occurred


AccurateRip summary

Track 1 not present in database
Track 2 not present in database
Track 3 not present in database
Track 4 not present in database
Track 5 not present in database
Track 6 not present in database
Track 7 not present in database
Track 8 not present in database
Track 9 not present in database
Track 10 not present in database
Track 11 not present in database
Track 12 not present in database
Track 13 not present in database
Track 14 not present in database
Track 15 not present in database
Track 16 not present in database
Track 17 not present in database
Track 18 not present in database
Track 19 not present in database
Track 20 not present in database
Track 21 not present in database

None of the tracks are present in the AccurateRip database

End of status report

–– CUETools DB Plugin V2.1.3

[CTDB TOCID: R5Zhnfo.Lk41s.DkmaOpb3GKUoU-] disk not present in database, Submit result: R5Zhnfo.Lk41s.DkmaOpb3GKUoU- has been uploaded


==== Log checksum 50FAA1A74708BEE70EDD524EFFED8755A0408998A35D4AB7DB0D484728417BDD ====

VA - Breaking The Law: A Tribute To Judas Priest's Greatest Hits (2017)

All thanks go to Boris1

>>> Judas Priest in my Blog <<<

Download from icerbox.com: