Subcategories

VA - Die Hit Giganten: Best Of Schlager (2016) {3CD Box Set}

Posted By: popsakov
VA - Die Hit Giganten: Best Of Schlager (2016) {3CD Box Set}

VA - Die Hit Giganten: Best Of Schlager (2016) {3CD Box Set}
EAC Rip | FLAC (Img) + Cue + Log ~ 1,53 Gb | MP3 CBR320 ~ 516 Mb
Scans (JPG, 300 dpi) ~ 26 Mb | RAR 5% Recovery
Pop, Dance | Sony Music #88985343022

~ The Best of Schlager from the German pop compilation series. ~

VA - Die Hit Giganten: Best Of Schlager (2016) {3CD Box Set}

Track List CD1:

01. Udo Jurgens - Mit 66 Jahren [3:40]
02. Drafi Deutscher And His Magics - Marmor, Stein und Eisen bricht [2:39]
03. Mireille Mathieu - Hinter den Kulissen von Paris [2:34]
04. Nicole - Ein bi.chen Frieden [3:04]
05. Howard Carpendale - Ti amo [4:07]
06. Heino - Blau bluht der Enzian [4:06]
07. Katja Ebstein - Wunder gibt es immer wieder [3:33]
08. Costa Cordalis - Anita [3:09]
09. Bata Illic - Michaela [3:08]
10. Roberto Blanco - Ein bi.chen Spa. mu. sein [2:49]
11. Karel Gott - Die Biene Maja [2:37]
12. Rex Gildo - Fiesta Mexicana [3:07]
13. Chris Roberts - Du kannst nicht immer 17 sein [3:45]
14. Margot Werner - So ein Mann [3:19]
15. Tony Holiday - Tanze Samba mit mir [2:41]
16. Wencke Myhre - La. mein Knie, Joe [3:15]
17. Andrea Jurgens - Japanese Boy [2:54]
18. Ingrid Peters - Afrika [3:33]
19. Michael Holm - Mendocino [2:33]
20. Ireen Sheer - Xanadu [3:26]
21. Mary Roos - Aufrecht geh'n [3:06]

Exact Audio Copy V1.1 from 23. June 2015

EAC extraction logfile from 16. September 2016, 23:00

Various Artists / Die Hit Giganten Best of Schlager CD1

Used drive : PIONEER BD-RW BDR-209D Adapter: 0 ID: 5

Read mode : Secure
Utilize accurate stream : Yes
Defeat audio cache : Yes
Make use of C2 pointers : No

Read offset correction : 667
Overread into Lead-In and Lead-Out : No
Fill up missing offset samples with silence : Yes
Delete leading and trailing silent blocks : No
Null samples used in CRC calculations : Yes
Used interface : Installed external ASPI interface

Used output format : User Defined Encoder
Selected bitrate : 768 kBit/s
Quality : High
Add ID3 tag : No
Command line compressor : C:\Program Files (x86)\Exact Audio Copy\FLAC\FLAC.EXE
Additional command line options : -6 -V -T "ARTIST=%artist%" -T "TITLE=%title%" -T "ALBUM=%albumtitle%" -T "DATE=%year%" -T "TRACKNUMBER=%tracknr%" -T "GENRE=%genre%" -T "COMMENT=%comment%" -T "BAND=%albuminterpret%" -T "ALBUMARTIST=%albuminterpret%" -T "COMPOSER=%composer%" %haslyrics%–tag-from-file=LYRICS="%lyricsfile%"%haslyrics% -T "DISCNUMBER=%cdnumber%" -T "TOTALDISCS=%totalcds%" -T "TOTALTRACKS=%numtracks%" %hascover%–picture="%coverfile%"%hascover% %source% -o %dest%


TOC of the extracted CD

Track | Start | Length | Start sector | End sector
––––––––––––––––––––––––––––-
1 | 0:00.00 | 3:39.73 | 0 | 16497
2 | 3:39.73 | 2:38.65 | 16498 | 28412
3 | 6:18.63 | 2:34.29 | 28413 | 39991
4 | 8:53.17 | 3:04.11 | 39992 | 53802
5 | 11:57.28 | 4:06.57 | 53803 | 72309
6 | 16:04.10 | 4:05.67 | 72310 | 90751
7 | 20:10.02 | 3:33.33 | 90752 | 106759
8 | 23:43.35 | 3:08.51 | 106760 | 120910
9 | 26:52.11 | 3:08.08 | 120911 | 135018
10 | 30:00.19 | 2:49.05 | 135019 | 147698
11 | 32:49.24 | 2:37.33 | 147699 | 159506
12 | 35:26.57 | 3:07.30 | 159507 | 173561
13 | 38:34.12 | 3:45.04 | 173562 | 190440
14 | 42:19.16 | 3:18.69 | 190441 | 205359
15 | 45:38.10 | 2:41.06 | 205360 | 217440
16 | 48:19.16 | 3:15.12 | 217441 | 232077
17 | 51:34.28 | 2:54.24 | 232078 | 245151
18 | 54:28.52 | 3:33.32 | 245152 | 261158
19 | 58:02.09 | 2:33.34 | 261159 | 272667
20 | 60:35.43 | 3:26.17 | 272668 | 288134
21 | 64:01.60 | 3:05.64 | 288135 | 302073


Range status and errors

Selected range

Filename E:\MUSIC\Various Artists - Die Hit Giganten Best of Schlager CD1.wav

Peak level 99.0 %
Extraction speed 8.3 X
Range quality 100.0 %
Test CRC E8D91B30
Copy CRC E8D91B30
Copy OK

No errors occurred


AccurateRip summary

Track 1 not present in database
Track 2 not present in database
Track 3 not present in database
Track 4 not present in database
Track 5 not present in database
Track 6 not present in database
Track 7 not present in database
Track 8 not present in database
Track 9 not present in database
Track 10 not present in database
Track 11 not present in database
Track 12 not present in database
Track 13 not present in database
Track 14 not present in database
Track 15 not present in database
Track 16 not present in database
Track 17 not present in database
Track 18 not present in database
Track 19 not present in database
Track 20 not present in database
Track 21 not present in database

None of the tracks are present in the AccurateRip database

End of status report

==== Log checksum 81F9EEC473617A515770F91CC58E83E60C48A240A405995FB02D2EA9E3B6C61B ====

foobar2000 1.2.6 / Dynamic Range Meter 1.1.1
log date: 2016-09-19 17:41:43

––––––––––––––––––––––––––––––––––––––––
Analyzed: Various Artists / Die Hit Giganten Best of Schlager CD1
––––––––––––––––––––––––––––––––––––––––

DR Peak RMS Duration Track
––––––––––––––––––––––––––––––––––––––––
DR7 -0.40 dB -9.03 dB 3:40 01-Udo Jurgens - Mit 66 Jahren
DR7 -0.38 dB -9.75 dB 2:39 02-Drafi Deutscher And His Magics - Marmor, Stein und Eisen bricht
DR7 -0.08 dB -8.24 dB 2:34 03-Mireille Mathieu - Hinter den Kulissen von Paris
DR8 -0.28 dB -9.29 dB 3:04 04-Nicole - Ein bi.chen Frieden
DR8 -0.08 dB -9.63 dB 4:07 05-Howard Carpendale - Ti amo
DR7 -0.08 dB -8.58 dB 4:06 06-Heino - Blau bluht der Enzian
DR7 -1.18 dB -9.03 dB 3:33 07-Katja Ebstein - Wunder gibt es immer wieder
DR8 -0.18 dB -10.40 dB 3:09 08-Costa Cordalis - Anita
DR7 -0.08 dB -9.23 dB 3:08 09-Bata Illic - Michaela
DR7 -0.08 dB -8.61 dB 2:49 10-Roberto Blanco - Ein bi.chen Spa. mu. sein
DR8 -0.08 dB -9.16 dB 2:37 11-Karel Gott - Die Biene Maja
DR8 -0.38 dB -9.22 dB 3:07 12-Rex Gildo - Fiesta Mexicana
DR7 -0.42 dB -8.49 dB 3:45 13-Chris Roberts - Du kannst nicht immer 17 sein
DR8 -0.08 dB -9.64 dB 3:19 14-Margot Werner - So ein Mann
DR8 -0.08 dB -9.27 dB 2:41 15-Tony Holiday - Tanze Samba mit mir
DR8 -0.08 dB -9.17 dB 3:15 16-Wencke Myhre - La. mein Knie, Joe
DR7 -0.08 dB -9.73 dB 2:54 17-Andrea Jurgens - Japanese Boy
DR8 -0.08 dB -9.34 dB 3:33 18-Ingrid Peters - Afrika
DR8 -0.08 dB -9.27 dB 2:33 19-Michael Holm - Mendocino
DR7 -0.08 dB -8.56 dB 3:26 20-Ireen Sheer - Xanadu
DR8 -0.08 dB -8.95 dB 3:06 21-Mary Roos - Aufrecht geh'n
––––––––––––––––––––––––––––––––––––––––

Number of tracks: 21
Official DR value: DR7

Samplerate: 44100 Hz
Channels: 2
Bits per sample: 16
Bitrate: 970 kbps
Codec: FLAC
================================================================================

[CUETools log; Date: 19.09.2016 17:41:53; Version: 2.1.5]
[CTDB TOCID: Xw5KG6JLNkoRZyMw1cPJY.O2Kd8-] disk not present in database.
[AccurateRip ID: 003343f6-03104b03-150fbb15] disk not present in database.

Track Peak [ CRC32 ] [W/O NULL] [ LOG ]
– 99,0 [E8D91B30] [2B324C0E] CRC32
01 95,4 [504F13CD] [AFD14DD6]
02 95,7 [445CA574] [CBF97CB4]
03 99,0 [A64A7551] [8CF361F8]
04 96,8 [222F8EB1] [ADDBFFA3]
05 99,0 [27B5297C] [79496590]
06 99,0 [F9EA133A] [C7BF8653]
07 87,2 [3FACD61D] [E48B02E5]
08 97,9 [CB6481FB] [5CCAE70F]
09 99,0 [87D04F49] [7AA1451C]
10 99,0 [142E8762] [A9432519]
11 99,0 [B34FEF27] [84B54831]
12 95,7 [4D5C7E1E] [57CE1893]
13 95,3 [29519242] [BA3937FF]
14 99,0 [3C9B723C] [719F736C]
15 99,0 [29CF7372] [7732E924]
16 99,0 [05F909E1] [71E25D13]
17 99,0 [2595BC4A] [BFF5A728]
18 99,0 [C6D5B5D6] [BC6FC0E6]
19 99,0 [3CD5BFAA] [3CCF9645]
20 99,0 [1A5D1CB6] [B5D04A5A]
21 99,0 [CD8D507F] [DD4A1A84]

Track List CD2:

01. Santa Maria - Kaiser, Roland [4:03]
02. Jenseits Von Eden - De Angelo, Nino [3:53]
03. Dein Ist Mein Ganzes Herz - Kunze, Heinz Rudolf / Werner, Pe [3:28]
04. Am Fenster - City [3:58]
05. Uber Sieben Brucken Musst Du Gehn - Karat [3:50]
06. Am Tag, Als Conny Kramer Star - Werding, Juliane [3:27]
07. Himbeereis Zum Fruhstuck - Hoffmann & Hoffmann [3:42]
08. Erna Kommt - Balder, Hugo Egon [3:26]
09. Ich Will 'Nen Cowboy Als Mann - Gitte [2:43]
10. Im Wagen Vor Mir - Valentino, Henry / Uschi [3:30]
11. Ein Schiff Wird Kommen - Andersen, Laie [2:54]
12. Es Fahrt Ein Zug Nach Nirgendwo - Anders, Christian [4:42]
13. Der Junge Mit Der Mundharmonika - Cluver, Bernd [3:18]
14. Mit 17 Hat Man Noch Traume - March, Peggy [2:44]
15. Der Wilde, Wilde Westen - Truck Stop [3:06]
16. Hey Boss, Ich Brauch Mehr Geld - Gabriel, Gunter [3:00]
17. Schone Maid - Marshall, Tony [3:58]
18. Amigo Charly Brown - Benny [2:58]
19. Du Hast Den Farbfilm Vergessen - Hagen, Nina [3:04]
20. Schuld War Nur Der Bossa Nova - Manuela [2:26]
21. Fur Mich Soll's Rote Rosen Regnen - Knef, Hildegard [3:12]

Exact Audio Copy V1.1 from 23. June 2015

EAC extraction logfile from 17. September 2016, 8:13

Various Artists / Die Hit Giganten Best of Schlager CD2

Used drive : PIONEER BD-RW BDR-209D Adapter: 0 ID: 5

Read mode : Secure
Utilize accurate stream : Yes
Defeat audio cache : Yes
Make use of C2 pointers : No

Read offset correction : 667
Overread into Lead-In and Lead-Out : No
Fill up missing offset samples with silence : Yes
Delete leading and trailing silent blocks : No
Null samples used in CRC calculations : Yes
Used interface : Installed external ASPI interface

Used output format : User Defined Encoder
Selected bitrate : 768 kBit/s
Quality : High
Add ID3 tag : No
Command line compressor : C:\Program Files (x86)\Exact Audio Copy\FLAC\FLAC.EXE
Additional command line options : -6 -V -T "ARTIST=%artist%" -T "TITLE=%title%" -T "ALBUM=%albumtitle%" -T "DATE=%year%" -T "TRACKNUMBER=%tracknr%" -T "GENRE=%genre%" -T "COMMENT=%comment%" -T "BAND=%albuminterpret%" -T "ALBUMARTIST=%albuminterpret%" -T "COMPOSER=%composer%" %haslyrics%–tag-from-file=LYRICS="%lyricsfile%"%haslyrics% -T "DISCNUMBER=%cdnumber%" -T "TOTALDISCS=%totalcds%" -T "TOTALTRACKS=%numtracks%" %hascover%–picture="%coverfile%"%hascover% %source% -o %dest%


TOC of the extracted CD

Track | Start | Length | Start sector | End sector
––––––––––––––––––––––––––––-
1 | 0:00.00 | 4:03.21 | 0 | 18245
2 | 4:03.21 | 3:53.15 | 18246 | 35735
3 | 7:56.36 | 3:27.44 | 35736 | 51304
4 | 11:24.05 | 3:58.20 | 51305 | 69174
5 | 15:22.25 | 3:49.40 | 69175 | 86389
6 | 19:11.65 | 3:26.66 | 86390 | 101905
7 | 22:38.56 | 3:42.21 | 101906 | 118576
8 | 26:21.02 | 3:25.69 | 118577 | 134020
9 | 29:46.71 | 2:42.70 | 134021 | 146240
10 | 32:29.66 | 3:30.08 | 146241 | 161998
11 | 35:59.74 | 2:53.61 | 161999 | 175034
12 | 38:53.60 | 4:41.38 | 175035 | 196147
13 | 43:35.23 | 3:18.34 | 196148 | 211031
14 | 46:53.57 | 2:44.32 | 211032 | 223363
15 | 49:38.14 | 3:05.48 | 223364 | 237286
16 | 52:43.62 | 2:59.49 | 237287 | 250760
17 | 55:43.36 | 3:57.73 | 250761 | 268608
18 | 59:41.34 | 2:57.45 | 268609 | 281928
19 | 62:39.04 | 3:03.42 | 281929 | 295695
20 | 65:42.46 | 2:26.02 | 295696 | 306647
21 | 68:08.48 | 3:11.41 | 306648 | 321013


Range status and errors

Selected range

Filename E:\MUSIC\Various Artists - Die Hit Giganten Best of Schlager CD2.wav

Peak level 99.5 %
Extraction speed 8.4 X
Range quality 99.9 %
Test CRC EED162B4
Copy CRC EED162B4
Copy OK

No errors occurred


AccurateRip summary

Track 1 not present in database
Track 2 not present in database
Track 3 not present in database
Track 4 not present in database
Track 5 not present in database
Track 6 not present in database
Track 7 not present in database
Track 8 not present in database
Track 9 not present in database
Track 10 not present in database
Track 11 not present in database
Track 12 not present in database
Track 13 not present in database
Track 14 not present in database
Track 15 not present in database
Track 16 not present in database
Track 17 not present in database
Track 18 not present in database
Track 19 not present in database
Track 20 not present in database
Track 21 not present in database

None of the tracks are present in the AccurateRip database

End of status report

==== Log checksum 3FF127103F1123BF5C25CB0830DF66C9B2D8C7C98A7EE9354CA11E7F8A6B24BB ====

foobar2000 1.2.6 / Dynamic Range Meter 1.1.1
log date: 2016-09-19 17:42:29

––––––––––––––––––––––––––––––––––––––––
Analyzed: Various Artists / Die Hit Giganten Best of Schlager CD2
––––––––––––––––––––––––––––––––––––––––

DR Peak RMS Duration Track
––––––––––––––––––––––––––––––––––––––––
DR8 -0.08 dB -9.36 dB 4:03 01-01. Santa Maria - Kaiser, Roland
DR7 -0.78 dB -9.46 dB 3:53 02-02. Jenseits Von Eden - De Angelo, Nino
DR8 -0.08 dB -9.31 dB 3:28 03-03. Dein Ist Mein Ganzes Herz - Kunze, Heinz Rudolf / Werner, Pe
DR8 -0.58 dB -11.30 dB 3:58 04-04. Am Fenster - City
DR7 -0.08 dB -10.90 dB 3:50 05-05. Uber Sieben Brucken Musst Du Gehn - Karat
DR7 -0.08 dB -9.01 dB 3:27 06-06. Am Tag, Als Conny Kramer Star - Werding, Juliane
DR8 -0.08 dB -9.84 dB 3:42 07-07. Himbeereis Zum Fruhstuck - Hoffmann & Hoffmann
DR9 -0.08 dB -10.43 dB 3:26 08-08. Erna Kommt - Balder, Hugo Egon
DR7 -0.08 dB -9.63 dB 2:43 09-09. Ich Will 'Nen Cowboy Als Mann - Gitte
DR8 -0.08 dB -9.99 dB 3:30 10-10. Im Wagen Vor Mir - Valentino, Henry / Uschi
DR8 -0.08 dB -10.82 dB 2:54 11-11. Ein Schiff Wird Kommen - Andersen, Laie
DR7 -0.33 dB -8.79 dB 4:42 12-12. Es Fahrt Ein Zug Nach Nirgendwo - Anders, Christian
DR6 -0.04 dB -8.36 dB 3:18 13-13. Der Junge Mit Der Mundharmonika - Cluver, Bernd
DR8 -0.58 dB -9.47 dB 2:44 14-14. Mit 17 Hat Man Noch Traume - March, Peggy
DR8 -0.08 dB -8.61 dB 3:06 15-15. Der Wilde, Wilde Westen - Truck Stop
DR9 -0.08 dB -10.02 dB 3:00 16-16. Hey Boss, Ich Brauch Mehr Geld - Gabriel, Gunter
DR8 -0.04 dB -11.24 dB 3:58 17-17. Schone Maid - Marshall, Tony
DR8 -0.18 dB -9.57 dB 2:58 18-18. Amigo Charly Brown - Benny
DR9 -0.08 dB -10.39 dB 3:04 19-19. Du Hast Den Farbfilm Vergessen - Hagen, Nina
DR7 -0.08 dB -9.11 dB 2:26 20-20. Schuld War Nur Der Bossa Nova - Manuela
DR7 -0.88 dB -10.43 dB 3:12 21-21. Fur Mich Soll's Rote Rosen Regnen - Knef, Hildegard
––––––––––––––––––––––––––––––––––––––––

Number of tracks: 21
Official DR value: DR8

Samplerate: 44100 Hz
Channels: 2
Bits per sample: 16
Bitrate: 945 kbps
Codec: FLAC
================================================================================

[CUETools log; Date: 19.09.2016 17:42:31; Version: 2.1.5]
[CTDB TOCID: PxwyB4Cx7nViN1rQyUubLZWCfmE-] disk not present in database.
[AccurateRip ID: 0038526f-0355b288-3e10b815] disk not present in database.

Track Peak [ CRC32 ] [W/O NULL] [ LOG ]
– 99,5 [EED162B4] [44AB86F4] CRC32
01 99,0 [B9DAEFA5] [95318C47]
02 91,4 [11F0427B] [5B39F78B]
03 99,0 [CC7ED69E] [0687454F]
04 93,5 [37B54A47] [3D24CFC5]
05 99,0 [72D338F1] [E3342F0A]
06 99,0 [ED1EBC7F] [733D003C]
07 99,0 [B679933E] [F7FEFA0D]
08 99,0 [BA49883C] [29029BB6]
09 99,0 [EBC8A4B2] [6A9A13C5]
10 99,1 [731071C9] [6ECD5DD3]
11 99,0 [0284C0DD] [C49A7106]
12 96,2 [07A8ABFA] [DF1B0C1F]
13 99,5 [542A90C6] [D9BEABAB]
14 93,4 [27931E88] [6BFA9862]
15 99,0 [359C0A1D] [774A9C4D]
16 99,0 [11F13C62] [18DE1DC1]
17 99,5 [590D4073] [B7044318]
18 97,9 [08FED1E8] [6FF0748C]
19 99,0 [92C681AB] [FC23542B]
20 99,0 [AAA20F04] [44A236FF]
21 90,3 [875A36CE] [EAD6E60A]

Track List CD3:

01. Du Hast Mich Tausendmanl Belogen - Berg, Andrea [3:14]
02. Ein Stern, Der Deinen Namen Tragt - Nik P [3:44]
03. Sie Liebt Den Dj - Wendler, Michael [4:21]
04. Ich Fang Dir Den Mond - Martin, Andreas [3:29]
05. Viva Colonia (Da Simmer Dabei, Das Ist Prima!) - Hohner [3:08]
06. Ein Bett Im Kornfeld - Drews, Jurgen [3:10]
07. Hey Baby - Dj Otzi [3:32]
08. So A Schoner Tag (Fliegerlied) - Donikkl [3:37]
09. Das Rote Pferd - Becker, Markus / Mallorca Cowboys [3:19]
10. Er Gehort Zu Mir - Rosenberg, Marianne [3:12]
11. Die Hande Zum Himmel - Kolibris, Die [3:01]
12. Schifoan - Ambros, Wolfgang [2:56]
13. Eine Neue Liebe Ist Wie Ein Neues Leben - Marcus, Jurgen [4:00]
14. Ohne Dich (Schlaf Ich Heut Nacht Nicht Ein) - Munchener Freiheit [3:16]
15. Hallo Engel - Waggershausen, Stefan [4:09]
16. Sweet Caroline - Kaiser, Roland [5:09]
17. Uber Den Wolken - Kuhn, Dieter Thomas & Band [3:40]
18. Moskau - Khan, Dschinghis [4:31]
19. Wahnsinn - Petry, Wolfgang [3:45]
20. Verdammt Ich Lieb Dich - Reim, Matthias [3:39]
21. Les Champs Elysees - Dassin, Joe [2:44]

Exact Audio Copy V1.1 from 23. June 2015

EAC extraction logfile from 17. September 2016, 8:49

Various Artists / Die Hit Giganten Best of Schlager CD3

Used drive : PIONEER BD-RW BDR-209D Adapter: 0 ID: 5

Read mode : Secure
Utilize accurate stream : Yes
Defeat audio cache : Yes
Make use of C2 pointers : No

Read offset correction : 667
Overread into Lead-In and Lead-Out : No
Fill up missing offset samples with silence : Yes
Delete leading and trailing silent blocks : No
Null samples used in CRC calculations : Yes
Used interface : Installed external ASPI interface

Used output format : User Defined Encoder
Selected bitrate : 768 kBit/s
Quality : High
Add ID3 tag : No
Command line compressor : C:\Program Files (x86)\Exact Audio Copy\FLAC\FLAC.EXE
Additional command line options : -6 -V -T "ARTIST=%artist%" -T "TITLE=%title%" -T "ALBUM=%albumtitle%" -T "DATE=%year%" -T "TRACKNUMBER=%tracknr%" -T "GENRE=%genre%" -T "COMMENT=%comment%" -T "BAND=%albuminterpret%" -T "ALBUMARTIST=%albuminterpret%" -T "COMPOSER=%composer%" %haslyrics%–tag-from-file=LYRICS="%lyricsfile%"%haslyrics% -T "DISCNUMBER=%cdnumber%" -T "TOTALDISCS=%totalcds%" -T "TOTALTRACKS=%numtracks%" %hascover%–picture="%coverfile%"%hascover% %source% -o %dest%


TOC of the extracted CD

Track | Start | Length | Start sector | End sector
––––––––––––––––––––––––––––-
1 | 0:00.00 | 3:14.00 | 0 | 14549
2 | 3:14.00 | 3:44.37 | 14550 | 31386
3 | 6:58.37 | 4:20.53 | 31387 | 50939
4 | 11:19.15 | 3:29.28 | 50940 | 66642
5 | 14:48.43 | 3:08.11 | 66643 | 80753
6 | 17:56.54 | 3:09.68 | 80754 | 94996
7 | 21:06.47 | 3:32.31 | 94997 | 110927
8 | 24:39.03 | 3:37.22 | 110928 | 127224
9 | 28:16.25 | 3:18.71 | 127225 | 142145
10 | 31:35.21 | 3:11.55 | 142146 | 156525
11 | 34:47.01 | 3:00.72 | 156526 | 170097
12 | 37:47.73 | 2:56.28 | 170098 | 183325
13 | 40:44.26 | 3:59.42 | 183326 | 201292
14 | 44:43.68 | 3:16.17 | 201293 | 216009
15 | 48:00.10 | 4:08.59 | 216010 | 234668
16 | 52:08.69 | 5:09.02 | 234669 | 257845
17 | 57:17.71 | 3:40.37 | 257846 | 274382
18 | 60:58.33 | 4:31.20 | 274383 | 294727
19 | 65:29.53 | 3:44.65 | 294728 | 311592
20 | 69:14.43 | 3:38.73 | 311593 | 328015
21 | 72:53.41 | 2:43.44 | 328016 | 340284


Range status and errors

Selected range

Filename E:\MUSIC\Various Artists - Die Hit Giganten Best of Schlager CD3.wav

Peak level 99.9 %
Extraction speed 8.6 X
Range quality 99.9 %
Test CRC B1965912
Copy CRC B1965912
Copy OK

No errors occurred


AccurateRip summary

Track 1 not present in database
Track 2 not present in database
Track 3 not present in database
Track 4 not present in database
Track 5 not present in database
Track 6 not present in database
Track 7 not present in database
Track 8 not present in database
Track 9 not present in database
Track 10 not present in database
Track 11 not present in database
Track 12 not present in database
Track 13 not present in database
Track 14 not present in database
Track 15 not present in database
Track 16 not present in database
Track 17 not present in database
Track 18 not present in database
Track 19 not present in database
Track 20 not present in database
Track 21 not present in database

None of the tracks are present in the AccurateRip database

End of status report

==== Log checksum B9A34BDF8905603A0DCE542919FB3638181E1D30270978E086DE48222949EBBF ====

foobar2000 1.2.6 / Dynamic Range Meter 1.1.1
log date: 2016-09-19 17:43:05

––––––––––––––––––––––––––––––––––––––––
Analyzed: Various Artists / Die Hit Giganten Best of Schlager CD3
––––––––––––––––––––––––––––––––––––––––

DR Peak RMS Duration Track
––––––––––––––––––––––––––––––––––––––––
DR6 -0.13 dB -6.86 dB 3:14 01-01. Du Hast Mich Tausendmanl Belogen - Berg, Andrea
DR7 -0.01 dB -7.89 dB 3:44 02-02. Ein Stern, Der Deinen Namen Tragt - Nik P
DR7 -0.13 dB -8.13 dB 4:21 03-03. Sie Liebt Den Dj - Wendler, Michael
DR7 -0.10 dB -8.29 dB 3:29 04-04. Ich Fang Dir Den Mond - Martin, Andreas
DR5 -1.25 dB -7.75 dB 3:08 05-05. Viva Colonia (Da Simmer Dabei, Das Ist Prima!) - Hohner
DR6 -0.37 dB -8.58 dB 3:10 06-06. Ein Bett Im Kornfeld - Drews, Jurgen
DR7 -0.08 dB -8.13 dB 3:32 07-07. Hey Baby - Dj Otzi
DR6 -0.38 dB -8.30 dB 3:37 08-08. So A Schoner Tag (Fliegerlied) - Donikkl
DR7 -0.09 dB -9.31 dB 3:19 09-09. Das Rote Pferd - Becker, Markus / Mallorca Cowboys
DR6 -0.98 dB -7.70 dB 3:12 10-10. Er Gehort Zu Mir - Rosenberg, Marianne
DR7 -0.50 dB -8.29 dB 3:01 11-11. Die Hande Zum Himmel - Kolibris, Die
DR7 -0.08 dB -8.11 dB 2:56 12-12. Schifoan - Ambros, Wolfgang
DR6 -0.40 dB -8.38 dB 4:00 13-13. Eine Neue Liebe Ist Wie Ein Neues Leben - Marcus, Jurgen
DR7 -0.86 dB -8.87 dB 3:16 14-14. Ohne Dich (Schlaf Ich Heut Nacht Nicht Ein) - Munchener Freiheit
DR8 -0.08 dB -10.67 dB 4:09 15-15. Hallo Engel - Waggershausen, Stefan
DR7 -0.48 dB -9.11 dB 5:09 16-16. Sweet Caroline - Kaiser, Roland
DR7 -0.08 dB -9.53 dB 3:40 17-17. Uber Den Wolken - Kuhn, Dieter Thomas & Band
DR8 -0.08 dB -8.88 dB 4:31 18-18. Moskau - Khan, Dschinghis
DR8 -0.08 dB -9.03 dB 3:45 19-19. Wahnsinn - Petry, Wolfgang
DR7 -0.03 dB -8.71 dB 3:39 20-20. Verdammt Ich Lieb Dich - Reim, Matthias
DR7 -0.08 dB -8.30 dB 2:44 21-21. Les Champs Elysees - Dassin, Joe
––––––––––––––––––––––––––––––––––––––––

Number of tracks: 21
Official DR value: DR7

Samplerate: 44100 Hz
Channels: 2
Bits per sample: 16
Bitrate: 1003 kbps
Codec: FLAC
================================================================================

[CUETools log; Date: 19.09.2016 17:43:08; Version: 2.1.5]
[CTDB TOCID: 2NfQQYp9j3uZTVIDdFrs.45WZbQ-] disk not present in database.
[AccurateRip ID: 00384797-0361f513-5411b915] disk not present in database.

Track Peak [ CRC32 ] [W/O NULL] [ LOG ]
– 99,9 [B1965912] [7A3483E9] CRC32
01 98,4 [4DAE4AAB] [40BD7E0B]
02 99,9 [B9DD9ECB] [8ADD9AE7]
03 98,4 [E1386C5C] [19F69430]
04 98,8 [B828E040] [70230940]
05 86,6 [1DD7B448] [B0D363B4]
06 95,8 [F01F7F4C] [66E361C7]
07 99,0 [8A879612] [C7B7D5E9]
08 95,6 [8C9AF552] [D1440591]
09 99,0 [C14D8AD7] [14C7B221]
10 89,2 [6A6D566B] [53123D05]
11 94,3 [B9B5A969] [6F82CA59]
12 99,0 [D219589A] [E2DBB1F6]
13 95,4 [845BA0DD] [65B6F876]
14 90,6 [ECA5BD8B] [2AC1711D]
15 99,0 [92DFE916] [A7574E87]
16 94,5 [A66683FA] [3C32CB07]
17 99,0 [6988E655] [07DC3C6F]
18 99,0 [35E3C64D] [0728BBF9]
19 99,0 [6AA3DA45] [4CC7EE4D]
20 99,7 [E8A12479] [2FE32AD2]
21 99,0 [CD791D78] [640C8610]

VA - Die Hit Giganten: Best Of Schlager (2016) {3CD Box Set}