Subcategories

VA - Dubnology: Journeys Into Outer Bass (1995) 2CDs

Posted By: Designol
VA - Dubnology: Journeys Into Outer Bass (1995) 2CDs

VA - Dubnology: Journeys Into Outer Bass (1995) 2CDs
EAC | FLAC | Tracks (Cue&Log) ~ 877 Mb | Mp3 (CBR320) ~ 335 Mb | Scans ~ 148 Mb
Label: Middle Earth Recordings | # MIDDLE 04 CD | Time: 02:26:25
Electronic, Dub, Ambient Techno, Trance, IDM, Alternative Dance-Rock, Trip-Hop

The Dubnology compilation is a two-disc, 21-track collection of spacy late-'90s electronic dub, heavy on the bass, demonstrating that the music has become more techno-influenced and reliant on electronics and technology. Highlights include tracks by System7, Loop Guru, Zion Train, Meat Beat Manifesto, and Banco de Gaia; the booklet includes biographies and photos of all the artists.

Review by Steve Huey, Allmusic.com

The collision of dub, founded in the antics of Jamaican engineers and DJs, with the ever-expanding varieties of techno was a given; the prodigious output of Bill Laswell certainly laid the groundwork, with Jah Wobble coming up in support. While these bridges might well have been enough, Jamaican music itself had undergone a metamorphosis with the appearance of dancehall, ragamuffin, and computer styles that more and more pushed reggae and dub into more tightly programmed arrangements. The resulting unchecked cross-pollination resulted in a flavor of dub that was new and punchy; as often as not, the basic rhythm simply kept going and going, while performers and engineers worked on the other sounds and tossed in a major dollop of synthesizer squalling for good measure. This two-disc set provides the listener with a variety of approaches, including a couple of more traditional efforts such as Zion Train's "Follow Like Wolves." In a number of other cases, the point is less hewing to anything like traditional dub rhythms; the method is the issue (the connection made by Laswell, who applies dub methodology in whatever context he likes). Alas, more than a little space is given up to more traditional techno, trip-hop, and trance, losing the dub aspect in the process. The System 7, Astralasia, and Eat Static entries definitely don't fit with the genre. Overall, however, this is a good selection of artists and cuts drawn from many of the more interesting labels (such as On-U Sound.)

Review by Steven McDonald, Allmusic.com

Tracklist:

CD1 (1:15:09)

01. Dread Zone - House Of Dread (5:05)
02. Revolutionary Dub Warriors - Walkabout (5:39)
03. Zion Train - Follow Like Wolves (Original 12'' Mix) (5:58)
04. Asian Dub Foundation - Nazrul Dub (5:36)
05. System 7 - 7-7 Expansion (Conspiracy Mix By Youth) (10:01)
06. Astralasia - Univeria Zekt (Kobaian Love Chant) (6:53)
07. Renegade Soundwave - Brixton (Dub Mix) (7:07)
08. Tribal Drift - Ants (8:52)
09. SYT - School Of Thought (8:52)
10. Timeshard - 25th Century (6:27)
11. Black Star Liner - Fatta Connection (4:40)


CD2 (1:11:16)

01. Eat Static - Survivors (7:46)
02. Meat Beat Manifesto - Mindstream (Mind The Bend The Mind - Orbital Mix) (8:26)
03. Trans-Global Underground - International Times (Haunted Dancehall - Sabres Of Paradise Mix) (8:08)
04. Woodshed - Bills Last Stand (6:22)
05. The Rootsman - Rougher Dub (Lionheart Exclusive Mix) (6:59)
06. Knights Of The Occasional Table - Um Baby (6:02)
07. Banco De Gaia - Lai Lah (v.1.00) (7:17)
08. UVX - Shape Of Life (5:49)
09. Loop Guru - Paradigm Shuffle (4:30)
10. Underworld - Rez (9:56)


Exact Audio Copy V1.0 beta 4 from 7. December 2014

EAC extraction logfile from 16. September 2017, 21:06

Various Artists / Dubnology (Journeys Into Outer Bass) (CD1)

Used drive : TSSTcorpCDDVDW SH-224DB Adapter: 1 ID: 0

Read mode : Secure
Utilize accurate stream : Yes
Defeat audio cache : Yes
Make use of C2 pointers : No

Read offset correction : 6
Overread into Lead-In and Lead-Out : No
Fill up missing offset samples with silence : Yes
Delete leading and trailing silent blocks : No
Null samples used in CRC calculations : Yes
Used interface : Native Win32 interface for Win NT & 2000
Gap handling : Appended to previous track

Used output format : User Defined Encoder
Selected bitrate : 896 kBit/s
Quality : High
Add ID3 tag : No
Command line compressor : C:\Program Files\Exact Audio Copy\Flac\flac.exe
Additional command line options : -5 -V -T "ARTIST=%artist%" -T "TITLE=%title%" -T "ALBUM=%albumtitle%" -T "DATE=%year%" -T "TRACKNUMBER=%tracknr%" -T "GENRE=%genre%" -T "COMMENT=%comment%" %source% -o %dest%


TOC of the extracted CD

Track | Start | Length | Start sector | End sector
––––––––––––––––––––––––––––-
1 | 0:00.00 | 5:05.00 | 0 | 22874
2 | 5:05.00 | 5:39.37 | 22875 | 48336
3 | 10:44.37 | 5:57.45 | 48337 | 75156
4 | 16:42.07 | 5:36.00 | 75157 | 100356
5 | 22:18.07 | 10:01.30 | 100357 | 145461
6 | 32:19.37 | 6:53.23 | 145462 | 176459
7 | 39:12.60 | 7:06.42 | 176460 | 208451
8 | 46:19.27 | 8:51.43 | 208452 | 248319
9 | 55:10.70 | 8:51.55 | 248320 | 288199
10 | 64:02.50 | 6:26.40 | 288200 | 317189
11 | 70:29.15 | 4:39.60 | 317190 | 338174


Track 1

Filename C:\New Folder\01 - Dread Zone - House Of Dread.wav

Pre-gap length 0:00:02.00

Peak level 100.0 %
Extraction speed 2.0 X
Track quality 100.0 %
Test CRC 685DDDFE
Copy CRC 685DDDFE
Accurately ripped (confidence 6) [4F89FA5B] (AR v2)
Copy OK

Track 2

Filename C:\New Folder\02 - Revolutionary Dub Warriors - Walkabout.wav

Peak level 88.5 %
Extraction speed 2.3 X
Track quality 100.0 %
Test CRC F5CCFA0E
Copy CRC F5CCFA0E
Accurately ripped (confidence 6) [EC4402A1] (AR v2)
Copy OK

Track 3

Filename C:\New Folder\03 - Zion Train - Follow Like Wolves (Original 12'' Mix).wav

Peak level 72.8 %
Extraction speed 2.6 X
Track quality 100.0 %
Test CRC D9C0922D
Copy CRC D9C0922D
Accurately ripped (confidence 6) [92D9F2FC] (AR v2)
Copy OK

Track 4

Filename C:\New Folder\04 - Asian Dub Foundation - Nazrul Dub.wav

Peak level 81.3 %
Extraction speed 2.4 X
Track quality 99.9 %
Test CRC E4D90E46
Copy CRC E4D90E46
Accurately ripped (confidence 6) [147268AA] (AR v2)
Copy OK

Track 5

Filename C:\New Folder\05 - System 7 - 7-7 Expansion (Conspiracy Mix By Youth).wav

Peak level 100.0 %
Extraction speed 3.2 X
Track quality 100.0 %
Test CRC CDBBB985
Copy CRC CDBBB985
Accurately ripped (confidence 6) [BC3AE5E1] (AR v2)
Copy OK

Track 6

Filename C:\New Folder\06 - Astralasia - Univeria Zekt (Kobaian Love Chant).wav

Pre-gap length 0:00:00.05

Peak level 89.1 %
Extraction speed 2.9 X
Track quality 99.9 %
Test CRC 1E93FD63
Copy CRC 1E93FD63
Accurately ripped (confidence 6) [59F0337A] (AR v2)
Copy OK

Track 7

Filename C:\New Folder\07 - Renegade Soundwave - Brixton (Dub Mix).wav

Peak level 79.7 %
Extraction speed 3.6 X
Track quality 100.0 %
Test CRC 782260D0
Copy CRC 782260D0
Accurately ripped (confidence 6) [4F327C1D] (AR v2)
Copy OK

Track 8

Filename C:\New Folder\08 - Tribal Drift - Ants.wav

Peak level 100.0 %
Extraction speed 3.9 X
Track quality 100.0 %
Test CRC D78B3C4C
Copy CRC D78B3C4C
Accurately ripped (confidence 6) [1DECCC12] (AR v2)
Copy OK

Track 9

Filename C:\New Folder\09 - SYT - School Of Thought.wav

Peak level 76.8 %
Extraction speed 4.1 X
Track quality 100.0 %
Test CRC CE337447
Copy CRC CE337447
Accurately ripped (confidence 6) [36840265] (AR v2)
Copy OK

Track 10

Filename C:\New Folder\10 - Timeshard - 25th Century.wav

Peak level 97.3 %
Extraction speed 4.2 X
Track quality 100.0 %
Test CRC 0CF76CF7
Copy CRC 0CF76CF7
Accurately ripped (confidence 6) [5582B848] (AR v2)
Copy OK

Track 11

Filename C:\New Folder\11 - Black Star Liner - Fatta Connection.wav

Peak level 100.0 %
Extraction speed 4.1 X
Track quality 100.0 %
Test CRC 51D35B29
Copy CRC 51D35B29
Accurately ripped (confidence 6) [EA531215] (AR v2)
Copy OK


All tracks accurately ripped

No errors occurred

End of status report

–– CUETools DB Plugin V2.1.4

[CTDB TOCID: agANsv_9buZJWQcB.xno.sbCQtU-] found
Submit result: agANsv_9buZJWQcB.xno.sbCQtU- has been confirmed
Track | CTDB Status
1 | (18/18) Accurately ripped
2 | (17/18) Accurately ripped
3 | (17/18) Accurately ripped
4 | (18/18) Accurately ripped
5 | (17/18) Accurately ripped
6 | (17/18) Accurately ripped
7 | (18/18) Accurately ripped
8 | (18/18) Accurately ripped
9 | (17/18) Accurately ripped
10 | (18/18) Accurately ripped
11 | (18/18) Accurately ripped


==== Log checksum 48B40B17BAB109483C2B680AF6116C8934695961EE525D5D43707C82A47703CD ====

foobar2000 1.2 / Dynamic Range Meter 1.1.1
log date: 2017-11-19 18:47:55

––––––––––––––––––––––––––––––––––––––––
Analyzed: Asian Dub Foundation / Dubnology (Journeys Into Outer Bass) (CD1) (1)
Astralasia / Dubnology (Journeys Into Outer Bass) (CD1) (2)
Black Star Liner / Dubnology (Journeys Into Outer Bass) (CD1) (3)
Dread Zone / Dubnology (Journeys Into Outer Bass) (CD1) (4)
Renegade Soundwave / Dubnology (Journeys Into Outer Bass) (CD1) (5)
Revolutionary Dub Warriors / Dubnology (Journeys Into Outer Bass) (CD1) (6)
System 7 / Dubnology (Journeys Into Outer Bass) (CD1) (7)
SYT / Dubnology (Journeys Into Outer Bass) (CD1) (8)
Timeshard / Dubnology (Journeys Into Outer Bass) (CD1) (9)
Tribal Drift / Dubnology (Journeys Into Outer Bass) (CD1) (10)
Zion Train / Dubnology (Journeys Into Outer Bass) (CD1) (11)
––––––––––––––––––––––––––––––––––––––––

DR Peak RMS Duration Track
––––––––––––––––––––––––––––––––––––––––
DR10 -1.80 dB -15.30 dB 5:36 04-Nazrul Dub
DR12 -1.00 dB -14.55 dB 6:53 06-Univeria Zekt (Kobaian Love Chant)
DR13 0.00 dB -13.84 dB 4:40 11-Fatta Connection
DR13 0.00 dB -14.65 dB 5:05 01-House Of Dread
DR9 -1.96 dB -12.73 dB 7:07 07-Brixton (Dub Mix)
DR11 -1.05 dB -13.78 dB 5:39 02-Walkabout
DR13 0.00 dB -13.65 dB 10:01 05-7-7 Expansion (Conspiracy Mix By Youth)
DR10 -2.28 dB -14.87 dB 8:52 09-School Of Thought
DR12 -0.23 dB -14.54 dB 6:27 10-25th Century
DR11 0.00 dB -13.34 dB 8:52 08-Ants
DR9 -2.75 dB -13.14 dB 5:58 03-Follow Like Wolves (Original 12'' Mix)
––––––––––––––––––––––––––––––––––––––––

Number of tracks: 11
Official DR value: DR11

Samplerate: 44100 Hz
Channels: 2
Bits per sample: 16
Bitrate: 835 kbps
Codec: FLAC
================================================================================


Exact Audio Copy V1.0 beta 4 from 7. December 2014

EAC extraction logfile from 16. September 2017, 23:59

Various / Dubnology (Journeys Into Outer Bass) (CD2)

Used drive : TSSTcorpCDDVDW SH-224DB Adapter: 1 ID: 0

Read mode : Secure
Utilize accurate stream : Yes
Defeat audio cache : Yes
Make use of C2 pointers : No

Read offset correction : 6
Overread into Lead-In and Lead-Out : No
Fill up missing offset samples with silence : Yes
Delete leading and trailing silent blocks : No
Null samples used in CRC calculations : Yes
Used interface : Native Win32 interface for Win NT & 2000
Gap handling : Appended to previous track

Used output format : User Defined Encoder
Selected bitrate : 896 kBit/s
Quality : High
Add ID3 tag : No
Command line compressor : C:\Program Files\Exact Audio Copy\Flac\flac.exe
Additional command line options : -5 -V -T "ARTIST=%artist%" -T "TITLE=%title%" -T "ALBUM=%albumtitle%" -T "DATE=%year%" -T "TRACKNUMBER=%tracknr%" -T "GENRE=%genre%" -T "COMMENT=%comment%" %source% -o %dest%


TOC of the extracted CD

Track | Start | Length | Start sector | End sector
––––––––––––––––––––––––––––-
1 | 0:00.00 | 7:46.27 | 0 | 34976
2 | 7:46.27 | 8:26.20 | 34977 | 72946
3 | 16:12.47 | 8:08.33 | 72947 | 109579
4 | 24:21.05 | 6:21.70 | 109580 | 138224
5 | 30:43.00 | 6:59.25 | 138225 | 169674
6 | 37:42.25 | 6:02.07 | 169675 | 196831
7 | 43:44.32 | 7:17.23 | 196832 | 229629
8 | 51:01.55 | 5:49.07 | 229630 | 255811
9 | 56:50.62 | 4:29.55 | 255812 | 276041
10 | 61:20.42 | 9:55.53 | 276042 | 320719


Track 1

Filename C:\New Folder\01 - Eat Static - Survivors.wav

Pre-gap length 0:00:02.00

Peak level 88.3 %
Extraction speed 2.1 X
Track quality 100.0 %
Test CRC 3E6A09E7
Copy CRC 3E6A09E7
Accurately ripped (confidence 6) [DB4AFFD2] (AR v2)
Copy OK

Track 2

Filename C:\New Folder\02 - Meat Beat Manifesto - Mindstream (Mind The Bend The Mind - Orbital Mix).wav

Pre-gap length 0:00:00.65

Peak level 98.8 %
Extraction speed 2.2 X
Track quality 99.9 %
Test CRC 750B0C67
Copy CRC 750B0C67
Accurately ripped (confidence 6) [95E7A0C7] (AR v2)
Copy OK

Track 3

Filename C:\New Folder\03 - Trans-Global Underground - International Times (Haunted Dancehall - Sabres Of Paradise Mix).wav

Pre-gap length 0:00:00.62

Peak level 100.0 %
Extraction speed 2.8 X
Track quality 100.0 %
Test CRC 0C50B61D
Copy CRC 0C50B61D
Accurately ripped (confidence 6) [EC324CD9] (AR v2)
Copy OK

Track 4

Filename C:\New Folder\04 - Woodshed - Bills Last Stand.wav

Peak level 100.0 %
Extraction speed 3.0 X
Track quality 100.0 %
Test CRC A277E16F
Copy CRC A277E16F
Accurately ripped (confidence 6) [CC35B2E1] (AR v2)
Copy OK

Track 5

Filename C:\New Folder\05 - The Rootsman - Rougher Dub (Lionheart Exclusive Mix).wav

Peak level 100.0 %
Extraction speed 3.2 X
Track quality 100.0 %
Test CRC 8F8D5EAB
Copy CRC 8F8D5EAB
Accurately ripped (confidence 6) [BC68E9D7] (AR v2)
Copy OK

Track 6

Filename C:\New Folder\06 - Knights Of The Occasional Table - Um Baby.wav

Peak level 94.4 %
Extraction speed 3.4 X
Track quality 100.0 %
Test CRC CDA86E1E
Copy CRC CDA86E1E
Accurately ripped (confidence 6) [B7AB8561] (AR v2)
Copy OK

Track 7

Filename C:\New Folder\07 - Banco De Gaia - Lai Lah (v.1.00).wav

Peak level 98.8 %
Extraction speed 3.6 X
Track quality 100.0 %
Test CRC D1F63889
Copy CRC D1F63889
Accurately ripped (confidence 6) [ED060397] (AR v2)
Copy OK

Track 8

Filename C:\New Folder\08 - UVX - Shape Of Life.wav

Peak level 95.1 %
Extraction speed 3.7 X
Track quality 100.0 %
Test CRC 47614751
Copy CRC 47614751
Accurately ripped (confidence 6) [8DD295B0] (AR v2)
Copy OK

Track 9

Filename C:\New Folder\09 - Loop Guru - Paradigm Shuffle.wav

Pre-gap length 0:00:01.17

Peak level 91.2 %
Extraction speed 3.8 X
Track quality 100.0 %
Test CRC 97D731C4
Copy CRC 97D731C4
Accurately ripped (confidence 6) [6C389315] (AR v2)
Copy OK

Track 10

Filename C:\New Folder\10 - Underworld - Rez.wav

Peak level 100.0 %
Extraction speed 4.2 X
Track quality 100.0 %
Test CRC 45D22F0D
Copy CRC 45D22F0D
Accurately ripped (confidence 6) [4DD2AA59] (AR v2)
Copy OK


All tracks accurately ripped

No errors occurred

End of status report

–– CUETools DB Plugin V2.1.4

[CTDB TOCID: DORi9m0MdEAkputJxAZlM5iHm6A-] found
Submit result: DORi9m0MdEAkputJxAZlM5iHm6A- has been confirmed
Track | CTDB Status
1 | (16/17) Accurately ripped
2 | (16/17) Accurately ripped
3 | (16/17) Accurately ripped
4 | (16/17) Accurately ripped
5 | (16/17) Accurately ripped
6 | (16/17) Accurately ripped
7 | (16/17) Accurately ripped
8 | (16/17) Accurately ripped
9 | (16/17) Accurately ripped
10 | (16/17) Accurately ripped


==== Log checksum AFB68D7520528433F48F78381E1D41EDA8CE50BAF71C129BA9EC735997D9DC3E ====

foobar2000 1.2 / Dynamic Range Meter 1.1.1
log date: 2017-11-19 18:48:27

––––––––––––––––––––––––––––––––––––––––
Analyzed: Banco De Gaia / Dubnology (Journeys Into Outer Bass) (CD2) (1)
Eat Static / Dubnology (Journeys Into Outer Bass) (CD2) (2)
Knights Of The Occasional Table / Dubnology (Journeys Into Outer Bass) (CD2) (3)
Loop Guru / Dubnology (Journeys Into Outer Bass) (CD2) (4)
Meat Beat Manifesto / Dubnology (Journeys Into Outer Bass) (CD2) (5)
The Rootsman / Dubnology (Journeys Into Outer Bass) (CD2) (6)
Trans-Global Underground / Dubnology (Journeys Into Outer Bass) (CD2) (7)
Underworld / Dubnology (Journeys Into Outer Bass) (CD2) (8)
UVX / Dubnology (Journeys Into Outer Bass) (CD2) (9)
Woodshed / Dubnology (Journeys Into Outer Bass) (CD2) (10)
––––––––––––––––––––––––––––––––––––––––

DR Peak RMS Duration Track
––––––––––––––––––––––––––––––––––––––––
DR14 -0.10 dB -16.52 dB 7:17 07-Lai Lah (v.1.00)
DR12 -1.08 dB -15.34 dB 7:46 01-Survivors
DR11 -0.50 dB -14.02 dB 6:02 06-Um Baby
DR11 -0.80 dB -13.74 dB 4:30 09-Paradigm Shuffle
DR11 -0.10 dB -12.37 dB 8:26 02-Mindstream (Mind The Bend The Mind - Orbital Mix)
DR14 0.00 dB -15.80 dB 6:59 05-Rougher Dub (Lionheart Exclusive Mix)
DR13 0.00 dB -14.88 dB 8:08 03-International Times (Haunted Dancehall - Sabres Of Paradise Mix)
DR12 0.00 dB -15.46 dB 9:56 10-Rez
DR15 -0.43 dB -18.11 dB 5:49 08-Shape Of Life
DR13 0.00 dB -14.94 dB 6:22 04-Bills Last Stand
––––––––––––––––––––––––––––––––––––––––

Number of tracks: 10
Official DR value: DR12

Samplerate: 44100 Hz
Channels: 2
Bits per sample: 16
Bitrate: 872 kbps
Codec: FLAC
================================================================================

VA - Dubnology: Journeys Into Outer Bass (1995) 2CDs

VA - Dubnology: Journeys Into Outer Bass (1995) 2CDs

All thanks to original releaser - alekow

More interesting music in My Blog